<?xml version="1.0" standalone="no"?>
<!DOCTYPE svg PUBLIC "-//W3C//DTD SVG 1.1//EN" "http://www.w3.org/Graphics/SVG/1.1/DTD/svg11.dtd" >
<svg xmlns="http://www.w3.org/2000/svg" xmlns:xlink="http://www.w3.org/1999/xlink" version="1.1">
<metadata>
Created by FontForge 20201107 at Wed Dec 27 15:33:36 2023
 By 
Mark Bloom and Joe Leadbeater (c) 2018
</metadata>
<defs>
<font id="Aeonik-Thin" horiz-adv-x="1091" >
  <font-face 
    font-family="Aeonik Thin"
    font-weight="200"
    font-stretch="normal"
    units-per-em="2048"
    panose-1="2 1 5 3 3 3 0 0 0 0"
    ascent="1638"
    descent="-410"
    x-height="1034"
    cap-height="1434"
    bbox="-694 -422 4512 1849"
    underline-thickness="36"
    underline-position="-446"
    unicode-range="U+0020-1F10C"
  />
<missing-glyph horiz-adv-x="1269" 
d="M164 1434h942v-1573h-942v1573z" />
    <glyph glyph-name="fi" unicode="fi" horiz-adv-x="925" 
d="M791 0h-46v991h-499v-991h-45v991h-203v43h203v185q0 115 51 164q53 51 164 51h139v-43h-137q-94 0 -133 -39t-39 -131v-187h545v-1034zM801 1385q12 -13 12 -33q0 -21 -12 -33t-33 -12t-33 12t-12 33q0 20 12 33q12 14 33 14t33 -14z" />
    <glyph glyph-name="f_f.liga" unicode="ff" horiz-adv-x="1107" 
d="M829 1352q-38 -38 -38 -131v-187h327v-43h-327v-991h-46v991h-499v-991h-45v991h-203v43h203v185q0 115 51 164q53 51 164 51h139v-43h-137q-94 0 -133 -39t-39 -131v-187h499v185q0 114 52 164q53 51 164 51h159v-43h-157q-95 0 -134 -39z" />
    <glyph glyph-name="f_f_i.liga" unicode="ffi" horiz-adv-x="1470" 
d="M1335 0h-45v991h-499v-991h-46v991h-499v-991h-45v991h-203v43h203v185q0 115 51 164q53 51 164 51h139v-43h-137q-94 0 -133 -39t-39 -131v-187h499v185q0 114 52 164q53 51 164 51h139v-43h-137q-95 0 -134 -39q-38 -38 -38 -131v-187h544v-1034zM1346 1385
q12 -13 12 -33q0 -21 -12 -33t-33 -12t-33 12t-12 33q0 20 12 33q12 14 33 14t33 -14z" />
    <glyph glyph-name="f_f_t.liga" unicode="fft" horiz-adv-x="1665" 
d="M1630 43v-43h-125q-115 0 -165 50t-50 165v776h-499v-991h-46v991h-499v-991h-45v991h-203v43h203v185q0 115 51 164q53 51 164 51h139v-43h-137q-94 0 -133 -39t-39 -131v-187h499v185q0 114 52 164q53 51 164 51h139v-43h-137q-95 0 -134 -39q-38 -38 -38 -131v-187
h499v289h45v-289h289v-43h-289v-776q0 -94 39 -133t133 -39h123z" />
    <glyph glyph-name="f_t.liga" unicode="ft" horiz-adv-x="1120" 
d="M1085 43v-43h-124q-115 0 -165 50q-51 51 -51 165v776h-499v-991h-45v991h-203v43h203v185q0 115 51 164q53 51 164 51h139v-43h-137q-94 0 -133 -39t-39 -131v-187h499v289h46v-289h288v-43h-288v-776q0 -95 38 -133q39 -39 134 -39h122z" />
    <glyph glyph-name="t_t.liga" unicode="tt" horiz-adv-x="1120" 
d="M1085 43v-43h-124q-115 0 -165 50q-51 51 -51 165v776h-499v-776q0 -94 39 -133t133 -39h98v-43h-100q-115 0 -165 50t-50 165v776h-203v43h203v289h45v-289h499v289h46v-289h288v-43h-288v-776q0 -95 38 -133q39 -39 134 -39h122z" />
    <glyph glyph-name=".notdef" horiz-adv-x="1269" 
d="M164 1434h942v-1573h-942v1573z" />
    <glyph glyph-name=".null" horiz-adv-x="0" 
 />
    <glyph glyph-name="nonmarkingreturn" horiz-adv-x="682" 
 />
    <glyph glyph-name="space" unicode=" " horiz-adv-x="567" 
 />
    <glyph glyph-name="exclam" unicode="!" horiz-adv-x="395" 
d="M180 406l-6 1028h47l-4 -1028h-37zM168 65q11 11 31 11q18 0 29 -11q12 -12 12 -30q0 -19 -12 -31t-29 -12q-19 0 -31 12t-12 31q0 18 12 30z" />
    <glyph glyph-name="quotedbl" unicode="&#x22;" horiz-adv-x="659" 
d="M168 1438q25 0 25 -25l-7 -393h-36l-7 393q0 25 25 25zM492 1438q24 0 24 -25l-6 -393h-37l-6 393q0 25 25 25z" />
    <glyph glyph-name="numbersign" unicode="#" horiz-adv-x="1216" 
d="M496 1241h39l-64 -407h338l63 407h39l-63 -407h256v-39h-260l-53 -349h264v-38h-271l-63 -408h-39l63 408h-337l-62 -408h-41l64 408h-254v38h260l51 349h-264v39h270zM467 795l-53 -349h338l51 349h-336z" />
    <glyph glyph-name="dollar" unicode="$" horiz-adv-x="1204" 
d="M975 104q-121 -103 -332 -114v-209h-43v209q-215 1 -349 117q-131 114 -142 309h45q11 -175 134 -279t320 -104q202 0 323 92q120 91 120 252q0 109 -62 176q-61 65 -156 97q-103 34 -239 57q-152 27 -243 57q-88 29 -153 100q-63 69 -63 197q0 178 125 280t340 107v207
h43v-207q183 -7 301 -112q117 -104 135 -269h-47q-21 156 -133 247t-289 91q-200 0 -313 -91q-115 -92 -115 -251q0 -109 58 -172q57 -61 142 -88q79 -25 230 -53q144 -23 250 -61q105 -37 169 -110q67 -76 67 -200q0 -170 -123 -275z" />
    <glyph glyph-name="percent" unicode="%" horiz-adv-x="1763" 
d="M185 1276q43 78 120 123t168 45t168 -45t120 -123q44 -79 44 -172t-44 -172t-120 -122q-77 -44 -168 -44t-168 44q-76 43 -120 122t-44 172t44 172zM383 0l952 1434h47l-954 -1434h-45zM681 1319q-83 86 -208 86t-208 -86t-83 -215q0 -83 38 -153q36 -66 105 -107
q66 -39 148 -39q83 0 149 39q68 40 104 107q38 70 38 153q0 129 -83 215zM1002 500q44 78 120 123t168 45t169 -45q78 -46 121 -123q44 -79 44 -172t-44 -172q-43 -77 -121 -123q-77 -45 -169 -45t-168 45t-120 123q-44 79 -44 172t44 172zM1543 480q-37 68 -104 109
q-65 40 -149 40q-124 0 -207 -86q-82 -85 -82 -215t82 -215q83 -86 207 -86q125 0 208 86t83 215q0 82 -38 152z" />
    <glyph glyph-name="ampersand" unicode="&#x26;" horiz-adv-x="1404" 
d="M1331 41v-41h-131q-111 0 -174 80l-119 145q-85 -115 -193 -176q-109 -61 -233 -61q-110 0 -197 43q-91 45 -141 124q-51 81 -51 189q0 132 90 234q89 101 285 190q-90 113 -131 193q-37 73 -37 167q0 90 44 163t121 114t173 41q125 0 208 -80t83 -201q0 -125 -90 -219
q-89 -94 -303 -190l34 -45l340 -414l312 477h47l-334 -510l123 -149q35 -43 67 -58q33 -16 84 -16h123zM427 1327q-83 -78 -83 -197q0 -88 36 -158q38 -74 130 -188q198 90 287 179q86 86 86 200q0 106 -70 174t-178 68q-125 0 -208 -78zM881 260l-346 424l-43 53
q-190 -90 -273 -179q-82 -88 -82 -212q0 -146 97 -231q98 -86 247 -86q237 0 400 231z" />
    <glyph glyph-name="quotesingle" unicode="'" horiz-adv-x="335" 
d="M168 1438q25 0 25 -25l-7 -393h-36l-7 393q0 25 25 25z" />
    <glyph glyph-name="parenleft" unicode="(" horiz-adv-x="540" 
d="M498 1434q-180 -249 -258 -459q-76 -204 -76 -463t76 -463q78 -210 258 -459h-47q-177 244 -253 453q-77 213 -77 469q0 257 77 468q76 209 253 454h47z" />
    <glyph glyph-name="parenright" unicode=")" horiz-adv-x="540" 
d="M343 980q77 -211 77 -468q0 -256 -77 -469q-76 -209 -253 -453h-47q180 249 258 459q76 204 76 463t-76 463q-78 210 -258 459h47q177 -245 253 -454z" />
    <glyph glyph-name="asterisk" unicode="*" horiz-adv-x="851" 
d="M727 1219l-272 -109l186 -225l-27 -25l-188 232l-188 -232l-27 25l186 225l-270 109l12 32l271 -112l-2 297h36l-2 -297l271 112z" />
    <glyph glyph-name="plus" unicode="+" 
d="M524 999h41v-389h375v-39h-375v-389h-41v389h-372v39h372v389z" />
    <glyph glyph-name="comma" unicode="," horiz-adv-x="335" 
d="M208 37q28 -40 28 -94q0 -76 -48 -132q-47 -55 -127 -61v31q62 2 101 48t39 110q0 53 -33 77q-8 -24 -35 -24q-17 0 -27 11t-10 28q0 20 14 32q15 13 33 13q38 0 65 -39z" />
    <glyph glyph-name="hyphen" unicode="-" horiz-adv-x="909" 
d="M133 561v41h643v-41h-643z" />
    <glyph glyph-name="period" unicode="." horiz-adv-x="335" 
d="M137 65q11 11 31 11q19 0 30 -11t11 -30q0 -20 -11 -31q-12 -12 -30 -12q-19 0 -31 12t-12 31q0 18 12 30z" />
    <glyph glyph-name="slash" unicode="/" horiz-adv-x="626" 
d="M-10 -410l600 1844h47l-600 -1844h-47z" />
    <glyph glyph-name="zero" unicode="0" horiz-adv-x="1234" 
d="M127 750q0 204 61 360q62 158 173 247q112 89 257 89q146 0 258 -89q111 -89 173 -247q61 -156 61 -360v-66q0 -206 -61 -362q-62 -158 -172 -246t-259 -88q-148 0 -258 88t-172 246q-61 156 -61 362v66zM1008 1089q-56 149 -156 231q-101 83 -234 83q-131 0 -234 -83
q-101 -82 -157 -231q-55 -147 -55 -341v-62q0 -194 55 -341q56 -149 157 -231q103 -83 234 -83q133 0 234 83q100 82 156 231q55 147 55 341v62q0 194 -55 341z" />
    <glyph glyph-name="one" unicode="1" horiz-adv-x="571" 
d="M393 1434v-1434h-47v1122q-24 -39 -88 -39h-256v43h256q45 0 68 25q22 23 22 72v211h45z" />
    <glyph glyph-name="two" unicode="2" horiz-adv-x="1134" 
d="M653 567q108 102 160 158q55 59 98 141t43 176q0 167 -107 264t-292 97q-180 0 -287 -107q-106 -106 -106 -290v-31h-45v33q0 201 119 320q118 118 319 118q204 0 325 -109q119 -107 119 -293q0 -102 -42 -187q-43 -87 -101 -148q-60 -63 -174 -174l-520 -492h862v-43
h-926v41z" />
    <glyph glyph-name="three" unicode="3" horiz-adv-x="1210" 
d="M981 629q104 -89 104 -248q0 -114 -61 -202q-62 -90 -172 -140q-111 -51 -252 -51q-220 0 -351 110q-132 111 -132 301h47q0 -171 121 -270q120 -98 317 -98q125 0 224 45t156 126q56 80 56 181q0 161 -120 245q-121 85 -328 85h-103v43h101q122 0 214 43q94 44 144 119
q51 76 51 169q0 92 -51 164q-50 71 -141 112q-89 40 -203 40q-181 0 -290 -91t-109 -247h-45q0 178 121 280q120 101 321 101q131 0 233 -45q100 -44 156 -126q55 -80 55 -185q0 -141 -94 -236q-95 -96 -250 -117q176 -18 281 -108z" />
    <glyph glyph-name="four" unicode="4" horiz-adv-x="1193" 
d="M61 442l773 992h53v-992h258v-43h-258v-399h-47v399h-779v43zM113 442h727v934z" />
    <glyph glyph-name="five" unicode="5" horiz-adv-x="1185" 
d="M855 878q102 -59 160 -167q56 -105 56 -244q0 -153 -65 -259q-66 -107 -173 -164q-106 -56 -235 -56q-140 0 -243 57q-100 55 -159 153q-58 95 -65 212h45q11 -102 62 -190q51 -87 143 -138q91 -51 217 -51q112 0 210 51t157 149q59 97 59 236q0 122 -51 221
q-50 97 -145 154q-92 55 -218 55q-134 0 -246 -68t-155 -188l-45 4l55 789h762v-43h-719l-49 -676q55 104 166 164q109 59 237 59q136 0 239 -60z" />
    <glyph glyph-name="six" unicode="6" horiz-adv-x="1226" 
d="M153 460q-26 130 -26 261q0 325 128 525t376 200q181 0 291 -101q111 -102 139 -268h-45q-30 148 -128 237t-259 89q-230 0 -345 -185q-116 -187 -116 -491q0 -160 37 -293q-2 22 -2 51q0 130 57 232q58 103 159 160q102 57 232 57q136 0 238 -60q104 -61 158 -166
q55 -107 55 -247q0 -135 -58 -245q-57 -108 -162 -168t-243 -60q-148 0 -251 65q-105 66 -165 185q-44 93 -70 222zM945 772q-110 119 -296 119q-125 0 -222 -54q-99 -55 -151 -153q-53 -100 -53 -223q0 -125 52 -223q53 -99 147 -153t217 -54q125 0 219 54q95 54 146 152
q51 97 51 224q0 192 -110 311z" />
    <glyph glyph-name="seven" unicode="7" horiz-adv-x="1062" 
d="M31 1434h973v-37l-783 -1397h-51l782 1391h-921v43z" />
    <glyph glyph-name="eight" unicode="8" horiz-adv-x="1222" 
d="M992 613q104 -99 104 -246q0 -110 -61 -197q-61 -86 -171 -134q-111 -48 -254 -48q-141 0 -252 48q-110 48 -171 134q-60 85 -60 197q0 147 102 246q103 100 271 124q-148 23 -240 116q-92 94 -92 228q0 108 55 190q55 83 156 129q99 46 231 46q133 0 232 -46t155 -129
t56 -190q0 -134 -92 -228q-92 -93 -240 -116q166 -24 271 -124zM265 914q50 -72 140 -113q91 -41 205 -41t205 41q90 41 141 114q52 75 52 166q0 93 -52 168t-141 115q-91 41 -205 41t-205 -41q-90 -40 -140 -115q-50 -74 -50 -168t50 -167zM838 72q99 43 156 121t57 176
q0 97 -57 177t-156 124q-100 45 -228 45q-125 0 -227 -44q-101 -43 -156 -123q-55 -79 -55 -179q0 -99 56 -176t156 -121q98 -43 226 -43q129 0 228 43z" />
    <glyph glyph-name="nine" unicode="9" horiz-adv-x="1224" 
d="M1073 976q25 -130 25 -253q0 -354 -131 -545q-130 -190 -375 -190q-181 0 -301 98q-121 99 -150 279h45q30 -162 139 -248t269 -86q222 0 340 174q119 174 123 497q0 160 -35 295q2 -22 2 -53q0 -126 -57 -228q-56 -101 -159 -158q-100 -56 -230 -56q-138 0 -238 59
q-103 61 -158 166q-55 106 -55 244q0 139 57 247q56 106 163 167t243 61q143 0 252 -68t164 -184q43 -93 67 -218zM283 663q111 -118 297 -118q125 0 221 54t149 154q54 102 54 228q0 125 -53 220q-55 98 -146 149q-95 53 -219 53q-188 0 -301 -119t-113 -313
q0 -189 111 -308z" />
    <glyph glyph-name="colon" unicode=":" horiz-adv-x="335" 
d="M137 902q11 11 31 11q19 0 30 -11t11 -30t-11 -30q-13 -13 -30 -13q-18 0 -31 13q-12 12 -12 30t12 30zM137 65q11 11 31 11q19 0 30 -11t11 -30q0 -20 -11 -31q-12 -12 -30 -12q-19 0 -31 12t-12 31q0 18 12 30z" />
    <glyph glyph-name="semicolon" unicode=";" horiz-adv-x="335" 
d="M208 37q28 -40 28 -94q0 -76 -48 -132q-47 -55 -127 -61v31q62 2 101 48t39 110q0 53 -33 77q-8 -24 -35 -24q-17 0 -27 11t-10 28q0 20 14 32q15 13 33 13q38 0 65 -39zM135 902q11 11 31 11q19 0 30 -11t11 -30t-11 -30q-13 -13 -30 -13q-18 0 -31 13q-12 12 -12 30
t12 30z" />
    <glyph glyph-name="less" unicode="&#x3c;" 
d="M174 559v45l744 363v-47l-693 -338l693 -338v-45z" />
    <glyph glyph-name="equal" unicode="=" 
d="M172 745v39h748v-39h-748zM172 332v41h748v-41h-748z" />
    <glyph glyph-name="greater" unicode="&#x3e;" 
d="M918 604v-45l-744 -360v45l692 338l-692 338v47z" />
    <glyph glyph-name="question" unicode="?" horiz-adv-x="1005" 
d="M148 1237q52 97 148 154q94 55 220 55q111 0 201 -44q88 -43 136 -120q48 -76 48 -170q0 -111 -47 -190q-46 -77 -131 -144l-41 -33q-90 -68 -129 -118q-41 -52 -41 -133v-88h-45v90q0 60 25 112q23 48 60 83q38 36 97 81l39 31q81 67 124 135q42 68 42 170q0 85 -43 150
q-44 68 -120 106q-77 39 -175 39q-167 0 -271 -109t-104 -280h-45q0 125 52 223zM460 65q11 11 29 11q20 0 31 -11q12 -12 12 -30q0 -19 -12 -31t-31 -12q-17 0 -29 12q-11 11 -11 31q0 19 11 30z" />
    <glyph glyph-name="at" unicode="@" horiz-adv-x="2015" 
d="M244 956q125 203 339 320q215 117 470 117q240 0 435 -96q190 -94 299 -263q107 -166 107 -381q0 -154 -52 -279q-53 -127 -142 -198q-90 -72 -201 -72q-84 0 -135 51q-49 49 -49 142l2 31l6 69q-41 -135 -147 -213t-238 -78q-102 0 -184 51q-81 50 -124 137
q-44 88 -44 195q0 127 60 238q59 110 161 175q101 65 219 65q128 0 216 -72q90 -73 106 -184l24 235h39l-57 -598q-2 -16 -2 -37q0 -82 41 -126t112 -44q95 0 174 69q80 70 126 185q46 116 46 258q0 206 -101 363q-104 162 -284 249q-184 89 -413 89q-241 0 -446 -113
q-202 -111 -323 -305q-120 -192 -120 -424q0 -236 105 -415q105 -178 298 -278q194 -100 443 -100q143 0 269 37q130 38 220 103v-41q-84 -64 -216 -101q-128 -36 -275 -36q-263 0 -462 104q-204 107 -315 293q-112 188 -112 434q0 241 125 444zM1251 844q-84 86 -219 86
q-107 0 -202 -61q-93 -60 -148 -160t-55 -217q0 -150 88 -250q89 -101 231 -101q110 0 200 61q89 61 139 169q50 109 50 245q0 142 -84 228z" />
    <glyph glyph-name="A" unicode="A" horiz-adv-x="1267" 
d="M45 0l561 1434h56l561 -1434h-52l-192 487h-692l-191 -487h-51zM303 532h662l-332 848z" />
    <glyph glyph-name="B" unicode="B" horiz-adv-x="1245" 
d="M625 1434q202 0 315 -96q111 -94 111 -263q0 -137 -75 -224t-214 -114q172 -22 265 -111t93 -241q0 -181 -125 -283t-366 -102h-473v1434h469zM203 756h424q178 0 277 84q100 85 100 233q0 150 -99 234t-278 84h-424v-635zM203 43h426q217 0 330 91q114 92 114 253
q0 158 -116 242q-115 84 -328 84h-426v-670z" />
    <glyph glyph-name="C" unicode="C" horiz-adv-x="1423" 
d="M188 1095q80 167 226 259t340 92q216 0 362 -110q147 -111 199 -316h-47q-52 186 -187 284q-133 97 -329 97q-179 0 -314 -87q-136 -87 -209 -243q-73 -155 -73 -356q0 -200 73 -355q73 -154 209 -242q135 -87 314 -87q199 0 329 97q132 99 183 288h47
q-51 -210 -195 -319q-143 -109 -362 -109q-194 0 -340 92q-147 92 -226 257q-79 164 -79 378q0 215 79 380z" />
    <glyph glyph-name="D" unicode="D" horiz-adv-x="1331" 
d="M156 1434h348q227 0 389 -87q161 -87 247 -249q85 -161 85 -381t-85 -381q-86 -162 -247 -249q-162 -87 -389 -87h-348v1434zM504 45q213 0 364 82q153 83 230 232q78 150 78 358q0 313 -176 492q-177 180 -496 180h-301v-1344h301z" />
    <glyph glyph-name="E" unicode="E" horiz-adv-x="1097" 
d="M156 1432h852v-43h-805v-633h680v-43h-680v-670h833v-45h-880v1434z" />
    <glyph glyph-name="F" unicode="F" horiz-adv-x="1013" 
d="M156 1434h815v-45h-768v-652h643v-45h-643v-692h-47v1434z" />
    <glyph glyph-name="G" unicode="G" horiz-adv-x="1497" 
d="M187 1096q79 166 224 258t337 92q216 0 364 -110q149 -111 201 -316h-49q-52 186 -187 284q-133 97 -329 97q-180 0 -313 -87q-136 -88 -207 -243q-72 -156 -72 -356q0 -201 71 -355t203 -242q130 -87 301 -87q177 0 304 78q129 79 194 207q65 129 65 286v76h-508v43h555
v-721h-41l-4 424q-45 -191 -191 -313q-147 -123 -376 -123q-181 0 -323 92t-220 257q-77 163 -77 378q0 218 78 381z" />
    <glyph glyph-name="H" unicode="H" horiz-adv-x="1316" 
d="M156 1436h47v-680h911v680h47v-1436h-47v713h-911v-713h-47v1436z" />
    <glyph glyph-name="I" unicode="I" horiz-adv-x="358" 
d="M156 1434h47v-1434h-47v1434z" />
    <glyph glyph-name="J" unicode="J" horiz-adv-x="671" 
d="M516 1434v-1172q0 -136 -63 -199t-199 -63h-195v45h191q115 0 167 52t52 167v1170h47z" />
    <glyph glyph-name="K" unicode="K" horiz-adv-x="1198" 
d="M156 1434h47v-990l860 990h57l-516 -596l567 -838h-57l-545 801l-366 -424v-377h-47v1434z" />
    <glyph glyph-name="L" unicode="L" horiz-adv-x="964" 
d="M156 0v1434h47v-1389h719v-45h-766z" />
    <glyph glyph-name="M" unicode="M" horiz-adv-x="1640" 
d="M156 1434h63l602 -1373l600 1373h64v-1434h-47v1358l-594 -1358h-47l-594 1358v-1358h-47v1434z" />
    <glyph glyph-name="N" unicode="N" horiz-adv-x="1329" 
d="M156 0v1434h47l923 -1350v1350h48v-1434h-50l-921 1352v-1352h-47z" />
    <glyph glyph-name="O" unicode="O" horiz-adv-x="1527" 
d="M1335 340q-84 -166 -232 -259q-149 -93 -339 -93t-339 93q-148 93 -232 259q-84 167 -84 377t84 377q84 166 232 259q149 93 339 93t339 -93q148 -93 232 -259q84 -167 84 -377t-84 -377zM232 362q76 -154 215 -242q138 -87 317 -87q176 0 314 87q139 87 216 242
q78 156 78 355q0 198 -78 354t-216 243t-314 87q-179 0 -317 -87q-139 -87 -215 -243q-76 -155 -76 -354q0 -200 76 -355z" />
    <glyph glyph-name="P" unicode="P" horiz-adv-x="1146" 
d="M670 1434q125 0 224 -52q96 -50 149 -141t53 -205q0 -112 -54 -203t-150 -140q-98 -50 -224 -50h-465v-643h-47v1434h514zM203 686h463q114 0 200 45t134 125q49 81 49 180q0 101 -48 183q-46 78 -133 124t-200 46h-465v-703z" />
    <glyph glyph-name="Q" unicode="Q" horiz-adv-x="1529" 
d="M1456 45v-45h-102q-70 0 -107 18q-36 17 -76 76l-16 23q-168 -129 -391 -129q-190 0 -339 93q-148 93 -232 259q-84 167 -84 377t84 377q84 166 232 259q149 93 339 93t339 -93q148 -93 232 -259q84 -167 84 -377q0 -178 -60 -325q-59 -145 -169 -247l12 -16
q35 -54 67 -69q31 -15 89 -15h98zM1131 156l-105 151q-38 51 -65 66q-28 16 -74 16h-127v45h133q59 0 89 -17q32 -18 75 -79l106 -154q100 91 155 230q54 136 54 303q0 198 -78 354t-216 243t-314 87q-179 0 -317 -87q-139 -87 -215 -243q-76 -155 -76 -354q0 -200 76 -355
q76 -154 215 -242q138 -87 317 -87q210 0 367 123z" />
    <glyph glyph-name="R" unicode="R" horiz-adv-x="1185" 
d="M670 1434q193 0 310 -109q116 -108 116 -289q0 -162 -100 -267q-99 -103 -267 -120l358 -649h-55l-352 643h-477v-643h-47v1434h514zM203 686h463q172 0 278 95q105 95 105 255q0 162 -104 257q-105 96 -277 96h-465v-703z" />
    <glyph glyph-name="S" unicode="S" horiz-adv-x="1204" 
d="M154 416q11 -175 134 -279t320 -104q202 0 323 92q120 91 120 252q0 109 -62 176q-61 65 -156 97q-103 34 -239 57q-152 27 -243 57q-88 29 -153 100q-63 69 -63 197q0 180 128 284q127 103 347 103q198 0 323 -103t146 -278h-47q-21 156 -133 247t-289 91
q-200 0 -313 -91q-115 -92 -115 -251q0 -109 58 -172q57 -61 142 -88q79 -25 230 -53q144 -23 250 -61q105 -37 169 -110q67 -76 67 -200q0 -179 -133 -284t-357 -105q-220 0 -354 115t-145 311h45z" />
    <glyph glyph-name="T" unicode="T" horiz-adv-x="1165" 
d="M43 1434h1079v-45h-516v-1389h-47v1389h-516v45z" />
    <glyph glyph-name="U" unicode="U" horiz-adv-x="1308" 
d="M197 1434v-863q0 -273 110 -405q111 -133 344 -133q238 0 349 133q112 135 112 405v863h47v-861q0 -295 -124 -440t-384 -145q-259 0 -380 145t-121 440v861h47z" />
    <glyph glyph-name="V" unicode="V" horiz-adv-x="1236" 
d="M37 1434h51l530 -1377l531 1377h51l-553 -1434h-57z" />
    <glyph glyph-name="W" unicode="W" horiz-adv-x="1966" 
d="M61 1434h50l430 -1368l417 1368h52l411 -1368l434 1368h50l-455 -1434h-57l-410 1356l-414 -1356h-57z" />
    <glyph glyph-name="X" unicode="X" horiz-adv-x="1232" 
d="M588 731l-486 703h56l460 -664l459 664h53l-485 -701l516 -733h-55l-490 694l-491 -694h-53z" />
    <glyph glyph-name="Y" unicode="Y" horiz-adv-x="1236" 
d="M37 1436h55l526 -856l527 856h55l-559 -910v-526h-47v526z" />
    <glyph glyph-name="Z" unicode="Z" horiz-adv-x="1236" 
d="M133 1434h1028v-37l-1030 -1352h1036v-45h-1097v37l1030 1352h-967v45z" />
    <glyph glyph-name="bracketleft" unicode="[" horiz-adv-x="552" 
d="M154 1436h352v-41h-309v-1764h309v-41h-352v1846z" />
    <glyph glyph-name="backslash" unicode="\" horiz-adv-x="626" 
d="M637 -410h-47l-600 1844h47z" />
    <glyph glyph-name="bracketright" unicode="]" horiz-adv-x="552" 
d="M399 -412h-352v41h309v1764h-309v41h352v-1846z" />
    <glyph glyph-name="asciicircum" unicode="^" horiz-adv-x="1028" 
d="M111 795l381 639h43l385 -639h-46l-362 600l-360 -600h-41z" />
    <glyph glyph-name="underscore" unicode="_" horiz-adv-x="1028" 
d="M139 -57v45h750v-45h-750z" />
    <glyph glyph-name="grave" unicode="`" horiz-adv-x="819" 
d="M180 1434h53l197 -265h-43z" />
    <glyph glyph-name="a" unicode="a" horiz-adv-x="1087" 
d="M1069 43v-43h-35q-72 0 -113 42q-40 41 -38 116v110q-43 -128 -156 -205q-110 -75 -289 -75q-160 0 -255 78t-95 210q0 138 103 217q102 78 298 78h392v109q0 153 -93 240q-92 86 -258 86q-146 0 -237 -65t-115 -177h-45q23 130 127 206q106 77 270 77q190 0 293 -97
t103 -272v-512q0 -58 31 -90q31 -33 85 -33h27zM881 530h-396q-171 0 -260 -67q-90 -68 -90 -184q0 -115 83 -183q82 -67 224 -67q137 0 235 49q99 50 151 137q53 89 53 199v116z" />
    <glyph glyph-name="b" unicode="b" horiz-adv-x="1185" 
d="M858 980q109 -67 169 -186q60 -120 60 -276q0 -152 -60 -274q-60 -121 -169 -189q-107 -67 -248 -67q-162 0 -277 91q-117 92 -157 245l-6 -324h-41v1434h45v-723q45 151 161 243q117 93 275 93q138 0 248 -67zM833 91q99 63 154 173t55 254q0 142 -55 252t-154 173
t-225 63q-125 0 -224 -63q-100 -64 -155 -173q-55 -110 -55 -252q0 -143 55 -253q55 -111 155 -174q97 -62 224 -62q128 0 225 62z" />
    <glyph glyph-name="c" unicode="c" 
d="M853 76q-113 -88 -278 -88q-140 0 -247 67q-109 68 -169 189q-61 124 -61 276t61 274q60 120 170 186q111 67 249 67q162 0 277 -89q114 -88 142 -237h-47q-29 132 -130 208q-103 77 -245 77q-123 0 -223 -62q-97 -60 -153 -172t-56 -252q0 -143 56 -255t153 -174
t223 -62q145 0 246 76q102 77 131 208h45q-30 -148 -144 -237z" />
    <glyph glyph-name="d" unicode="d" horiz-adv-x="1185" 
d="M1057 1434v-1434h-41l-6 319q-45 -150 -161 -241q-115 -90 -274 -90q-139 0 -247 66q-109 67 -169 188q-61 124 -61 276t61 274q59 118 169 187q109 68 247 68q161 0 279 -94t158 -248v729h45zM802 91q99 63 154 173q56 112 56 252q0 141 -56 253q-56 111 -154 174
q-99 63 -224 63q-126 0 -225 -63t-154 -173q-56 -112 -56 -252q0 -142 56 -254q55 -110 154 -173q97 -62 225 -62q127 0 224 62z" />
    <glyph glyph-name="e" unicode="e" horiz-adv-x="1124" 
d="M157 794q58 120 164 186q107 67 240 67q201 0 329 -128q129 -129 136 -356v-18h-881v-35q0 -137 55 -249q54 -110 152 -171t221 -61q141 0 248 84t144 227h45q-38 -160 -156 -256q-119 -96 -279 -96q-138 0 -245 67q-109 68 -170 189q-62 122 -62 274q0 155 59 276z
M979 584q-15 200 -127 311q-113 111 -289 111q-108 0 -202 -54q-88 -51 -147 -148q-56 -93 -67 -220h832z" />
    <glyph glyph-name="f" unicode="f" horiz-adv-x="561" 
d="M201 1034v185q0 115 51 164q53 51 164 51h159v-43h-157q-94 0 -133 -39t-39 -131v-187h327v-43h-327v-991h-45v991h-203v43h203z" />
    <glyph glyph-name="g" unicode="g" horiz-adv-x="1185" 
d="M1057 1034v-958q0 -260 -117 -379t-356 -119q-183 0 -301 85q-119 86 -146 241h47q27 -136 134 -210q108 -75 270 -75q213 0 318 110q106 111 106 349v252q-45 -158 -161 -250t-276 -92q-139 0 -247 66q-109 67 -169 188q-61 124 -61 276t61 274q59 118 169 187
q109 68 247 68q162 0 278 -92q117 -93 157 -246l6 325h41zM802 91q98 63 154 174q56 112 56 255q0 140 -56 252q-55 111 -154 172q-100 62 -224 62q-126 0 -225 -63t-154 -173q-56 -112 -56 -252q0 -141 56 -253q56 -111 154 -174q97 -62 225 -62q127 0 224 62z" />
    <glyph glyph-name="h" unicode="h" horiz-adv-x="1093" 
d="M869 928q108 -118 108 -344v-584h-47v582q0 202 -95 312t-260 110q-119 0 -211 -63t-141 -176t-49 -265v-500h-45v1434h45v-736q41 165 145 256q107 93 261 93q181 0 289 -119z" />
    <glyph glyph-name="i" unicode="i" horiz-adv-x="305" 
d="M181 1381q12 -12 12 -29q0 -16 -12 -28q-11 -11 -29 -11q-17 0 -28 11t-11 28q0 18 11 29q12 12 28 12q17 0 29 -12zM129 1034h45v-1034h-45v1034z" />
    <glyph glyph-name="j" unicode="j" horiz-adv-x="317" 
d="M194 1381q11 -11 11 -29q0 -17 -11 -28t-30 -11q-17 0 -28 11t-11 28q0 18 11 29q12 12 28 12q18 0 30 -12zM-29 -367q92 0 131 39t39 131v1231h45v-1229q0 -114 -50 -164q-51 -51 -163 -51h-114v43h112z" />
    <glyph glyph-name="k" unicode="k" horiz-adv-x="976" 
d="M129 1434h45v-1090l680 690h57l-428 -434l467 -600h-55l-444 567l-277 -278v-289h-45v1434z" />
    <glyph glyph-name="l" unicode="l" horiz-adv-x="305" 
d="M129 1434h45v-1434h-45v1434z" />
    <glyph glyph-name="m" unicode="m" horiz-adv-x="1771" 
d="M1552 929q101 -119 101 -341v-588h-45v586q0 201 -87 309q-88 109 -239 109q-159 0 -258 -118t-111 -315v-571h-45v586q0 201 -87 309q-88 109 -240 109q-168 0 -268 -136q-99 -135 -99 -362v-506h-45v1034h39l8 -323q34 154 131 245t240 91q141 0 233 -86t119 -246
q41 153 140 242q101 90 245 90q168 0 268 -118z" />
    <glyph glyph-name="n" unicode="n" horiz-adv-x="1093" 
d="M868 928q107 -119 107 -344v-584h-45v582q0 203 -94 312q-95 110 -261 110q-183 0 -292 -138t-109 -366v-500h-45v1034h41l6 -315q44 153 147 240q105 88 257 88q181 0 288 -119z" />
    <glyph glyph-name="o" unicode="o" horiz-adv-x="1155" 
d="M329 55q-110 68 -170 188q-61 122 -61 275q0 152 61 274q59 119 170 187q110 68 249 68q138 0 248 -68q111 -68 170 -187q61 -122 61 -274q0 -153 -61 -275q-60 -120 -170 -188q-109 -67 -248 -67q-140 0 -249 67zM803 91q98 62 153 173q56 112 56 254q0 140 -56 252
q-55 111 -153 173q-99 63 -225 63t-225 -63t-154 -173q-56 -112 -56 -252q0 -142 56 -254q55 -110 154 -173q97 -62 225 -62t225 62z" />
    <glyph glyph-name="p" unicode="p" horiz-adv-x="1185" 
d="M858 980q109 -67 169 -186q60 -120 60 -276q0 -152 -60 -274q-60 -121 -169 -189q-107 -67 -248 -67q-164 0 -279 93q-117 94 -157 249v-740h-45v1444h41l6 -319q45 150 161 241q117 91 273 91q138 0 248 -67zM833 91q99 63 154 173t55 254q0 142 -55 252t-154 173
t-225 63q-125 0 -224 -63q-100 -64 -155 -173q-55 -110 -55 -252q0 -143 55 -253q55 -111 155 -174q97 -62 224 -62q128 0 225 62z" />
    <glyph glyph-name="q" unicode="q" horiz-adv-x="1185" 
d="M1057 1034v-1444h-45v734q-45 -153 -161 -245q-115 -91 -276 -91q-139 0 -247 66q-109 67 -169 188q-61 124 -61 276t61 274q59 118 169 187q109 68 247 68q160 0 276 -92t159 -244l6 323h41zM802 91q99 63 154 173q56 112 56 252q0 141 -56 253q-56 111 -154 174
q-99 63 -224 63q-126 0 -225 -63t-154 -173q-56 -112 -56 -252q0 -142 56 -254q55 -110 154 -173q97 -62 225 -62q127 0 224 62z" />
    <glyph glyph-name="r" unicode="r" horiz-adv-x="595" 
d="M545 1034v-45h-51q-184 0 -252 -125t-68 -344v-520h-45v1034h41l6 -272q27 130 103 201q75 71 221 71h45z" />
    <glyph glyph-name="s" unicode="s" horiz-adv-x="997" 
d="M137 297q7 -129 111 -199q102 -69 270 -69q148 0 245 64t97 173q0 82 -47 129t-120 70q-75 23 -191 41q-130 21 -207 42q-76 21 -129 74t-53 146q0 80 48 143q49 65 133 100q86 36 193 36q171 0 279 -72q109 -72 125 -211h-45q-21 118 -114 181t-238 63q-150 0 -243 -66
t-93 -172q0 -80 47 -124q46 -43 113 -61q64 -17 186 -36q127 -18 211 -45q86 -28 137 -83q53 -58 53 -153q0 -126 -111 -203q-112 -77 -276 -77q-189 0 -304 80t-122 229h45z" />
    <glyph glyph-name="t" unicode="t" horiz-adv-x="575" 
d="M201 991h-203v43h203v289h45v-289h286v-43h-286v-776q0 -94 39 -133t133 -39h123v-43h-125q-115 0 -165 50t-50 165v776z" />
    <glyph glyph-name="u" unicode="u" horiz-adv-x="1081" 
d="M950 1034v-1034h-41l-6 313q-40 -148 -144 -237q-103 -88 -251 -88q-179 0 -284 118q-105 119 -105 345v583h45v-581q0 -204 94 -313t254 -109q121 0 208 62q90 64 137 176q48 114 48 266v499h45z" />
    <glyph glyph-name="v" unicode="v" horiz-adv-x="944" 
d="M27 1034h49l397 -979l395 979h50l-420 -1034h-52z" />
    <glyph glyph-name="w" unicode="w" horiz-adv-x="1581" 
d="M29 1034h47l344 -975l350 975h45l328 -975l364 975h47l-387 -1034h-49l-327 965l-349 -965h-49z" />
    <glyph glyph-name="x" unicode="x" horiz-adv-x="929" 
d="M436 526l-393 508h55l367 -473l371 473h51l-395 -508l409 -526h-55l-383 494l-383 -494h-51z" />
    <glyph glyph-name="y" unicode="y" horiz-adv-x="944" 
d="M76 1034l397 -977l395 977h50l-508 -1243q-33 -84 -62 -128q-27 -40 -63 -56q-39 -17 -103 -17h-121v43h113q60 0 90 15q31 15 51 47q25 40 52 108l82 197l-422 1034h49z" />
    <glyph glyph-name="z" unicode="z" horiz-adv-x="933" 
d="M76 1034h782v-41l-756 -950h787v-43h-844v41l756 950h-725v43z" />
    <glyph glyph-name="braceleft" unicode="{" horiz-adv-x="643" 
d="M345 1329q-69 -63 -69 -182q0 -34 11 -92l41 -215q12 -57 12 -101q0 -91 -50 -150t-145 -77q96 -17 145 -75q50 -59 50 -150q0 -43 -12 -103l-41 -215q-11 -58 -11 -92q0 -119 69 -182q70 -64 198 -64h53v-41h-53q-144 0 -227 74t-83 207q0 36 11 96l41 217q10 44 10 103
q0 95 -58 147q-60 54 -167 58v40q107 4 168 58q59 52 59 147q0 47 -12 103l-41 217q-11 60 -11 96q0 133 83 207t227 74h53v-41h-53q-128 0 -198 -64z" />
    <glyph glyph-name="bar" unicode="|" horiz-adv-x="356" 
d="M156 1434h45v-1844h-45v1844z" />
    <glyph glyph-name="braceright" unicode="}" horiz-adv-x="643" 
d="M407 434q-59 -53 -59 -147q0 -59 10 -103l41 -217q11 -60 11 -96q0 -133 -83 -207t-227 -74h-53v41h53q128 0 198 64q69 63 69 182q0 34 -11 92l-41 215q-12 60 -12 103q0 91 50 150q49 58 145 75q-95 18 -145 77t-50 150q0 44 12 101l41 215q11 58 11 92q0 119 -69 182
q-70 64 -198 64h-53v41h53q144 0 227 -74t83 -207q0 -36 -11 -96l-41 -217q-12 -56 -12 -103q0 -95 60 -147q61 -54 167 -58v-40q-106 -4 -166 -58z" />
    <glyph glyph-name="asciitilde" unicode="~" 
d="M170 467q0 99 55 160t146 61q57 0 97 -22q37 -20 89 -68q50 -41 83 -61q34 -21 81 -21q75 0 119 50q43 49 43 128h41q0 -97 -56 -158t-145 -61q-59 0 -100 23q-44 25 -91 67q-52 45 -80 61q-34 19 -83 19q-72 0 -116 -50t-44 -128h-39z" />
    <glyph glyph-name="exclamdown" unicode="&#xa1;" horiz-adv-x="395" 
d="M255 1430q11 -11 11 -31q0 -19 -11 -30t-30 -11t-30 11q-13 13 -13 30q0 18 13 31q12 12 30 12t30 -12zM207 1028h37l4 -1028h-47z" />
    <glyph glyph-name="cent" unicode="&#xa2;" 
d="M821 292q102 77 131 208h45q-29 -143 -133 -228q-105 -86 -254 -96v-176h-43v174q-135 1 -243 70q-106 67 -166 188q-60 122 -60 275q0 151 60 270t166 186q108 69 243 70v201h43v-201q152 -11 256 -97t131 -229h-47q-29 132 -130 208q-103 77 -245 77q-123 0 -223 -62
q-97 -60 -153 -172t-56 -251q0 -143 56 -255t153 -174q99 -63 223 -63q143 0 246 77z" />
    <glyph glyph-name="sterling" unicode="&#xa3;" horiz-adv-x="1239" 
d="M307 707l-18 92q-18 74 -26 124q-9 54 -9 115q0 112 57 207q58 96 155 148q98 53 212 53q380 0 446 -387h-47q-63 344 -399 344q-105 0 -192 -48q-88 -49 -137 -133q-50 -86 -50 -188q0 -48 8 -99q5 -30 25 -126q13 -53 22 -102h482v-41h-476q13 -75 13 -138
q0 -262 -191 -483h938v-45h-993v41q197 226 197 489q0 63 -13 136h-194v41h190z" />
    <glyph glyph-name="currency" unicode="&#xa4;" horiz-adv-x="1222" 
d="M324 1038q63 52 135 80q75 29 153 29q79 0 154 -29q72 -28 135 -80l164 164l33 -31l-164 -165q59 -59 92 -139t33 -169q0 -78 -28 -156q-26 -71 -79 -134l146 -146l-31 -31l-145 146q-59 -58 -142 -92q-80 -33 -168 -33t-168 33q-81 34 -141 92l-145 -146l-33 33l145 146
q-49 60 -76 134q-28 78 -28 154q0 90 33 169q33 80 92 139l-164 165l31 31zM261 494q55 -92 147 -147q92 -54 204 -54q114 0 205 54q93 55 146 147t53 204q0 113 -53 205t-146 147q-92 54 -205 54q-112 0 -204 -54q-92 -55 -147 -147q-54 -92 -54 -205q0 -112 54 -204z" />
    <glyph glyph-name="yen" unicode="&#xa5;" horiz-adv-x="1245" 
d="M1200 1436l-536 -877h403v-39h-424v-268h424v-39h-424v-213h-47v213h-424v39h424v268h-424v39h403l-538 877h57l524 -856l529 856h53z" />
    <glyph glyph-name="brokenbar" unicode="&#xa6;" horiz-adv-x="356" 
d="M156 1434h45v-787h-45v787zM156 379h45v-789h-45v789z" />
    <glyph glyph-name="section" unicode="&#xa7;" horiz-adv-x="1122" 
d="M905 410q-78 -73 -200 -101q94 -34 146 -91q52 -56 52 -159q0 -123 -94 -199q-95 -77 -246 -77q-145 0 -244 75q-98 74 -104 203h45q6 -114 91 -177q84 -62 212 -62q133 0 215 64t82 171q0 84 -43 133q-44 50 -100 72q-60 24 -170 53q-136 39 -217 71t-134 91
q-55 61 -55 156q0 114 75 186q76 73 202 101q-96 35 -148 93q-53 59 -53 158q0 121 99 198q100 77 257 77q139 0 234 -75q94 -75 100 -204h-45q-6 115 -87 178q-80 62 -202 62q-139 0 -225 -65t-86 -168q0 -85 43 -134q41 -47 102 -72q69 -28 168 -55q148 -42 218 -70
q81 -32 134 -91q54 -60 54 -154q0 -116 -76 -188zM856 417q80 66 80 179q0 82 -48 133q-49 52 -120 80q-73 29 -199 63q-64 17 -92 27q-133 -21 -211 -86q-80 -66 -80 -178q0 -83 49 -135t119 -80q81 -32 199 -64q76 -20 92 -26q132 21 211 87z" />
    <glyph glyph-name="dieresis" unicode="&#xa8;" horiz-adv-x="819" 
d="M222 1364q12 12 30 12q17 0 29 -12t12 -29q0 -15 -12 -27t-29 -12q-18 0 -30 12q-11 11 -11 27q0 18 11 29zM539 1364q12 12 28 12q18 0 30 -12q11 -11 11 -29q0 -16 -11 -27q-12 -12 -30 -12q-16 0 -28 12q-13 13 -13 27q0 16 13 29z" />
    <glyph glyph-name="copyright" unicode="&#xa9;" horiz-adv-x="1701" 
d="M214 1084q99 169 266 265q169 97 370 97t370 -97q166 -96 267 -265q98 -165 98 -367q0 -203 -98 -368q-100 -168 -267 -264q-169 -97 -370 -97t-370 97q-168 97 -266 264q-97 166 -97 368q0 201 97 367zM1455 1068q-93 159 -253 251t-352 92q-191 0 -351 -92
q-159 -91 -252 -251q-93 -159 -93 -351t93 -351q93 -160 252 -251q160 -92 351 -92q192 0 352 92t253 251t93 351t-93 351zM1080 376q-93 -81 -230 -81q-122 0 -210 58q-88 59 -135 156q-46 96 -46 214q0 116 46 211q47 96 135 153q90 58 210 58q136 0 231 -81t123 -216h-39
q-28 117 -110 188q-83 72 -205 72q-109 0 -188 -52q-80 -53 -122 -141q-42 -89 -42 -192q0 -107 42 -196t122 -142t188 -53q121 0 203 70t112 188h39q-30 -132 -124 -214z" />
    <glyph glyph-name="ordfeminine" unicode="&#xaa;" horiz-adv-x="880" 
d="M206 1096q64 49 183 49h244v69q0 95 -55 147t-158 52q-91 0 -149 -47q-56 -46 -68 -129h-39q12 95 81 152t175 57q120 0 185 -62t65 -172v-315q0 -35 18 -54q18 -20 51 -20h33v-32h-41q-45 0 -69 25q-25 27 -25 73v84q-27 -81 -97 -137q-72 -58 -173 -58q-106 0 -165 49
q-61 50 -61 134q0 85 65 135zM633 1116h-244q-101 0 -155 -42t-54 -111q0 -70 50 -111t139 -41q119 0 191 79q73 81 73 189v37zM129 578h643v-35h-643v35z" />
    <glyph glyph-name="guillemotleft" unicode="&#xab;" horiz-adv-x="1083" 
d="M516 1034l-336 -516l336 -518h-47l-340 518l340 516h47zM946 1032l-336 -516l336 -518h-47l-340 518l340 516h47z" />
    <glyph glyph-name="logicalnot" unicode="&#xac;" 
d="M152 670h694v-387h-41v346h-653v41z" />
    <glyph glyph-name="registered" unicode="&#xae;" horiz-adv-x="1046" 
d="M177 1252q53 92 144 144t201 52q111 0 202 -52q90 -51 143 -143q53 -91 53 -200q0 -110 -53 -201q-53 -90 -143 -142q-92 -53 -202 -53q-109 0 -201 53t-144 142t-52 199t52 201zM841 1239q-48 84 -132 132t-187 48q-102 0 -186 -48t-132 -133q-48 -86 -48 -187t48 -185
t132 -132t186 -48q103 0 187 48t132 132t48 187q0 102 -48 186zM543 1286q67 0 106 -36t39 -95q0 -54 -34 -88q-34 -35 -87 -39l121 -209h-37l-116 205h-127v-205h-31v467h166zM408 1053h133q50 0 82 26t32 76q0 52 -31 77t-83 25h-133v-204z" />
    <glyph glyph-name="macron" unicode="&#xaf;" horiz-adv-x="819" 
d="M166 1317v39h487v-39h-487z" />
    <glyph glyph-name="degree" unicode="&#xb0;" horiz-adv-x="878" 
d="M181 1284q41 68 109 108t150 40t150 -40t109 -108q40 -67 40 -149q0 -79 -41 -149q-39 -67 -109 -108q-68 -40 -149 -40q-82 0 -150 40q-70 41 -109 108q-40 68 -40 149q0 82 40 149zM687 1279q-38 67 -103 104q-67 38 -144 38t-144 -38t-106 -104q-38 -64 -38 -144
q0 -81 38 -145q39 -66 106 -104t144 -38t144 38q65 37 103 104t38 145q0 77 -38 144z" />
    <glyph glyph-name="plusminus" unicode="&#xb1;" 
d="M152 0v39h788v-39h-788zM524 1006h41v-390h375v-38h-375v-390h-41v390h-372v38h372v390z" />
    <glyph glyph-name="uni00B2" unicode="&#xb2;" horiz-adv-x="624" 
d="M76 1423q0 105 66 166q67 62 171 62q105 0 172 -59q66 -58 66 -152q0 -75 -40 -131q-44 -62 -116 -127l-284 -254h450v-35h-502v33l310 276q70 60 109 117q36 53 36 121q0 81 -56 128q-57 48 -145 48q-91 0 -147 -51q-55 -51 -55 -144v-14h-35v16z" />
    <glyph glyph-name="uni00B3" unicode="&#xb3;" horiz-adv-x="643" 
d="M147 1598q68 57 177 57q103 0 170 -56q65 -55 65 -141q0 -69 -47 -116q-46 -46 -125 -58q89 -15 139 -62q52 -49 52 -126q0 -94 -71 -153q-70 -58 -185 -58q-124 0 -194 60q-71 60 -71 165h37q0 -92 63 -141q62 -49 165 -49q96 0 157 48q62 48 62 126q0 80 -64 127
t-166 47h-49v28h49q94 0 153 44q58 43 58 116q0 72 -55 118t-143 46q-93 0 -151 -47q-56 -46 -58 -129h-35q0 97 67 154z" />
    <glyph glyph-name="acute" unicode="&#xb4;" horiz-adv-x="819" 
d="M391 1169l197 265h55l-211 -265h-41z" />
    <glyph glyph-name="uni00B5" unicode="&#xb5;" horiz-adv-x="1093" 
d="M176 -410h-47v1444h45v-577q0 -203 95 -315q95 -111 257 -111q120 0 207 62t137 177t50 267v497h45v-1034h-43l-2 338q-38 -165 -142 -257q-105 -93 -256 -93q-132 0 -223 70q-93 72 -123 198v-666z" />
    <glyph glyph-name="paragraph" unicode="&#xb6;" horiz-adv-x="1216" 
d="M811 496h-262q-148 0 -257 59q-113 61 -172 166q-61 108 -61 242q0 135 61 243q60 107 171 167q113 61 256 61h309v-1434h-45v496zM1018 1434h43v-1434h-43v1434z" />
    <glyph glyph-name="periodcentered" unicode="&#xb7;" horiz-adv-x="335" 
d="M137 620q11 11 31 11q19 0 30 -11t11 -30q0 -20 -11 -31q-12 -12 -30 -12q-19 0 -31 12t-12 31q0 18 12 30z" />
    <glyph glyph-name="cedilla" unicode="&#xb8;" horiz-adv-x="819" 
d="M428 6l-27 -119h43q70 0 114 -41t44 -104q0 -68 -45 -110t-117 -42h-153v33h147q59 0 95 33t36 86q0 49 -36 82t-91 33h-76l35 149h31z" />
    <glyph glyph-name="uni00B9" unicode="&#xb9;" horiz-adv-x="321" 
d="M182 895v549q-6 -14 -32 -14h-150v34h150q14 0 23 11t9 24v141h35v-745h-35z" />
    <glyph glyph-name="ordmasculine" unicode="&#xba;" horiz-adv-x="845" 
d="M636 871q-82 -93 -214 -93q-131 0 -215 93t-84 241t84 242t215 94q132 0 214 -94q83 -95 83 -242t-83 -241zM234 896q72 -83 188 -83q115 0 187 83q73 84 73 216t-73 217q-72 84 -187 84q-116 0 -188 -84t-72 -217q0 -134 72 -216zM119 578h606v-35h-606v35z" />
    <glyph glyph-name="guillemotright" unicode="&#xbb;" horiz-adv-x="1083" 
d="M567 1034h47l340 -516l-340 -518h-47l336 518zM137 1032h47l340 -516l-340 -518h-47l336 518z" />
    <glyph glyph-name="onequarter" unicode="&#xbc;" horiz-adv-x="1132" 
d="M182 690v549q-6 -14 -32 -14h-150v35h150q14 0 23 10t9 24v142h35v-746h-35zM27 0l909 1434h41l-909 -1434h-41zM948 745h41v-503h131v-35h-131v-207h-37v207h-405v35zM952 700l-364 -458h364v458z" />
    <glyph glyph-name="onehalf" unicode="&#xbd;" horiz-adv-x="1249" 
d="M182 690v549q-6 -14 -32 -14h-150v35h150q14 0 23 10t9 24v142h35v-746h-35zM27 0l909 1434h41l-909 -1434h-41zM713 530q0 104 66 166q67 62 171 62q105 0 172 -59q66 -58 66 -152q0 -75 -40 -131q-44 -62 -116 -127l-284 -254h450v-35h-502v33l310 276q70 60 109 117
q36 52 36 121q0 81 -56 128q-57 48 -145 48q-92 0 -147 -51t-55 -144v-14h-35v16z" />
    <glyph glyph-name="threequarters" unicode="&#xbe;" horiz-adv-x="1454" 
d="M147 1394q66 56 177 56q105 0 170 -55t65 -142q0 -68 -47 -115t-125 -59q89 -15 139 -62q52 -49 52 -126q0 -94 -71 -153q-70 -58 -185 -58q-124 0 -194 60q-71 60 -71 165h37q0 -91 63 -141q62 -49 165 -49q96 0 157 48q62 48 62 126q0 80 -64 127t-166 47h-49v29h49
q94 0 153 44q58 43 58 115t-55 118t-143 46q-93 0 -151 -47q-56 -46 -58 -129h-35q0 98 67 155zM348 0l909 1434h41l-909 -1434h-41zM1270 745h41v-503h131v-35h-131v-207h-37v207h-406v35zM1274 700l-365 -458h365v458z" />
    <glyph glyph-name="questiondown" unicode="&#xbf;" horiz-adv-x="1005" 
d="M545 1369q-11 -11 -31 -11q-19 0 -30 11t-11 30q0 20 11 31q12 12 30 12q19 0 31 -12t12 -31q0 -18 -12 -30zM857 197q-52 -99 -148 -154q-95 -55 -222 -55q-111 0 -199 44q-87 44 -135 120q-49 78 -49 170q0 109 48 190q45 75 131 143q31 26 45 35q84 67 126 119
q40 50 40 131v88h43v-90q0 -65 -26 -115t-61 -84q-37 -36 -100 -82l-35 -26q-80 -66 -121 -134q-42 -69 -42 -171q0 -86 43 -151q45 -68 118 -105q77 -39 174 -39q172 0 273 107q102 108 102 282h47q0 -125 -52 -223z" />
    <glyph glyph-name="Agrave" unicode="&#xc0;" horiz-adv-x="1267" 
d="M45 0l561 1434h56l561 -1434h-52l-192 487h-692l-191 -487h-51zM303 532h662l-332 848zM406 1835h53l196 -264h-43z" />
    <glyph glyph-name="Aacute" unicode="&#xc1;" horiz-adv-x="1267" 
d="M45 0l561 1434h56l561 -1434h-52l-192 487h-692l-191 -487h-51zM303 532h662l-332 848zM616 1571l197 264h55l-211 -264h-41z" />
    <glyph glyph-name="Acircumflex" unicode="&#xc2;" horiz-adv-x="1267" 
d="M45 0l561 1434h56l561 -1434h-52l-192 487h-692l-191 -487h-51zM303 532h662l-332 848zM635 1802l-236 -233h-49l262 266h45l263 -266h-50z" />
    <glyph glyph-name="Atilde" unicode="&#xc3;" horiz-adv-x="1267" 
d="M45 0l561 1434h56l561 -1434h-52l-192 487h-692l-191 -487h-51zM303 532h662l-332 848zM454 1739q-24 -33 -24 -80h-33v6q0 61 33 101t92 40q44 0 70 -16q25 -15 55 -47q22 -27 45 -43q21 -14 56 -14q45 0 68 32q24 33 24 80h32v-6q0 -62 -32 -101q-33 -40 -92 -40
q-44 0 -70 16q-25 15 -55 47q-22 27 -45 43q-22 15 -56 15q-44 0 -68 -33z" />
    <glyph glyph-name="Adieresis" unicode="&#xc4;" horiz-adv-x="1267" 
d="M45 0l561 1434h56l561 -1434h-52l-192 487h-692l-191 -487h-51zM303 532h662l-332 848zM447 1765q13 13 30 13q16 0 29 -13q12 -12 12 -28t-12 -28q-11 -11 -29 -11q-19 0 -30 11t-11 28t11 28zM764 1765q13 13 29 13t29 -13q12 -12 12 -28t-12 -28q-11 -11 -29 -11
t-29 11q-12 12 -12 28t12 28z" />
    <glyph glyph-name="Aring" unicode="&#xc5;" horiz-adv-x="1267" 
d="M1223 0h-52l-192 487h-692l-191 -487h-51l555 1415q-80 15 -132 75q-52 59 -52 140q0 91 64 155t155 64t155 -64t64 -155q0 -81 -53 -142t-133 -73zM503 1499q55 -53 132 -53t132 53q54 53 54 131t-54 132q-55 55 -132 55t-132 -55q-54 -54 -54 -132t54 -131zM303 532
h662l-332 848z" />
    <glyph glyph-name="AE" unicode="&#xc6;" horiz-adv-x="1878" 
d="M985 45h834v-45h-881v436h-588l-272 -436h-53l893 1434h872v-43h-805v-633h680v-43h-680v-670zM373 479h565v910z" />
    <glyph glyph-name="Ccedilla" unicode="&#xc7;" horiz-adv-x="1423" 
d="M1081 128q132 99 183 288h47q-51 -203 -187 -312t-344 -116l-22 -101h43q69 0 113 -41t44 -104q0 -68 -45 -110t-116 -42h-154v33h148q59 0 95 33t36 86q0 49 -36 82t-91 33h-76l31 131q-192 0 -338 93t-225 258q-78 162 -78 376q0 215 79 380q80 167 226 259t340 92
q216 0 362 -110q147 -111 199 -316h-47q-52 186 -187 284q-133 97 -329 97q-179 0 -314 -87q-136 -87 -209 -243q-73 -155 -73 -356q0 -200 73 -355q73 -154 209 -242q135 -87 314 -87q199 0 329 97z" />
    <glyph glyph-name="Egrave" unicode="&#xc8;" horiz-adv-x="1097" 
d="M156 1432h852v-43h-805v-633h680v-43h-680v-670h833v-45h-880v1434zM322 1835h53l196 -264h-43z" />
    <glyph glyph-name="Eacute" unicode="&#xc9;" horiz-adv-x="1097" 
d="M156 1432h852v-43h-805v-633h680v-43h-680v-670h833v-45h-880v1434zM532 1571l197 264h55l-211 -264h-41z" />
    <glyph glyph-name="Ecircumflex" unicode="&#xca;" horiz-adv-x="1097" 
d="M156 1432h852v-43h-805v-633h680v-43h-680v-670h833v-45h-880v1434zM551 1802l-236 -233h-49l262 266h45l263 -266h-50z" />
    <glyph glyph-name="Edieresis" unicode="&#xcb;" horiz-adv-x="1097" 
d="M156 1432h852v-43h-805v-633h680v-43h-680v-670h833v-45h-880v1434zM364 1765q13 13 29 13t29 -13q12 -12 12 -28t-12 -28q-11 -11 -29 -11t-29 11q-12 12 -12 28t12 28zM680 1765q13 13 29 13t29 -13q12 -12 12 -28t-12 -28q-11 -11 -29 -11t-29 11q-12 12 -12 28t12 28
z" />
    <glyph glyph-name="Igrave" unicode="&#xcc;" horiz-adv-x="358" 
d="M156 1434h47v-1434h-47v1434zM-49 1835h53l197 -264h-43z" />
    <glyph glyph-name="Iacute" unicode="&#xcd;" horiz-adv-x="358" 
d="M156 1434h47v-1434h-47v1434zM162 1571l196 264h56l-211 -264h-41z" />
    <glyph glyph-name="Icircumflex" unicode="&#xce;" horiz-adv-x="358" 
d="M156 1434h47v-1434h-47v1434zM180 1802l-235 -233h-49l262 266h45l262 -266h-49z" />
    <glyph glyph-name="Idieresis" unicode="&#xcf;" horiz-adv-x="358" 
d="M156 1434h47v-1434h-47v1434zM-7 1765q13 13 30 13q15 0 28 -13q12 -12 12 -28t-12 -28q-11 -11 -28 -11q-19 0 -30 11t-11 28t11 28zM309 1765q13 13 29 13q17 0 30 -13q11 -11 11 -28t-11 -28t-30 -11q-18 0 -29 11q-12 12 -12 28t12 28z" />
    <glyph glyph-name="Eth" unicode="&#xd0;" horiz-adv-x="1363" 
d="M926 1347q160 -86 246 -249q85 -161 85 -381t-85 -381q-86 -163 -246 -249q-162 -87 -389 -87h-349v713h-190v43h190v678h349q227 0 389 -87zM901 127q151 82 229 232t78 358q0 314 -175 492q-177 180 -496 180h-301v-633h350v-43h-350v-668h301q213 0 364 82z" />
    <glyph glyph-name="Ntilde" unicode="&#xd1;" horiz-adv-x="1329" 
d="M156 0v1434h47l923 -1350v1350h48v-1434h-50l-921 1352v-1352h-47zM482 1739q-23 -32 -23 -80h-33v6q0 61 33 101t92 40q44 0 70 -16q25 -15 55 -47q22 -27 45 -43q21 -14 55 -14q46 0 69 32t23 80h33v-6q0 -60 -33 -101q-33 -40 -92 -40q-43 0 -69 16q-27 17 -56 47
q-22 27 -45 43q-22 15 -55 15q-45 0 -69 -33z" />
    <glyph glyph-name="Ograve" unicode="&#xd2;" horiz-adv-x="1527" 
d="M1335 340q-84 -166 -232 -259q-149 -93 -339 -93t-339 93q-148 93 -232 259q-84 167 -84 377t84 377q84 166 232 259q149 93 339 93t339 -93q148 -93 232 -259q84 -167 84 -377t-84 -377zM232 362q76 -154 215 -242q138 -87 317 -87q176 0 314 87q139 87 216 242
q78 156 78 355q0 198 -78 354t-216 243t-314 87q-179 0 -317 -87q-139 -87 -215 -243q-76 -155 -76 -354q0 -200 76 -355zM537 1835h53l196 -264h-43z" />
    <glyph glyph-name="Oacute" unicode="&#xd3;" horiz-adv-x="1527" 
d="M1335 340q-84 -166 -232 -259q-149 -93 -339 -93t-339 93q-148 93 -232 259q-84 167 -84 377t84 377q84 166 232 259q149 93 339 93t339 -93q148 -93 232 -259q84 -167 84 -377t-84 -377zM232 362q76 -154 215 -242q138 -87 317 -87q176 0 314 87q139 87 216 242
q78 156 78 355q0 198 -78 354t-216 243t-314 87q-179 0 -317 -87q-139 -87 -215 -243q-76 -155 -76 -354q0 -200 76 -355zM748 1571l196 264h55l-211 -264h-40z" />
    <glyph glyph-name="Ocircumflex" unicode="&#xd4;" horiz-adv-x="1527" 
d="M1335 340q-84 -166 -232 -259q-149 -93 -339 -93t-339 93q-148 93 -232 259q-84 167 -84 377t84 377q84 166 232 259q149 93 339 93t339 -93q148 -93 232 -259q84 -167 84 -377t-84 -377zM232 362q76 -154 215 -242q138 -87 317 -87q176 0 314 87q139 87 216 242
q78 156 78 355q0 198 -78 354t-216 243t-314 87q-179 0 -317 -87q-139 -87 -215 -243q-76 -155 -76 -354q0 -200 76 -355zM766 1802l-236 -233h-49l262 266h45l263 -266h-50z" />
    <glyph glyph-name="Otilde" unicode="&#xd5;" horiz-adv-x="1527" 
d="M1335 340q-84 -166 -232 -259q-149 -93 -339 -93t-339 93q-148 93 -232 259q-84 167 -84 377t84 377q84 166 232 259q149 93 339 93t339 -93q148 -93 232 -259q84 -167 84 -377t-84 -377zM232 362q76 -154 215 -242q138 -87 317 -87q176 0 314 87q139 87 216 242
q78 156 78 355q0 198 -78 354t-216 243t-314 87q-179 0 -317 -87q-139 -87 -215 -243q-76 -155 -76 -354q0 -200 76 -355zM585 1739q-24 -33 -24 -80h-33v6q0 61 33 101t92 40q44 0 70 -16q25 -15 55 -47q22 -27 45 -43q21 -14 56 -14q45 0 68 32q24 33 24 80h33v-6
q0 -60 -33 -101q-33 -40 -92 -40q-44 0 -70 16q-25 15 -55 47q-22 27 -45 43q-23 15 -56 15q-44 0 -68 -33z" />
    <glyph glyph-name="Odieresis" unicode="&#xd6;" horiz-adv-x="1527" 
d="M1335 340q-84 -166 -232 -259q-149 -93 -339 -93t-339 93q-148 93 -232 259q-84 167 -84 377t84 377q84 166 232 259q149 93 339 93t339 -93q148 -93 232 -259q84 -167 84 -377t-84 -377zM232 362q76 -154 215 -242q138 -87 317 -87q176 0 314 87q139 87 216 242
q78 156 78 355q0 198 -78 354t-216 243t-314 87q-179 0 -317 -87q-139 -87 -215 -243q-76 -155 -76 -354q0 -200 76 -355zM579 1765q13 13 29 13t29 -13q12 -12 12 -28t-12 -28q-11 -11 -29 -11t-29 11q-12 12 -12 28t12 28zM895 1765q13 13 29 13t29 -13q12 -12 12 -28
t-12 -28q-11 -11 -29 -11t-29 11q-12 12 -12 28t12 28z" />
    <glyph glyph-name="multiply" unicode="&#xd7;" 
d="M223 938l324 -324l323 324l29 -27l-324 -323l324 -326l-29 -29l-325 326l-322 -323l-28 26l323 324l-323 323z" />
    <glyph glyph-name="Oslash" unicode="&#xd8;" horiz-adv-x="1527" 
d="M1247 1227q81 -94 127 -228q45 -131 45 -282q0 -210 -84 -377q-84 -166 -232 -259q-149 -93 -339 -93q-139 0 -253 49q-115 49 -204 141l-170 -190l-28 26l172 193q-81 95 -127 227q-45 131 -45 283q0 210 84 377q84 166 232 259q149 93 339 93q136 0 253 -49t204 -142
l170 191l28 -27zM196 454q42 -127 115 -214l881 983q-79 85 -190 132q-108 46 -238 46q-179 0 -317 -87q-139 -87 -215 -243q-76 -155 -76 -354q0 -143 40 -263zM1332 980q-42 127 -115 214l-879 -983q83 -86 190 -132t236 -46q176 0 314 87q139 87 216 242q78 156 78 355
q0 143 -40 263z" />
    <glyph glyph-name="Ugrave" unicode="&#xd9;" horiz-adv-x="1308" 
d="M197 1434v-863q0 -273 110 -405q111 -133 344 -133q238 0 349 133q112 135 112 405v863h47v-861q0 -295 -124 -440t-384 -145q-259 0 -380 145t-121 440v861h47zM426 1835h53l197 -264h-43z" />
    <glyph glyph-name="Uacute" unicode="&#xda;" horiz-adv-x="1308" 
d="M197 1434v-863q0 -273 110 -405q111 -133 344 -133q238 0 349 133q112 135 112 405v863h47v-861q0 -295 -124 -440t-384 -145q-259 0 -380 145t-121 440v861h47zM637 1571l197 264h55l-211 -264h-41z" />
    <glyph glyph-name="Ucircumflex" unicode="&#xdb;" horiz-adv-x="1308" 
d="M197 1434v-863q0 -273 110 -405q111 -133 344 -133q238 0 349 133q112 135 112 405v863h47v-861q0 -295 -124 -440t-384 -145q-259 0 -380 145t-121 440v861h47zM655 1802l-235 -233h-49l262 266h45l262 -266h-49z" />
    <glyph glyph-name="Udieresis" unicode="&#xdc;" horiz-adv-x="1308" 
d="M197 1434v-863q0 -273 110 -405q111 -133 344 -133q238 0 349 133q112 135 112 405v863h47v-861q0 -295 -124 -440t-384 -145q-259 0 -380 145t-121 440v861h47zM468 1765q13 13 30 13q15 0 28 -13t13 -28t-13 -28q-11 -11 -28 -11q-19 0 -30 11t-11 28t11 28zM784 1765
q13 13 29 13q17 0 30 -13q11 -11 11 -28t-11 -28t-30 -11q-18 0 -29 11q-12 12 -12 28t12 28z" />
    <glyph glyph-name="Yacute" unicode="&#xdd;" horiz-adv-x="1236" 
d="M37 1436h55l526 -856l527 856h55l-559 -910v-526h-47v526zM592 1571l196 264h56l-211 -264h-41z" />
    <glyph glyph-name="Thorn" unicode="&#xde;" horiz-adv-x="1112" 
d="M203 1434v-285h395q226 0 345 -102q118 -102 118 -306t-123 -303q-122 -98 -342 -98h-393v-340h-47v1434h47zM203 383h393q202 0 310 90t108 268q0 182 -107 274q-106 91 -309 91h-395v-723z" />
    <glyph glyph-name="germandbls" unicode="&#xdf;" horiz-adv-x="1144" 
d="M420 29v43q107 -43 219 -43q109 0 194 45q86 45 132 124q47 80 47 179q0 181 -133 272q-134 92 -355 92q-25 0 -53 -2v41q201 1 311 96q109 94 109 236q0 134 -93 213q-94 80 -243 80q-158 0 -256 -97t-98 -270v-1038h-45v1036q0 193 111 301q112 109 288 109
q168 0 274 -91q107 -92 107 -237q0 -140 -86 -232q-85 -91 -232 -118q201 -12 321 -115q118 -102 118 -276q0 -113 -53 -202q-52 -87 -149 -138q-94 -49 -216 -49q-107 0 -219 41z" />
    <glyph glyph-name="agrave" unicode="&#xe0;" horiz-adv-x="1087" 
d="M1069 43v-43h-35q-72 0 -113 42q-40 41 -38 116v110q-43 -128 -156 -205q-110 -75 -289 -75q-160 0 -255 78t-95 210q0 138 103 217q102 78 298 78h392v109q0 153 -93 240q-92 86 -258 86q-146 0 -237 -65t-115 -177h-45q23 130 127 206q106 77 270 77q190 0 293 -97
t103 -272v-512q0 -58 31 -90q31 -33 85 -33h27zM881 530h-396q-171 0 -260 -67q-90 -68 -90 -184q0 -115 83 -183q82 -67 224 -67q137 0 235 49q99 50 151 137q53 89 53 199v116zM301 1436h53l197 -265h-43z" />
    <glyph glyph-name="aacute" unicode="&#xe1;" horiz-adv-x="1087" 
d="M1069 43v-43h-35q-72 0 -113 42q-40 41 -38 116v110q-43 -128 -156 -205q-110 -75 -289 -75q-160 0 -255 78t-95 210q0 138 103 217q102 78 298 78h392v109q0 153 -93 240q-92 86 -258 86q-146 0 -237 -65t-115 -177h-45q23 130 127 206q106 77 270 77q190 0 293 -97
t103 -272v-512q0 -58 31 -90q31 -33 85 -33h27zM881 530h-396q-171 0 -260 -67q-90 -68 -90 -184q0 -115 83 -183q82 -67 224 -67q137 0 235 49q99 50 151 137q53 89 53 199v116zM512 1171l197 265h55l-211 -265h-41z" />
    <glyph glyph-name="acircumflex" unicode="&#xe2;" horiz-adv-x="1087" 
d="M1069 43v-43h-35q-72 0 -113 42q-40 41 -38 116v110q-43 -128 -156 -205q-110 -75 -289 -75q-160 0 -255 78t-95 210q0 138 103 217q102 78 298 78h392v109q0 153 -93 240q-92 86 -258 86q-146 0 -237 -65t-115 -177h-45q23 130 127 206q106 77 270 77q190 0 293 -97
t103 -272v-512q0 -58 31 -90q31 -33 85 -33h27zM881 530h-396q-171 0 -260 -67q-90 -68 -90 -184q0 -115 83 -183q82 -67 224 -67q137 0 235 49q99 50 151 137q53 89 53 199v116zM530 1403l-235 -234h-49l262 267h45l262 -267h-49z" />
    <glyph glyph-name="atilde" unicode="&#xe3;" horiz-adv-x="1087" 
d="M1069 43v-43h-35q-72 0 -113 42q-40 41 -38 116v110q-43 -128 -156 -205q-110 -75 -289 -75q-160 0 -255 78t-95 210q0 138 103 217q102 78 298 78h392v109q0 153 -93 240q-92 86 -258 86q-146 0 -237 -65t-115 -177h-45q23 130 127 206q106 77 270 77q190 0 293 -97
t103 -272v-512q0 -58 31 -90q31 -33 85 -33h27zM881 530h-396q-171 0 -260 -67q-90 -68 -90 -184q0 -115 83 -183q82 -67 224 -67q137 0 235 49q99 50 151 137q53 89 53 199v116zM349 1339q-23 -32 -23 -79h-33v6q0 60 33 101q33 40 92 40q43 0 69 -16q25 -15 56 -48
q22 -27 45 -43q21 -14 55 -14q45 0 69 33q23 32 23 80h33v-6q0 -61 -33 -102q-33 -40 -92 -40q-42 0 -70 17q-25 15 -55 47q-22 27 -45 43q-21 14 -55 14q-45 0 -69 -33z" />
    <glyph glyph-name="adieresis" unicode="&#xe4;" horiz-adv-x="1087" 
d="M1069 43v-43h-35q-72 0 -113 42q-40 41 -38 116v110q-43 -128 -156 -205q-110 -75 -289 -75q-160 0 -255 78t-95 210q0 138 103 217q102 78 298 78h392v109q0 153 -93 240q-92 86 -258 86q-146 0 -237 -65t-115 -177h-45q23 130 127 206q106 77 270 77q190 0 293 -97
t103 -272v-512q0 -58 31 -90q31 -33 85 -33h27zM881 530h-396q-171 0 -260 -67q-90 -68 -90 -184q0 -115 83 -183q82 -67 224 -67q137 0 235 49q99 50 151 137q53 89 53 199v116zM343 1366q12 12 30 12q16 0 28 -12q13 -13 13 -29q0 -14 -13 -27q-12 -12 -28 -12
q-18 0 -30 12q-11 11 -11 27q0 18 11 29zM659 1366q12 12 29 12q18 0 30 -12q11 -11 11 -29q0 -16 -11 -27q-12 -12 -30 -12q-17 0 -29 12t-12 27q0 17 12 29z" />
    <glyph glyph-name="aring" unicode="&#xe5;" horiz-adv-x="1087" 
d="M1069 43v-43h-35q-72 0 -113 42q-40 41 -38 116v110q-43 -128 -156 -205q-110 -75 -289 -75q-160 0 -255 78t-95 210q0 138 103 217q102 78 298 78h392v109q0 153 -93 240q-92 86 -258 86q-146 0 -237 -65t-115 -177h-45q23 130 127 206q106 77 270 77q190 0 293 -97
t103 -272v-512q0 -58 31 -90q31 -33 85 -33h27zM881 530h-396q-171 0 -260 -67q-90 -68 -90 -184q0 -115 83 -183q82 -67 224 -67q137 0 235 49q99 50 151 137q53 89 53 199v116zM376 1519q64 64 154 64q91 0 155 -64q65 -65 65 -155q0 -91 -65 -154t-155 -63t-154 63
q-65 63 -65 154q0 90 65 155zM663 1496q-54 54 -133 54q-78 0 -132 -54t-54 -132t54 -131q55 -53 132 -53q78 0 133 53q54 53 54 131t-54 132z" />
    <glyph glyph-name="ae" unicode="&#xe6;" horiz-adv-x="1902" 
d="M924 539v-29q0 -140 55 -249t153 -171q97 -61 220 -61q140 0 247 84t144 227h45q-38 -161 -155 -256q-119 -96 -277 -96q-162 0 -282 93t-165 251q-29 -153 -155 -248q-128 -96 -303 -96q-172 0 -267 79q-96 79 -96 218q0 137 103 215t296 78h394v102q0 153 -93 240
q-92 86 -258 86q-146 0 -237 -65t-115 -177h-45q23 130 127 206q106 77 270 77q176 0 274 -82q99 -83 116 -236q50 148 160 233t261 85q130 0 234 -58q103 -58 163 -168q60 -111 66 -264v-18h-880zM1140 952q-91 -52 -148 -150q-56 -97 -64 -222h829q-15 204 -127 314
q-114 112 -289 112q-107 0 -201 -54zM881 537h-398q-167 0 -258 -67q-90 -66 -90 -183q0 -121 83 -190q81 -68 233 -68q119 0 219 50q96 48 154 138q57 89 57 197v123z" />
    <glyph glyph-name="ccedilla" unicode="&#xe7;" 
d="M821 105q102 77 131 208h45q-30 -147 -140 -234q-109 -86 -267 -91l-23 -101h43q70 0 114 -41t44 -104q0 -68 -45 -110t-117 -42h-153v33h147q59 0 95 33t36 86q0 49 -36 82t-91 33h-76l31 131q-137 5 -240 72q-103 68 -162 189t-59 271q0 152 61 274q60 120 170 186
q111 67 249 67q162 0 277 -89q114 -88 142 -237h-47q-29 132 -130 208q-103 77 -245 77q-123 0 -223 -62q-97 -60 -153 -172t-56 -252q0 -143 56 -255t153 -174t223 -62q145 0 246 76z" />
    <glyph glyph-name="egrave" unicode="&#xe8;" horiz-adv-x="1124" 
d="M157 794q58 120 164 186q107 67 240 67q201 0 329 -128q129 -129 136 -356v-18h-881v-35q0 -137 55 -249q54 -110 152 -171t221 -61q141 0 248 84t144 227h45q-38 -160 -156 -256q-119 -96 -279 -96q-138 0 -245 67q-109 68 -170 189q-62 122 -62 274q0 155 59 276z
M979 584q-15 200 -127 311q-113 111 -289 111q-108 0 -202 -54q-88 -51 -147 -148q-56 -93 -67 -220h832zM332 1436h53l197 -265h-43z" />
    <glyph glyph-name="eacute" unicode="&#xe9;" horiz-adv-x="1124" 
d="M157 794q58 120 164 186q107 67 240 67q201 0 329 -128q129 -129 136 -356v-18h-881v-35q0 -137 55 -249q54 -110 152 -171t221 -61q141 0 248 84t144 227h45q-38 -160 -156 -256q-119 -96 -279 -96q-138 0 -245 67q-109 68 -170 189q-62 122 -62 274q0 155 59 276z
M979 584q-15 200 -127 311q-113 111 -289 111q-108 0 -202 -54q-88 -51 -147 -148q-56 -93 -67 -220h832zM543 1171l196 265h56l-211 -265h-41z" />
    <glyph glyph-name="ecircumflex" unicode="&#xea;" horiz-adv-x="1124" 
d="M157 794q58 120 164 186q107 67 240 67q201 0 329 -128q129 -129 136 -356v-18h-881v-35q0 -137 55 -249q54 -110 152 -171t221 -61q141 0 248 84t144 227h45q-38 -160 -156 -256q-119 -96 -279 -96q-138 0 -245 67q-109 68 -170 189q-62 122 -62 274q0 155 59 276z
M979 584q-15 200 -127 311q-113 111 -289 111q-108 0 -202 -54q-88 -51 -147 -148q-56 -93 -67 -220h832zM561 1403l-235 -234h-50l263 267h45l262 -267h-49z" />
    <glyph glyph-name="edieresis" unicode="&#xeb;" horiz-adv-x="1124" 
d="M157 794q58 120 164 186q107 67 240 67q201 0 329 -128q129 -129 136 -356v-18h-881v-35q0 -137 55 -249q54 -110 152 -171t221 -61q141 0 248 84t144 227h45q-38 -160 -156 -256q-119 -96 -279 -96q-138 0 -245 67q-109 68 -170 189q-62 122 -62 274q0 155 59 276z
M979 584q-15 200 -127 311q-113 111 -289 111q-108 0 -202 -54q-88 -51 -147 -148q-56 -93 -67 -220h832zM374 1366q12 12 29 12t29 -12t12 -29q0 -15 -12 -27t-29 -12t-29 12t-12 27q0 17 12 29zM690 1366q12 12 29 12q18 0 30 -12q11 -11 11 -29q0 -16 -11 -27
q-12 -12 -30 -12q-17 0 -29 12t-12 27q0 17 12 29z" />
    <glyph glyph-name="igrave" unicode="&#xec;" horiz-adv-x="305" 
d="M129 1034h45v-1034h-45v1034zM-76 1436h53l197 -265h-43z" />
    <glyph glyph-name="iacute" unicode="&#xed;" horiz-adv-x="305" 
d="M129 1034h45v-1034h-45v1034zM135 1171l197 265h55l-211 -265h-41z" />
    <glyph glyph-name="icircumflex" unicode="&#xee;" horiz-adv-x="305" 
d="M129 1034h45v-1034h-45v1034zM154 1403l-236 -234h-49l262 267h45l262 -267h-49z" />
    <glyph glyph-name="idieresis" unicode="&#xef;" horiz-adv-x="305" 
d="M129 1034h45v-1034h-45v1034zM-34 1366q12 12 30 12q17 0 29 -12t12 -29q0 -15 -12 -27t-29 -12q-18 0 -30 12q-11 11 -11 27q0 18 11 29zM283 1366q12 12 28 12q18 0 30 -12q11 -11 11 -29q0 -16 -11 -27q-12 -12 -30 -12q-16 0 -28 12q-13 13 -13 27q0 16 13 29z" />
    <glyph glyph-name="eth" unicode="&#xf0;" horiz-adv-x="1177" 
d="M956 908q102 -195 103 -398q-1 -153 -62 -273q-60 -118 -168 -184q-106 -65 -251 -65q-141 0 -249 62q-111 64 -170 173q-61 113 -61 250q0 140 62 252q62 111 171 171t247 60q140 0 244 -64q107 -66 163 -175q-40 143 -127 276q-85 129 -201 238l-258 -170l-18 33
l246 163q-107 94 -224 160l27 29q127 -69 234 -164l249 166l21 -33l-242 -160q163 -153 264 -347zM807 88q98 60 151 168q54 111 54 250q-4 128 -65 222q-60 93 -157 141q-100 49 -212 49q-124 0 -225 -58q-98 -57 -154 -159q-56 -103 -56 -228q0 -127 56 -230
q55 -101 154 -158q97 -56 225 -56q132 0 229 59z" />
    <glyph glyph-name="ntilde" unicode="&#xf1;" horiz-adv-x="1093" 
d="M868 928q107 -119 107 -344v-584h-45v582q0 203 -94 312q-95 110 -261 110q-183 0 -292 -138t-109 -366v-500h-45v1034h41l6 -315q44 153 147 240q105 88 257 88q181 0 288 -119zM396 1339q-23 -32 -23 -79h-33v6q0 60 33 101q33 40 92 40q44 0 70 -16q22 -14 55 -48
q22 -27 45 -43q21 -14 55 -14q45 0 69 33q23 32 23 80h33v-6q0 -61 -33 -102q-33 -40 -92 -40q-41 0 -69 17q-27 17 -56 47q-22 27 -45 43q-21 14 -55 14q-45 0 -69 -33z" />
    <glyph glyph-name="ograve" unicode="&#xf2;" horiz-adv-x="1155" 
d="M329 55q-110 68 -170 188q-61 122 -61 275q0 152 61 274q59 119 170 187q110 68 249 68q138 0 248 -68q111 -68 170 -187q61 -122 61 -274q0 -153 -61 -275q-60 -120 -170 -188q-109 -67 -248 -67q-140 0 -249 67zM803 91q98 62 153 173q56 112 56 254q0 140 -56 252
q-55 111 -153 173q-99 63 -225 63t-225 -63t-154 -173q-56 -112 -56 -252q0 -142 56 -254q55 -110 154 -173q97 -62 225 -62t225 62zM348 1436h53l197 -265h-43z" />
    <glyph glyph-name="oacute" unicode="&#xf3;" horiz-adv-x="1155" 
d="M329 55q-110 68 -170 188q-61 122 -61 275q0 152 61 274q59 119 170 187q110 68 249 68q138 0 248 -68q111 -68 170 -187q61 -122 61 -274q0 -153 -61 -275q-60 -120 -170 -188q-109 -67 -248 -67q-140 0 -249 67zM803 91q98 62 153 173q56 112 56 254q0 140 -56 252
q-55 111 -153 173q-99 63 -225 63t-225 -63t-154 -173q-56 -112 -56 -252q0 -142 56 -254q55 -110 154 -173q97 -62 225 -62t225 62zM559 1171l197 265h55l-211 -265h-41z" />
    <glyph glyph-name="ocircumflex" unicode="&#xf4;" horiz-adv-x="1155" 
d="M329 55q-110 68 -170 188q-61 122 -61 275q0 152 61 274q59 119 170 187q110 68 249 68q138 0 248 -68q111 -68 170 -187q61 -122 61 -274q0 -153 -61 -275q-60 -120 -170 -188q-109 -67 -248 -67q-140 0 -249 67zM803 91q98 62 153 173q56 112 56 254q0 140 -56 252
q-55 111 -153 173q-99 63 -225 63t-225 -63t-154 -173q-56 -112 -56 -252q0 -142 56 -254q55 -110 154 -173q97 -62 225 -62t225 62zM578 1403l-236 -234h-49l262 267h45l262 -267h-49z" />
    <glyph glyph-name="otilde" unicode="&#xf5;" horiz-adv-x="1155" 
d="M329 55q-110 68 -170 188q-61 122 -61 275q0 152 61 274q59 119 170 187q110 68 249 68q138 0 248 -68q111 -68 170 -187q61 -122 61 -274q0 -153 -61 -275q-60 -120 -170 -188q-109 -67 -248 -67q-140 0 -249 67zM803 91q98 62 153 173q56 112 56 254q0 140 -56 252
q-55 111 -153 173q-99 63 -225 63t-225 -63t-154 -173q-56 -112 -56 -252q0 -142 56 -254q55 -110 154 -173q97 -62 225 -62t225 62zM396 1339q-23 -32 -23 -79h-33v6q0 60 33 101q33 40 92 40q44 0 70 -16q22 -14 55 -48q22 -27 45 -43q21 -14 55 -14q45 0 69 33
q23 32 23 80h33v-6q0 -61 -33 -102q-33 -40 -92 -40q-41 0 -69 17q-27 17 -56 47q-22 27 -45 43q-21 14 -55 14q-45 0 -69 -33z" />
    <glyph glyph-name="odieresis" unicode="&#xf6;" horiz-adv-x="1155" 
d="M329 55q-110 68 -170 188q-61 122 -61 275q0 152 61 274q59 119 170 187q110 68 249 68q138 0 248 -68q111 -68 170 -187q61 -122 61 -274q0 -153 -61 -275q-60 -120 -170 -188q-109 -67 -248 -67q-140 0 -249 67zM803 91q98 62 153 173q56 112 56 254q0 140 -56 252
q-55 111 -153 173q-99 63 -225 63t-225 -63t-154 -173q-56 -112 -56 -252q0 -142 56 -254q55 -110 154 -173q97 -62 225 -62t225 62zM390 1366q12 12 30 12q17 0 29 -12t12 -29q0 -15 -12 -27t-29 -12q-18 0 -30 12q-11 11 -11 27q0 18 11 29zM707 1366q12 12 28 12
q18 0 30 -12q11 -11 11 -29q0 -16 -11 -27q-12 -12 -30 -12q-16 0 -28 12q-13 13 -13 27q0 16 13 29z" />
    <glyph glyph-name="divide" unicode="&#xf7;" 
d="M516 980q11 11 31 11q19 0 30 -11t11 -30t-11 -30q-13 -13 -30 -13q-18 0 -31 13q-12 12 -12 30t12 30zM152 571v39h788v-39h-788zM516 269q12 12 31 12q18 0 30 -12q11 -11 11 -29q0 -20 -11 -31q-12 -12 -30 -12q-19 0 -31 12t-12 31q0 17 12 29z" />
    <glyph glyph-name="oslash" unicode="&#xf8;" horiz-adv-x="1163" 
d="M938 881q119 -146 119 -363q0 -153 -61 -275q-60 -120 -170 -188q-109 -67 -248 -67q-99 0 -186 35q-83 34 -146 98l-123 -133l-25 24l123 135q-58 67 -91 165q-32 96 -32 206q0 152 61 274q59 119 170 187q110 68 249 68q100 0 187 -36t150 -102l125 138l27 -25z
M252 180l633 697q-56 60 -136 95q-78 34 -171 34q-126 0 -225 -63t-154 -173q-56 -112 -56 -252q0 -203 109 -338zM909 848l-635 -694q119 -125 304 -125q128 0 225 62q98 62 153 173q56 112 56 254q0 198 -103 330z" />
    <glyph glyph-name="ugrave" unicode="&#xf9;" horiz-adv-x="1081" 
d="M950 1034v-1034h-41l-6 313q-40 -148 -144 -237q-103 -88 -251 -88q-179 0 -284 118q-105 119 -105 345v583h45v-581q0 -204 94 -313t254 -109q121 0 208 62q90 64 137 176q48 114 48 266v499h45zM305 1436h53l197 -265h-43z" />
    <glyph glyph-name="uacute" unicode="&#xfa;" horiz-adv-x="1081" 
d="M950 1034v-1034h-41l-6 313q-40 -148 -144 -237q-103 -88 -251 -88q-179 0 -284 118q-105 119 -105 345v583h45v-581q0 -204 94 -313t254 -109q121 0 208 62q90 64 137 176q48 114 48 266v499h45zM516 1171l197 265h55l-211 -265h-41z" />
    <glyph glyph-name="ucircumflex" unicode="&#xfb;" horiz-adv-x="1081" 
d="M950 1034v-1034h-41l-6 313q-40 -148 -144 -237q-103 -88 -251 -88q-179 0 -284 118q-105 119 -105 345v583h45v-581q0 -204 94 -313t254 -109q121 0 208 62q90 64 137 176q48 114 48 266v499h45zM535 1403l-236 -234h-49l262 267h45l262 -267h-49z" />
    <glyph glyph-name="udieresis" unicode="&#xfc;" horiz-adv-x="1081" 
d="M950 1034v-1034h-41l-6 313q-40 -148 -144 -237q-103 -88 -251 -88q-179 0 -284 118q-105 119 -105 345v583h45v-581q0 -204 94 -313t254 -109q121 0 208 62q90 64 137 176q48 114 48 266v499h45zM347 1366q12 12 30 12q17 0 29 -12t12 -29q0 -15 -12 -27t-29 -12
q-18 0 -30 12q-11 11 -11 27q0 18 11 29zM664 1366q12 12 28 12q18 0 30 -12q11 -11 11 -29q0 -16 -11 -27q-12 -12 -30 -12q-16 0 -28 12q-13 13 -13 27q0 16 13 29z" />
    <glyph glyph-name="yacute" unicode="&#xfd;" horiz-adv-x="944" 
d="M76 1034l397 -977l395 977h50l-508 -1243q-33 -84 -62 -128q-27 -40 -63 -56q-39 -17 -103 -17h-121v43h113q60 0 90 15q31 15 51 47q25 40 52 108l82 197l-422 1034h49zM453 1171l196 265h56l-211 -265h-41z" />
    <glyph glyph-name="thorn" unicode="&#xfe;" horiz-adv-x="1185" 
d="M174 1434v-736q41 158 158 253q119 96 278 96q138 0 248 -67q109 -67 169 -186q60 -120 60 -276q0 -152 -60 -274q-60 -121 -169 -189q-107 -67 -248 -67q-162 0 -278 94q-118 95 -158 252v-744h-45v1844h45zM987 770q-55 110 -154 173t-225 63q-125 0 -224 -63
q-100 -64 -155 -173q-55 -110 -55 -252q0 -143 55 -253q55 -111 155 -174q97 -62 224 -62q128 0 225 62q99 63 154 173t55 254q0 142 -55 252z" />
    <glyph glyph-name="ydieresis" unicode="&#xff;" horiz-adv-x="944" 
d="M76 1034l397 -977l395 977h50l-508 -1243q-33 -84 -62 -128q-27 -40 -63 -56q-39 -17 -103 -17h-121v43h113q60 0 90 15q31 15 51 47q25 40 52 108l82 197l-422 1034h49zM284 1366q12 12 29 12t29 -12t12 -29q0 -15 -12 -27t-29 -12t-29 12t-12 27q0 17 12 29zM600 1366
q12 12 29 12t29 -12t12 -29q0 -15 -12 -27t-29 -12t-29 12t-12 27q0 17 12 29z" />
    <glyph glyph-name="Amacron" unicode="&#x100;" horiz-adv-x="1267" 
d="M45 0l561 1434h56l561 -1434h-52l-192 487h-692l-191 -487h-51zM303 532h662l-332 848zM391 1718v39h488v-39h-488z" />
    <glyph glyph-name="amacron" unicode="&#x101;" horiz-adv-x="1087" 
d="M1069 43v-43h-35q-72 0 -113 42q-40 41 -38 116v110q-43 -128 -156 -205q-110 -75 -289 -75q-160 0 -255 78t-95 210q0 138 103 217q102 78 298 78h392v109q0 153 -93 240q-92 86 -258 86q-146 0 -237 -65t-115 -177h-45q23 130 127 206q106 77 270 77q190 0 293 -97
t103 -272v-512q0 -58 31 -90q31 -33 85 -33h27zM881 530h-396q-171 0 -260 -67q-90 -68 -90 -184q0 -115 83 -183q82 -67 224 -67q137 0 235 49q99 50 151 137q53 89 53 199v116zM287 1319v39h487v-39h-487z" />
    <glyph glyph-name="Abreve" unicode="&#x102;" horiz-adv-x="1267" 
d="M45 0l561 1434h56l561 -1434h-52l-192 487h-692l-191 -487h-51zM303 532h662l-332 848zM438 1835q0 -86 55 -144q54 -57 138 -57q87 0 144 57q56 56 56 144h39q0 -107 -67 -173q-69 -67 -172 -67q-102 0 -167 67t-65 173h39z" />
    <glyph glyph-name="abreve" unicode="&#x103;" horiz-adv-x="1087" 
d="M1069 43v-43h-35q-72 0 -113 42q-40 41 -38 116v110q-43 -128 -156 -205q-110 -75 -289 -75q-160 0 -255 78t-95 210q0 138 103 217q102 78 298 78h392v109q0 153 -93 240q-92 86 -258 86q-146 0 -237 -65t-115 -177h-45q23 130 127 206q106 77 270 77q190 0 293 -97
t103 -272v-512q0 -58 31 -90q31 -33 85 -33h27zM881 530h-396q-171 0 -260 -67q-90 -68 -90 -184q0 -115 83 -183q82 -67 224 -67q137 0 235 49q99 50 151 137q53 89 53 199v116zM334 1436q0 -88 54 -145q53 -56 138 -56q89 0 145 56t56 145h39q0 -107 -68 -173
q-69 -67 -172 -67q-102 0 -167 67q-64 65 -64 173h39z" />
    <glyph glyph-name="Aogonek" unicode="&#x104;" horiz-adv-x="1267" 
d="M1241 -373v-37h-121q-78 0 -123 39t-45 109t55 131q50 56 162 135l-190 483h-692l-191 -487h-51l561 1434h56l561 -1434q-93 -65 -130 -95q-42 -35 -72 -75t-30 -88q0 -55 35 -85q34 -30 100 -30h115zM303 532h662l-332 848z" />
    <glyph glyph-name="aogonek" unicode="&#x105;" horiz-adv-x="1087" 
d="M1087 -373v-37h-120q-78 0 -123 39t-45 109q0 71 53 129q50 55 160 135q-64 6 -98 48q-33 40 -31 108v110q-43 -128 -156 -205q-110 -75 -289 -75q-160 0 -255 78t-95 210q0 138 103 217q102 78 298 78h392v109q0 153 -93 240q-92 86 -258 86q-146 0 -237 -65t-115 -177
h-45q23 130 127 206q106 77 270 77q190 0 293 -97t103 -272v-512q0 -58 31 -90q31 -33 85 -33h27v-43q-93 -65 -130 -95q-42 -35 -72 -75q-29 -39 -29 -88q0 -55 34 -85t101 -30h114zM881 530h-396q-171 0 -260 -67q-90 -68 -90 -184q0 -115 83 -183q82 -67 224 -67
q137 0 235 49q99 50 151 137q53 89 53 199v116z" />
    <glyph glyph-name="Cacute" unicode="&#x106;" horiz-adv-x="1423" 
d="M188 1095q80 167 226 259t340 92q216 0 362 -110q147 -111 199 -316h-47q-52 186 -187 284q-133 97 -329 97q-179 0 -314 -87q-136 -87 -209 -243q-73 -155 -73 -356q0 -200 73 -355q73 -154 209 -242q135 -87 314 -87q199 0 329 97q132 99 183 288h47
q-51 -210 -195 -319q-143 -109 -362 -109q-194 0 -340 92q-147 92 -226 257q-79 164 -79 378q0 215 79 380zM735 1571l197 264h55l-211 -264h-41z" />
    <glyph glyph-name="cacute" unicode="&#x107;" 
d="M853 76q-113 -88 -278 -88q-140 0 -247 67q-109 68 -169 189q-61 124 -61 276t61 274q60 120 170 186q111 67 249 67q162 0 277 -89q114 -88 142 -237h-47q-29 132 -130 208q-103 77 -245 77q-123 0 -223 -62q-97 -60 -153 -172t-56 -252q0 -143 56 -255t153 -174
t223 -62q145 0 246 76q102 77 131 208h45q-30 -148 -144 -237zM559 1171l197 265h55l-211 -265h-41z" />
    <glyph glyph-name="Ccircumflex" unicode="&#x108;" horiz-adv-x="1423" 
d="M188 1095q80 167 226 259t340 92q216 0 362 -110q147 -111 199 -316h-47q-52 186 -187 284q-133 97 -329 97q-179 0 -314 -87q-136 -87 -209 -243q-73 -155 -73 -356q0 -200 73 -355q73 -154 209 -242q135 -87 314 -87q199 0 329 97q132 99 183 288h47
q-51 -210 -195 -319q-143 -109 -362 -109q-194 0 -340 92q-147 92 -226 257q-79 164 -79 378q0 215 79 380zM754 1802l-236 -233h-49l262 266h45l262 -266h-49z" />
    <glyph glyph-name="ccircumflex" unicode="&#x109;" 
d="M853 76q-113 -88 -278 -88q-140 0 -247 67q-109 68 -169 189q-61 124 -61 276t61 274q60 120 170 186q111 67 249 67q162 0 277 -89q114 -88 142 -237h-47q-29 132 -130 208q-103 77 -245 77q-123 0 -223 -62q-97 -60 -153 -172t-56 -252q0 -143 56 -255t153 -174
t223 -62q145 0 246 76q102 77 131 208h45q-30 -148 -144 -237zM578 1403l-236 -234h-49l262 267h45l262 -267h-49z" />
    <glyph glyph-name="Cdotaccent" unicode="&#x10a;" horiz-adv-x="1423" 
d="M188 1095q80 167 226 259t340 92q216 0 362 -110q147 -111 199 -316h-47q-52 186 -187 284q-133 97 -329 97q-179 0 -314 -87q-136 -87 -209 -243q-73 -155 -73 -356q0 -200 73 -355q73 -154 209 -242q135 -87 314 -87q199 0 329 97q132 99 183 288h47
q-51 -210 -195 -319q-143 -109 -362 -109q-194 0 -340 92q-147 92 -226 257q-79 164 -79 378q0 215 79 380zM725 1781q11 11 29 11q17 0 28 -11q13 -13 13 -28t-13 -28q-11 -11 -28 -11q-18 0 -29 11q-12 12 -12 28t12 28z" />
    <glyph glyph-name="cdotaccent" unicode="&#x10b;" 
d="M853 76q-113 -88 -278 -88q-140 0 -247 67q-109 68 -169 189q-61 124 -61 276t61 274q60 120 170 186q111 67 249 67q162 0 277 -89q114 -88 142 -237h-47q-29 132 -130 208q-103 77 -245 77q-123 0 -223 -62q-97 -60 -153 -172t-56 -252q0 -143 56 -255t153 -174
t223 -62q145 0 246 76q102 77 131 208h45q-30 -148 -144 -237zM549 1381q12 12 29 12q16 0 28 -12t12 -27q0 -16 -12 -28q-11 -11 -28 -11q-18 0 -29 11q-12 12 -12 28q0 15 12 27z" />
    <glyph glyph-name="Ccaron" unicode="&#x10c;" horiz-adv-x="1423" 
d="M188 1095q80 167 226 259t340 92q216 0 362 -110q147 -111 199 -316h-47q-52 186 -187 284q-133 97 -329 97q-179 0 -314 -87q-136 -87 -209 -243q-73 -155 -73 -356q0 -200 73 -355q73 -154 209 -242q135 -87 314 -87q199 0 329 97q132 99 183 288h47
q-51 -210 -195 -319q-143 -109 -362 -109q-194 0 -340 92q-147 92 -226 257q-79 164 -79 378q0 215 79 380zM754 1602l235 233h49l-262 -266h-45l-262 266h49z" />
    <glyph glyph-name="ccaron" unicode="&#x10d;" 
d="M853 76q-113 -88 -278 -88q-140 0 -247 67q-109 68 -169 189q-61 124 -61 276t61 274q60 120 170 186q111 67 249 67q162 0 277 -89q114 -88 142 -237h-47q-29 132 -130 208q-103 77 -245 77q-123 0 -223 -62q-97 -60 -153 -172t-56 -252q0 -143 56 -255t153 -174
t223 -62q145 0 246 76q102 77 131 208h45q-30 -148 -144 -237zM578 1202l235 234h49l-262 -267h-45l-262 267h49z" />
    <glyph glyph-name="Dcaron" unicode="&#x10e;" horiz-adv-x="1331" 
d="M156 1434h348q227 0 389 -87q161 -87 247 -249q85 -161 85 -381t-85 -381q-86 -162 -247 -249q-162 -87 -389 -87h-348v1434zM504 45q213 0 364 82q153 83 230 232q78 150 78 358q0 313 -176 492q-177 180 -496 180h-301v-1344h301zM582 1602l235 233h49l-262 -266h-45
l-262 266h49z" />
    <glyph glyph-name="dcaron" unicode="&#x10f;" horiz-adv-x="1263" 
d="M1057 1434v-1434h-41l-6 319q-45 -150 -161 -241q-115 -90 -274 -90q-139 0 -247 66q-109 67 -169 188q-61 124 -61 276t61 274q59 118 169 187q109 68 247 68q161 0 279 -94t158 -248v729h45zM802 91q99 63 154 173q56 112 56 252q0 141 -56 253q-56 111 -154 174
q-99 63 -224 63q-126 0 -225 -63t-154 -173q-56 -112 -56 -252q0 -142 56 -254q55 -110 154 -173q97 -62 225 -62q127 0 224 62zM1251 1434h45l-100 -295h-35z" />
    <glyph glyph-name="Dcroat" unicode="&#x110;" horiz-adv-x="1363" 
d="M926 1347q160 -86 246 -249q85 -161 85 -381t-85 -381q-86 -163 -246 -249q-162 -87 -389 -87h-349v713h-190v43h190v678h349q227 0 389 -87zM901 127q151 82 229 232t78 358q0 314 -175 492q-177 180 -496 180h-301v-633h350v-43h-350v-668h301q213 0 364 82z" />
    <glyph glyph-name="dcroat" unicode="&#x111;" horiz-adv-x="1206" 
d="M1243 1223h-186v-1223h-41l-6 319q-45 -150 -161 -241q-115 -90 -274 -90q-139 0 -247 66q-109 67 -169 188q-61 124 -61 276t61 274q59 118 169 187q109 68 247 68q161 0 279 -94t158 -248v518h-307v41h307v170h45v-170h186v-41zM802 91q99 63 154 173q56 112 56 252
q0 141 -56 253q-56 111 -154 174q-99 63 -224 63q-126 0 -225 -63t-154 -173q-56 -112 -56 -252q0 -142 56 -254q55 -110 154 -173q97 -62 225 -62q127 0 224 62z" />
    <glyph glyph-name="Emacron" unicode="&#x112;" horiz-adv-x="1097" 
d="M156 1432h852v-43h-805v-633h680v-43h-680v-670h833v-45h-880v1434zM307 1718v39h488v-39h-488z" />
    <glyph glyph-name="emacron" unicode="&#x113;" horiz-adv-x="1124" 
d="M157 794q58 120 164 186q107 67 240 67q201 0 329 -128q129 -129 136 -356v-18h-881v-35q0 -137 55 -249q54 -110 152 -171t221 -61q141 0 248 84t144 227h45q-38 -160 -156 -256q-119 -96 -279 -96q-138 0 -245 67q-109 68 -170 189q-62 122 -62 274q0 155 59 276z
M979 584q-15 200 -127 311q-113 111 -289 111q-108 0 -202 -54q-88 -51 -147 -148q-56 -93 -67 -220h832zM317 1319v39h488v-39h-488z" />
    <glyph glyph-name="Ebreve" unicode="&#x114;" horiz-adv-x="1097" 
d="M156 1432h852v-43h-805v-633h680v-43h-680v-670h833v-45h-880v1434zM354 1835q0 -86 55 -144q54 -57 138 -57q87 0 144 57t57 144h38q0 -107 -67 -173q-69 -67 -172 -67q-102 0 -167 67t-65 173h39z" />
    <glyph glyph-name="ebreve" unicode="&#x115;" horiz-adv-x="1124" 
d="M157 794q58 120 164 186q107 67 240 67q201 0 329 -128q129 -129 136 -356v-18h-881v-35q0 -137 55 -249q54 -110 152 -171t221 -61q141 0 248 84t144 227h45q-38 -160 -156 -256q-119 -96 -279 -96q-138 0 -245 67q-109 68 -170 189q-62 122 -62 274q0 155 59 276z
M979 584q-15 200 -127 311q-113 111 -289 111q-108 0 -202 -54q-88 -51 -147 -148q-56 -93 -67 -220h832zM365 1436q0 -88 54 -145q53 -56 138 -56q88 0 144 56q57 57 57 145h39q0 -107 -68 -173q-69 -67 -172 -67q-102 0 -167 67q-64 65 -64 173h39z" />
    <glyph glyph-name="Edotaccent" unicode="&#x116;" horiz-adv-x="1097" 
d="M156 1432h852v-43h-805v-633h680v-43h-680v-670h833v-45h-880v1434zM522 1781q11 11 29 11t29 -11q12 -12 12 -28t-12 -28q-11 -11 -29 -11t-29 11q-12 12 -12 28t12 28z" />
    <glyph glyph-name="edotaccent" unicode="&#x117;" horiz-adv-x="1124" 
d="M157 794q58 120 164 186q107 67 240 67q201 0 329 -128q129 -129 136 -356v-18h-881v-35q0 -137 55 -249q54 -110 152 -171t221 -61q141 0 248 84t144 227h45q-38 -160 -156 -256q-119 -96 -279 -96q-138 0 -245 67q-109 68 -170 189q-62 122 -62 274q0 155 59 276z
M979 584q-15 200 -127 311q-113 111 -289 111q-108 0 -202 -54q-88 -51 -147 -148q-56 -93 -67 -220h832zM532 1381q12 12 29 12t29 -12t12 -27q0 -16 -12 -28q-11 -11 -29 -11t-29 11q-12 12 -12 28q0 15 12 27z" />
    <glyph glyph-name="Eogonek" unicode="&#x118;" horiz-adv-x="1097" 
d="M1055 -373v-37h-121q-78 0 -123 39t-45 109t52 128q53 59 157 132h-819v1434h852v-43h-805v-633h680v-43h-680v-670h833v-45h-2q-89 -62 -131 -95q-39 -30 -69 -73q-29 -41 -29 -88q0 -55 35 -85q34 -30 100 -30h115z" />
    <glyph glyph-name="eogonek" unicode="&#x119;" horiz-adv-x="1124" 
d="M145 545v-35q0 -137 55 -249q54 -110 152 -171t221 -61q141 0 248 84t144 227h45q-30 -130 -119 -221t-213 -119q-86 -61 -130 -96q-38 -31 -70 -74q-29 -39 -29 -88q0 -55 34 -85q35 -30 101 -30h114v-37h-120q-78 0 -123 39t-45 109q0 67 50 126q48 56 146 124h-31
q-138 0 -245 67q-109 68 -170 189q-62 122 -62 274q0 155 59 276q58 120 164 186q107 67 240 67q201 0 329 -128q129 -129 136 -356v-18h-881zM361 952q-88 -51 -147 -148q-56 -93 -67 -220h832q-15 200 -127 311q-113 111 -289 111q-108 0 -202 -54z" />
    <glyph glyph-name="Ecaron" unicode="&#x11a;" horiz-adv-x="1097" 
d="M156 1432h852v-43h-805v-633h680v-43h-680v-670h833v-45h-880v1434zM551 1602l235 233h50l-263 -266h-45l-262 266h49z" />
    <glyph glyph-name="ecaron" unicode="&#x11b;" horiz-adv-x="1124" 
d="M157 794q58 120 164 186q107 67 240 67q201 0 329 -128q129 -129 136 -356v-18h-881v-35q0 -137 55 -249q54 -110 152 -171t221 -61q141 0 248 84t144 227h45q-38 -160 -156 -256q-119 -96 -279 -96q-138 0 -245 67q-109 68 -170 189q-62 122 -62 274q0 155 59 276z
M979 584q-15 200 -127 311q-113 111 -289 111q-108 0 -202 -54q-88 -51 -147 -148q-56 -93 -67 -220h832zM561 1202l236 234h49l-262 -267h-45l-263 267h50z" />
    <glyph glyph-name="Gcircumflex" unicode="&#x11c;" horiz-adv-x="1497" 
d="M187 1096q79 166 224 258t337 92q216 0 364 -110q149 -111 201 -316h-49q-52 186 -187 284q-133 97 -329 97q-180 0 -313 -87q-136 -88 -207 -243q-72 -156 -72 -356q0 -201 71 -355t203 -242q130 -87 301 -87q177 0 304 78q129 79 194 207q65 129 65 286v76h-508v43h555
v-721h-41l-4 424q-45 -191 -191 -313q-147 -123 -376 -123q-181 0 -323 92t-220 257q-77 163 -77 378q0 218 78 381zM748 1802l-236 -233h-49l262 266h45l262 -266h-49z" />
    <glyph glyph-name="gcircumflex" unicode="&#x11d;" horiz-adv-x="1185" 
d="M1057 1034v-958q0 -260 -117 -379t-356 -119q-183 0 -301 85q-119 86 -146 241h47q27 -136 134 -210q108 -75 270 -75q213 0 318 110q106 111 106 349v252q-45 -158 -161 -250t-276 -92q-139 0 -247 66q-109 67 -169 188q-61 124 -61 276t61 274q59 118 169 187
q109 68 247 68q162 0 278 -92q117 -93 157 -246l6 325h41zM802 91q98 63 154 174q56 112 56 255q0 140 -56 252q-55 111 -154 172q-100 62 -224 62q-126 0 -225 -63t-154 -173q-56 -112 -56 -252q0 -141 56 -253q56 -111 154 -174q97 -62 225 -62q127 0 224 62zM578 1403
l-236 -234h-49l262 267h45l262 -267h-49z" />
    <glyph glyph-name="Gbreve" unicode="&#x11e;" horiz-adv-x="1497" 
d="M187 1096q79 166 224 258t337 92q216 0 364 -110q149 -111 201 -316h-49q-52 186 -187 284q-133 97 -329 97q-180 0 -313 -87q-136 -88 -207 -243q-72 -156 -72 -356q0 -201 71 -355t203 -242q130 -87 301 -87q177 0 304 78q129 79 194 207q65 129 65 286v76h-508v43h555
v-721h-41l-4 424q-45 -191 -191 -313q-147 -123 -376 -123q-181 0 -323 92t-220 257q-77 163 -77 378q0 218 78 381zM551 1835q0 -87 54 -144t138 -57q88 0 145 57q56 56 56 144h39q0 -107 -68 -173q-69 -67 -172 -67q-101 0 -166 67t-65 173h39z" />
    <glyph glyph-name="gbreve" unicode="&#x11f;" horiz-adv-x="1185" 
d="M1057 1034v-958q0 -260 -117 -379t-356 -119q-183 0 -301 85q-119 86 -146 241h47q27 -136 134 -210q108 -75 270 -75q213 0 318 110q106 111 106 349v252q-45 -158 -161 -250t-276 -92q-139 0 -247 66q-109 67 -169 188q-61 124 -61 276t61 274q59 118 169 187
q109 68 247 68q162 0 278 -92q117 -93 157 -246l6 325h41zM802 91q98 63 154 174q56 112 56 255q0 140 -56 252q-55 111 -154 172q-100 62 -224 62q-126 0 -225 -63t-154 -173q-56 -112 -56 -252q0 -141 56 -253q56 -111 154 -174q97 -62 225 -62q127 0 224 62zM381 1436
q0 -88 54 -145q53 -56 138 -56q89 0 145 56t56 145h39q0 -107 -68 -173q-69 -67 -172 -67q-101 0 -166 67t-65 173h39z" />
    <glyph glyph-name="Gdotaccent" unicode="&#x120;" horiz-adv-x="1497" 
d="M187 1096q79 166 224 258t337 92q216 0 364 -110q149 -111 201 -316h-49q-52 186 -187 284q-133 97 -329 97q-180 0 -313 -87q-136 -88 -207 -243q-72 -156 -72 -356q0 -201 71 -355t203 -242q130 -87 301 -87q177 0 304 78q129 79 194 207q65 129 65 286v76h-508v43h555
v-721h-41l-4 424q-45 -191 -191 -313q-147 -123 -376 -123q-181 0 -323 92t-220 257q-77 163 -77 378q0 218 78 381zM719 1781q11 11 29 11q17 0 28 -11q12 -12 12 -28t-12 -28q-11 -11 -28 -11q-18 0 -29 11q-12 12 -12 28t12 28z" />
    <glyph glyph-name="gdotaccent" unicode="&#x121;" horiz-adv-x="1185" 
d="M1057 1034v-958q0 -260 -117 -379t-356 -119q-183 0 -301 85q-119 86 -146 241h47q27 -136 134 -210q108 -75 270 -75q213 0 318 110q106 111 106 349v252q-45 -158 -161 -250t-276 -92q-139 0 -247 66q-109 67 -169 188q-61 124 -61 276t61 274q59 118 169 187
q109 68 247 68q162 0 278 -92q117 -93 157 -246l6 325h41zM802 91q98 63 154 174q56 112 56 255q0 140 -56 252q-55 111 -154 172q-100 62 -224 62q-126 0 -225 -63t-154 -173q-56 -112 -56 -252q0 -141 56 -253q56 -111 154 -174q97 -62 225 -62q127 0 224 62zM549 1381
q12 12 29 12q16 0 28 -12t12 -27q0 -16 -12 -28q-11 -11 -28 -11q-18 0 -29 11q-12 12 -12 28q0 15 12 27z" />
    <glyph glyph-name="Gcommaaccent" unicode="&#x122;" horiz-adv-x="1497" 
d="M187 1096q79 166 224 258t337 92q216 0 364 -110q149 -111 201 -316h-49q-52 186 -187 284q-133 97 -329 97q-180 0 -313 -87q-136 -88 -207 -243q-72 -156 -72 -356q0 -201 71 -355t203 -242q130 -87 301 -87q177 0 304 78q129 79 194 207q65 129 65 286v76h-508v43h555
v-721h-41l-4 424q-45 -191 -191 -313q-147 -123 -376 -123q-181 0 -323 92t-220 257q-77 163 -77 378q0 218 78 381zM707 -109h43l-99 -284h-35z" />
    <glyph glyph-name="gcommaaccent" unicode="&#x123;" horiz-adv-x="1185" 
d="M1057 1034v-958q0 -260 -117 -379t-356 -119q-183 0 -301 85q-119 86 -146 241h47q27 -136 134 -210q108 -75 270 -75q213 0 318 110q106 111 106 349v252q-45 -158 -161 -250t-276 -92q-139 0 -247 66q-109 67 -169 188q-61 124 -61 276t61 274q59 118 169 187
q109 68 247 68q162 0 278 -92q117 -93 157 -246l6 325h41zM802 91q98 63 154 174q56 112 56 255q0 140 -56 252q-55 111 -154 172q-100 62 -224 62q-126 0 -225 -63t-154 -173q-56 -112 -56 -252q0 -141 56 -253q56 -111 154 -174q97 -62 225 -62q127 0 224 62zM584 1151
h-45l98 285h37z" />
    <glyph glyph-name="Hcircumflex" unicode="&#x124;" horiz-adv-x="1316" 
d="M156 1436h47v-680h911v680h47v-1436h-47v713h-911v-713h-47v1436zM657 1802l-235 -233h-49l262 266h45l262 -266h-49z" />
    <glyph glyph-name="hcircumflex" unicode="&#x125;" horiz-adv-x="1093" 
d="M869 928q108 -118 108 -344v-584h-47v582q0 202 -95 312t-260 110q-119 0 -211 -63t-141 -176t-49 -265v-500h-45v1434h45v-736q41 165 145 256q107 93 261 93q181 0 289 -119zM152 1782l-236 -234h-49l262 267h45l262 -267h-49z" />
    <glyph glyph-name="Hbar" unicode="&#x126;" horiz-adv-x="1335" 
d="M1339 1118v-43h-168v-1075h-47v700h-911v-700h-47v1075h-168v43h168v318h47v-318h911v318h47v-318h168zM1124 743v332h-911v-332h911z" />
    <glyph glyph-name="hbar" unicode="&#x127;" horiz-adv-x="1114" 
d="M890 928q107 -117 107 -344v-584h-47v582q0 202 -95 312t-259 110q-120 0 -212 -63q-91 -62 -140 -176q-49 -113 -49 -265v-500h-45v1223h-187v41h187v170h45v-170h305v-41h-305v-525q41 165 145 256q107 93 260 93q182 0 290 -119z" />
    <glyph glyph-name="Itilde" unicode="&#x128;" horiz-adv-x="358" 
d="M156 1434h47v-1434h-47v1434zM-1 1739q-24 -33 -24 -80h-32v6q0 62 32 101q33 40 93 40q43 0 69 -16q27 -17 56 -47q22 -27 45 -43q21 -14 55 -14q45 0 68 32q24 33 24 80h33v-6q0 -60 -33 -101q-33 -40 -92 -40q-44 0 -70 16q-25 15 -55 47q-22 27 -45 43q-23 15 -55 15
q-45 0 -69 -33z" />
    <glyph glyph-name="itilde" unicode="&#x129;" horiz-adv-x="305" 
d="M129 1034h45v-1034h-45v1034zM-28 1339q-23 -32 -23 -79h-33v6q0 60 33 101q33 40 92 40q44 0 70 -16q22 -14 55 -48q22 -27 45 -43q21 -14 55 -14q45 0 69 33q23 32 23 80h33v-6q0 -61 -33 -102q-33 -40 -92 -40q-41 0 -69 17q-27 17 -56 47q-22 27 -45 43
q-21 14 -55 14q-45 0 -69 -33z" />
    <glyph glyph-name="Imacron" unicode="&#x12a;" horiz-adv-x="358" 
d="M156 1434h47v-1434h-47v1434zM-63 1718v39h487v-39h-487z" />
    <glyph glyph-name="imacron" unicode="&#x12b;" horiz-adv-x="305" 
d="M129 1034h45v-1034h-45v1034zM-90 1319v39h487v-39h-487z" />
    <glyph glyph-name="Ibreve" unicode="&#x12c;" horiz-adv-x="358" 
d="M156 1434h47v-1434h-47v1434zM-16 1835q0 -87 54 -144t138 -57q88 0 145 57q56 56 56 144h39q0 -107 -68 -173q-69 -67 -172 -67q-102 0 -167 67q-64 65 -64 173h39z" />
    <glyph glyph-name="ibreve" unicode="&#x12d;" horiz-adv-x="305" 
d="M129 1034h45v-1034h-45v1034zM-43 1436q0 -88 54 -145q53 -56 139 -56q88 0 144 56t56 145h39q0 -107 -67 -173q-69 -67 -172 -67q-102 0 -167 67t-65 173h39z" />
    <glyph glyph-name="Iogonek" unicode="&#x12e;" horiz-adv-x="358" 
d="M221 -373v-37h-121q-78 0 -123 39t-45 109t56 131q54 59 168 139v1426h47v-1434q-93 -65 -130 -95q-42 -35 -72 -75t-30 -88q0 -55 35 -85q34 -30 100 -30h115z" />
    <glyph glyph-name="iogonek" unicode="&#x12f;" horiz-adv-x="305" 
d="M124 1324q-11 11 -11 28q0 18 11 29q12 12 28 12q17 0 29 -12t12 -29q0 -16 -12 -28q-11 -11 -29 -11q-17 0 -28 11zM-23 -343q35 -30 101 -30h115v-37h-121q-78 0 -123 39t-45 109q0 74 56 133q57 60 169 139v1024h45v-1034q-93 -65 -130 -95q-42 -35 -72 -75
q-29 -39 -29 -88q0 -55 34 -85z" />
    <glyph glyph-name="Idotaccent" unicode="&#x130;" horiz-adv-x="358" 
d="M156 1434h47v-1434h-47v1434zM152 1781q11 11 28 11q18 0 29 -11q12 -12 12 -28t-12 -28q-11 -11 -29 -11q-17 0 -28 11q-13 13 -13 28t13 28z" />
    <glyph glyph-name="dotlessi" unicode="&#x131;" horiz-adv-x="305" 
d="M129 1034h45v-1034h-45v1034z" />
    <glyph glyph-name="IJ" unicode="&#x132;" horiz-adv-x="1181" 
d="M150 1434h47v-549h-47v549zM197 489q0 -213 102 -335q102 -121 289 -121q196 0 297 108q100 107 100 365v928h47v-926q0 -278 -112 -399t-332 -121q-208 0 -323 132q-115 131 -115 369h47z" />
    <glyph glyph-name="ij" unicode="&#x133;" horiz-adv-x="622" 
d="M181 1381q12 -12 12 -29q0 -16 -12 -28q-11 -11 -29 -11q-17 0 -28 11t-11 28q0 18 11 29q12 12 28 12q17 0 29 -12zM129 1034h45v-1034h-45v1034zM499 1381q11 -11 11 -29q0 -17 -11 -28t-30 -11q-17 0 -28 11t-11 28q0 18 11 29q12 12 28 12q18 0 30 -12zM276 -367
q93 0 132 39q38 38 38 131v1231h46v-1229q0 -113 -51 -164t-162 -51h-115v43h112z" />
    <glyph glyph-name="Jcircumflex" unicode="&#x134;" horiz-adv-x="671" 
d="M516 1434v-1172q0 -136 -63 -199t-199 -63h-195v45h191q115 0 167 52t52 167v1170h47zM492 1802l-236 -233h-49l262 266h45l262 -266h-49z" />
    <glyph glyph-name="jcircumflex" unicode="&#x135;" horiz-adv-x="317" 
d="M-29 -367q92 0 131 39t39 131v1231h45v-1229q0 -114 -50 -164q-51 -51 -163 -51h-114v43h112zM164 1403l-236 -234h-49l262 267h45l263 -267h-50z" />
    <glyph glyph-name="Kcommaaccent" unicode="&#x136;" horiz-adv-x="1198" 
d="M156 1434h47v-990l860 990h57l-516 -596l567 -838h-57l-545 801l-366 -424v-377h-47v1434zM610 -111h43l-98 -284h-35z" />
    <glyph glyph-name="kcommaaccent" unicode="&#x137;" horiz-adv-x="976" 
d="M129 1434h45v-1090l680 690h57l-428 -434l467 -600h-55l-444 567l-277 -278v-289h-45v1434zM498 -111h43l-99 -284h-34z" />
    <glyph glyph-name="Lacute" unicode="&#x139;" horiz-adv-x="964" 
d="M156 0v1434h47v-1389h719v-45h-766zM162 1571l196 264h56l-211 -264h-41z" />
    <glyph glyph-name="lacute" unicode="&#x13a;" horiz-adv-x="305" 
d="M129 1434h45v-1434h-45v1434zM133 1550l197 265h55l-211 -265h-41z" />
    <glyph glyph-name="Lcommaaccent" unicode="&#x13b;" horiz-adv-x="964" 
d="M156 0v1434h47v-1389h719v-45h-766zM514 -111h43l-98 -284h-35z" />
    <glyph glyph-name="lcommaaccent" unicode="&#x13c;" horiz-adv-x="305" 
d="M129 1434h45v-1434h-45v1434zM129 -111h43l-98 -284h-35z" />
    <glyph glyph-name="Lcaron" unicode="&#x13d;" horiz-adv-x="964" 
d="M156 0v1434h47v-1389h719v-45h-766zM465 1434h45l-100 -295h-35z" />
    <glyph glyph-name="lcaron" unicode="&#x13e;" horiz-adv-x="382" 
d="M129 1434h45v-1434h-45v1434zM371 1434h45l-101 -295h-34z" />
    <glyph glyph-name="Ldot" unicode="&#x13f;" horiz-adv-x="964" 
d="M156 0v1434h47v-1389h719v-45h-766zM629 777q11 11 28 11q18 0 29 -11q12 -12 12 -27q0 -16 -12 -28q-11 -11 -29 -11q-17 0 -28 11q-13 13 -13 28q0 14 13 27z" />
    <glyph glyph-name="ldot" unicode="&#x140;" horiz-adv-x="516" 
d="M129 1434h45v-1434h-45v1434zM375 775q11 11 28 11q18 0 29 -11q12 -12 12 -27q0 -16 -12 -28q-11 -11 -29 -11q-17 0 -28 11q-13 13 -13 28q0 14 13 27z" />
    <glyph glyph-name="Lslash" unicode="&#x141;" horiz-adv-x="999" 
d="M240 45h718v-45h-765v674l-195 -103v45l195 103v715h47v-689l356 189v-45l-356 -189v-655z" />
    <glyph glyph-name="lslash" unicode="&#x142;" horiz-adv-x="503" 
d="M494 938v-43l-220 -119v-776h-45v750l-219 -119v45l219 119v639h45v-615z" />
    <glyph glyph-name="Nacute" unicode="&#x143;" horiz-adv-x="1329" 
d="M156 0v1434h47l923 -1350v1350h48v-1434h-50l-921 1352v-1352h-47zM645 1571l197 264h55l-211 -264h-41z" />
    <glyph glyph-name="nacute" unicode="&#x144;" horiz-adv-x="1093" 
d="M868 928q107 -119 107 -344v-584h-45v582q0 203 -94 312q-95 110 -261 110q-183 0 -292 -138t-109 -366v-500h-45v1034h41l6 -315q44 153 147 240q105 88 257 88q181 0 288 -119zM559 1171l197 265h55l-211 -265h-41z" />
    <glyph glyph-name="Ncommaaccent" unicode="&#x145;" horiz-adv-x="1329" 
d="M156 0v1434h47l923 -1350v1350h48v-1434h-50l-921 1352v-1352h-47zM643 -111h43l-98 -284h-35z" />
    <glyph glyph-name="ncommaaccent" unicode="&#x146;" horiz-adv-x="1093" 
d="M868 928q107 -119 107 -344v-584h-45v582q0 203 -94 312q-95 110 -261 110q-183 0 -292 -138t-109 -366v-500h-45v1034h41l6 -315q44 153 147 240q105 88 257 88q181 0 288 -119zM530 -111h43l-98 -284h-35z" />
    <glyph glyph-name="Ncaron" unicode="&#x147;" horiz-adv-x="1329" 
d="M156 0v1434h47l923 -1350v1350h48v-1434h-50l-921 1352v-1352h-47zM664 1602l235 233h49l-262 -266h-45l-262 266h49z" />
    <glyph glyph-name="ncaron" unicode="&#x148;" horiz-adv-x="1093" 
d="M868 928q107 -119 107 -344v-584h-45v582q0 203 -94 312q-95 110 -261 110q-183 0 -292 -138t-109 -366v-500h-45v1034h41l6 -315q44 153 147 240q105 88 257 88q181 0 288 -119zM578 1202l235 234h49l-262 -267h-45l-262 267h49z" />
    <glyph glyph-name="napostrophe" unicode="&#x149;" horiz-adv-x="1376" 
d="M208 1403q28 -40 28 -94q0 -76 -48 -132q-47 -55 -127 -61v31q62 2 101 48q39 47 39 110q0 53 -33 77q-10 -24 -35 -24q-17 0 -27 11t-10 28q0 21 14 33t33 12q38 0 65 -39zM1151 928q106 -118 106 -344v-584h-45v582q0 203 -94 312q-95 110 -260 110q-184 0 -293 -138
q-108 -136 -108 -366v-500h-45v1034h41l6 -315q44 154 146 240q105 88 257 88q182 0 289 -119z" />
    <glyph glyph-name="Eng" unicode="&#x14a;" horiz-adv-x="1329" 
d="M1174 1434v-1629q0 -114 -52 -164q-53 -51 -166 -51h-114v43h112q94 0 133 40q39 41 39 132v197l-923 1350v-1352h-47v1434h47l923 -1346v1346h48z" />
    <glyph glyph-name="eng" unicode="&#x14b;" horiz-adv-x="1093" 
d="M868 928q107 -119 107 -344v-779q0 -114 -50 -164q-51 -51 -163 -51h-117v43h115q92 0 131 39t39 131v779q0 203 -94 312q-95 110 -261 110q-183 0 -292 -138t-109 -366v-500h-45v1034h41l4 -329q39 158 144 250q106 92 262 92q181 0 288 -119z" />
    <glyph glyph-name="Omacron" unicode="&#x14c;" horiz-adv-x="1527" 
d="M1335 340q-84 -166 -232 -259q-149 -93 -339 -93t-339 93q-148 93 -232 259q-84 167 -84 377t84 377q84 166 232 259q149 93 339 93t339 -93q148 -93 232 -259q84 -167 84 -377t-84 -377zM232 362q76 -154 215 -242q138 -87 317 -87q176 0 314 87q139 87 216 242
q78 156 78 355q0 198 -78 354t-216 243t-314 87q-179 0 -317 -87q-139 -87 -215 -243q-76 -155 -76 -354q0 -200 76 -355zM522 1718v39h488v-39h-488z" />
    <glyph glyph-name="omacron" unicode="&#x14d;" horiz-adv-x="1155" 
d="M329 55q-110 68 -170 188q-61 122 -61 275q0 152 61 274q59 119 170 187q110 68 249 68q138 0 248 -68q111 -68 170 -187q61 -122 61 -274q0 -153 -61 -275q-60 -120 -170 -188q-109 -67 -248 -67q-140 0 -249 67zM803 91q98 62 153 173q56 112 56 254q0 140 -56 252
q-55 111 -153 173q-99 63 -225 63t-225 -63t-154 -173q-56 -112 -56 -252q0 -142 56 -254q55 -110 154 -173q97 -62 225 -62t225 62zM334 1319v39h487v-39h-487z" />
    <glyph glyph-name="Obreve" unicode="&#x14e;" horiz-adv-x="1527" 
d="M1335 340q-84 -166 -232 -259q-149 -93 -339 -93t-339 93q-148 93 -232 259q-84 167 -84 377t84 377q84 166 232 259q149 93 339 93t339 -93q148 -93 232 -259q84 -167 84 -377t-84 -377zM232 362q76 -154 215 -242q138 -87 317 -87q176 0 314 87q139 87 216 242
q78 156 78 355q0 198 -78 354t-216 243t-314 87q-179 0 -317 -87q-139 -87 -215 -243q-76 -155 -76 -354q0 -200 76 -355zM569 1835q0 -86 55 -144q54 -57 138 -57q87 0 144 57t57 144h38q0 -107 -67 -173q-69 -67 -172 -67q-102 0 -167 67t-65 173h39z" />
    <glyph glyph-name="obreve" unicode="&#x14f;" horiz-adv-x="1155" 
d="M329 55q-110 68 -170 188q-61 122 -61 275q0 152 61 274q59 119 170 187q110 68 249 68q138 0 248 -68q111 -68 170 -187q61 -122 61 -274q0 -153 -61 -275q-60 -120 -170 -188q-109 -67 -248 -67q-140 0 -249 67zM803 91q98 62 153 173q56 112 56 254q0 140 -56 252
q-55 111 -153 173q-99 63 -225 63t-225 -63t-154 -173q-56 -112 -56 -252q0 -142 56 -254q55 -110 154 -173q97 -62 225 -62t225 62zM381 1436q0 -88 54 -145q53 -56 138 -56q89 0 145 56t56 145h39q0 -107 -68 -173q-69 -67 -172 -67q-101 0 -166 67t-65 173h39z" />
    <glyph glyph-name="Ohungarumlaut" unicode="&#x150;" horiz-adv-x="1527" 
d="M1335 340q-84 -166 -232 -259q-149 -93 -339 -93t-339 93q-148 93 -232 259q-84 167 -84 377t84 377q84 166 232 259q149 93 339 93t339 -93q148 -93 232 -259q84 -167 84 -377t-84 -377zM232 362q76 -154 215 -242q138 -87 317 -87q176 0 314 87q139 87 216 242
q78 156 78 355q0 198 -78 354t-216 243t-314 87q-179 0 -317 -87q-139 -87 -215 -243q-76 -155 -76 -354q0 -200 76 -355zM578 1571l196 264h53l-209 -264h-40zM889 1571l196 264h54l-209 -264h-41z" />
    <glyph glyph-name="ohungarumlaut" unicode="&#x151;" horiz-adv-x="1155" 
d="M329 55q-110 68 -170 188q-61 122 -61 275q0 152 61 274q59 119 170 187q110 68 249 68q138 0 248 -68q111 -68 170 -187q61 -122 61 -274q0 -153 -61 -275q-60 -120 -170 -188q-109 -67 -248 -67q-140 0 -249 67zM803 91q98 62 153 173q56 112 56 254q0 140 -56 252
q-55 111 -153 173q-99 63 -225 63t-225 -63t-154 -173q-56 -112 -56 -252q0 -142 56 -254q55 -110 154 -173q97 -62 225 -62t225 62zM389 1171l197 265h53l-209 -265h-41zM700 1171l197 265h53l-209 -265h-41z" />
    <glyph glyph-name="OE" unicode="&#x152;" horiz-adv-x="2320" 
d="M2259 45v-45h-881v463q-62 -220 -222 -347q-161 -128 -388 -128q-194 0 -344 93q-151 93 -233 258q-82 164 -82 376q0 214 82 379t233 259q150 93 344 93q229 0 389 -128q159 -128 221 -349v465h852v-43h-805v-633h680v-43h-680v-670h834zM1072 110q136 81 214 219
q80 142 92 322v127q-12 182 -92 324q-79 139 -214 220q-133 79 -304 79q-180 0 -319 -87q-140 -87 -217 -244q-76 -155 -76 -355t76 -355q75 -154 217 -242q139 -87 319 -87q171 0 304 79z" />
    <glyph glyph-name="oe" unicode="&#x153;" horiz-adv-x="2035" 
d="M1059 545q-2 -16 -2 -35q0 -140 55 -249q56 -110 154 -171t221 -61q139 0 246 84q106 83 143 227h45q-38 -161 -155 -256q-118 -96 -277 -96q-168 0 -291 99q-124 100 -164 265q-43 -167 -165 -266q-120 -98 -291 -98q-140 0 -249 67q-110 68 -170 189q-61 124 -61 276
t61 274q60 120 170 186q111 67 249 67q169 0 291 -98q121 -97 165 -261q40 164 159 261q119 98 282 98q199 0 327 -128q127 -127 135 -356v-18h-878zM803 91q97 62 153 174t56 255q0 140 -56 252t-153 172q-100 62 -225 62t-225 -62q-99 -61 -154 -172q-56 -112 -56 -252
q0 -143 56 -255q56 -111 154 -174q97 -62 225 -62t225 62zM1272 952q-89 -52 -147 -148q-56 -93 -64 -220h829q-15 200 -127 311q-113 111 -288 111q-110 0 -203 -54z" />
    <glyph glyph-name="Racute" unicode="&#x154;" horiz-adv-x="1185" 
d="M670 1434q193 0 310 -109q116 -108 116 -289q0 -162 -100 -267q-99 -103 -267 -120l358 -649h-55l-352 643h-477v-643h-47v1434h514zM203 686h463q172 0 278 95q105 95 105 255q0 162 -104 257q-105 96 -277 96h-465v-703zM563 1571l197 264h55l-211 -264h-41z" />
    <glyph glyph-name="racute" unicode="&#x155;" horiz-adv-x="595" 
d="M545 1034v-45h-51q-184 0 -252 -125t-68 -344v-520h-45v1034h41l6 -272q27 130 103 201q75 71 221 71h45zM299 1171l197 265h55l-211 -265h-41z" />
    <glyph glyph-name="Rcommaaccent" unicode="&#x156;" horiz-adv-x="1185" 
d="M670 1434q193 0 310 -109q116 -108 116 -289q0 -162 -100 -267q-99 -103 -267 -120l358 -649h-55l-352 643h-477v-643h-47v1434h514zM203 686h463q172 0 278 95q105 95 105 255q0 162 -104 257q-105 96 -277 96h-465v-703zM571 -111h43l-98 -284h-35z" />
    <glyph glyph-name="rcommaaccent" unicode="&#x157;" horiz-adv-x="595" 
d="M545 1034v-45h-51q-184 0 -252 -125t-68 -344v-520h-45v1034h41l6 -272q27 130 103 201q75 71 221 71h45zM129 -111h43l-98 -284h-35z" />
    <glyph glyph-name="Rcaron" unicode="&#x158;" horiz-adv-x="1185" 
d="M670 1434q193 0 310 -109q116 -108 116 -289q0 -162 -100 -267q-99 -103 -267 -120l358 -649h-55l-352 643h-477v-643h-47v1434h514zM203 686h463q172 0 278 95q105 95 105 255q0 162 -104 257q-105 96 -277 96h-465v-703zM582 1602l235 233h49l-262 -266h-45l-262 266
h49z" />
    <glyph glyph-name="rcaron" unicode="&#x159;" horiz-adv-x="595" 
d="M545 1034v-45h-51q-184 0 -252 -125t-68 -344v-520h-45v1034h41l6 -272q27 130 103 201q75 71 221 71h45zM317 1202l236 234h49l-262 -267h-45l-262 267h49z" />
    <glyph glyph-name="Sacute" unicode="&#x15a;" horiz-adv-x="1204" 
d="M154 416q11 -175 134 -279t320 -104q202 0 323 92q120 91 120 252q0 109 -62 176q-61 65 -156 97q-103 34 -239 57q-152 27 -243 57q-88 29 -153 100q-63 69 -63 197q0 180 128 284q127 103 347 103q198 0 323 -103t146 -278h-47q-21 156 -133 247t-289 91
q-200 0 -313 -91q-115 -92 -115 -251q0 -109 58 -172q57 -61 142 -88q79 -25 230 -53q144 -23 250 -61q105 -37 169 -110q67 -76 67 -200q0 -179 -133 -284t-357 -105q-220 0 -354 115t-145 311h45zM594 1571l197 264h55l-211 -264h-41z" />
    <glyph glyph-name="sacute" unicode="&#x15b;" horiz-adv-x="997" 
d="M137 297q7 -129 111 -199q102 -69 270 -69q148 0 245 64t97 173q0 82 -47 129t-120 70q-75 23 -191 41q-130 21 -207 42q-76 21 -129 74t-53 146q0 80 48 143q49 65 133 100q86 36 193 36q171 0 279 -72q109 -72 125 -211h-45q-21 118 -114 181t-238 63q-150 0 -243 -66
t-93 -172q0 -80 47 -124q46 -43 113 -61q64 -17 186 -36q127 -18 211 -45q86 -28 137 -83q53 -58 53 -153q0 -126 -111 -203q-112 -77 -276 -77q-189 0 -304 80t-122 229h45zM483 1171l197 265h55l-211 -265h-41z" />
    <glyph glyph-name="Scircumflex" unicode="&#x15c;" horiz-adv-x="1204" 
d="M154 416q11 -175 134 -279t320 -104q202 0 323 92q120 91 120 252q0 109 -62 176q-61 65 -156 97q-103 34 -239 57q-152 27 -243 57q-88 29 -153 100q-63 69 -63 197q0 180 128 284q127 103 347 103q198 0 323 -103t146 -278h-47q-21 156 -133 247t-289 91
q-200 0 -313 -91q-115 -92 -115 -251q0 -109 58 -172q57 -61 142 -88q79 -25 230 -53q144 -23 250 -61q105 -37 169 -110q67 -76 67 -200q0 -179 -133 -284t-357 -105q-220 0 -354 115t-145 311h45zM612 1802l-235 -233h-49l262 266h45l262 -266h-49z" />
    <glyph glyph-name="scircumflex" unicode="&#x15d;" horiz-adv-x="997" 
d="M137 297q7 -129 111 -199q102 -69 270 -69q148 0 245 64t97 173q0 82 -47 129t-120 70q-75 23 -191 41q-130 21 -207 42q-76 21 -129 74t-53 146q0 80 48 143q49 65 133 100q86 36 193 36q171 0 279 -72q109 -72 125 -211h-45q-21 118 -114 181t-238 63q-150 0 -243 -66
t-93 -172q0 -80 47 -124q46 -43 113 -61q64 -17 186 -36q127 -18 211 -45q86 -28 137 -83q53 -58 53 -153q0 -126 -111 -203q-112 -77 -276 -77q-189 0 -304 80t-122 229h45zM502 1403l-236 -234h-49l262 267h45l262 -267h-49z" />
    <glyph glyph-name="Scedilla" unicode="&#x15e;" horiz-adv-x="1204" 
d="M971 100q-126 -104 -342 -110l-23 -103h43q70 0 114 -41t44 -104q0 -68 -45 -110t-117 -42h-153v33h147q59 0 95 33t36 86q0 49 -36 82t-91 33h-76l31 133q-214 4 -347 119q-131 113 -142 307h45q11 -175 134 -279t320 -104q202 0 323 92q120 91 120 252q0 109 -62 176
q-61 65 -156 97q-103 34 -239 57q-152 27 -243 57q-88 29 -153 100q-63 69 -63 197q0 180 128 284q127 103 347 103q198 0 323 -103t146 -278h-47q-21 156 -133 247t-289 91q-200 0 -313 -91q-115 -92 -115 -251q0 -109 58 -172q57 -61 142 -88q79 -25 230 -53
q144 -23 250 -61q105 -37 169 -110q67 -76 67 -200q0 -174 -127 -279z" />
    <glyph glyph-name="scedilla" unicode="&#x15f;" horiz-adv-x="997" 
d="M803 71q-103 -77 -258 -83l-23 -101h43q70 0 114 -41t44 -104q0 -68 -45 -110t-117 -42h-153v33h147q59 0 95 33t36 86q0 49 -36 82t-91 33h-76l31 131q-187 1 -301 82q-114 80 -121 227h45q7 -129 111 -199q102 -69 270 -69q148 0 245 64t97 173q0 82 -47 129t-120 70
q-75 23 -191 41q-130 21 -207 42q-76 21 -129 74t-53 146q0 80 48 143q49 65 133 100q86 36 193 36q171 0 279 -72q109 -72 125 -211h-45q-21 118 -114 181t-238 63q-150 0 -243 -66t-93 -172q0 -80 47 -124q46 -43 113 -61q64 -17 186 -36q127 -18 211 -45q86 -28 137 -83
q53 -58 53 -153q0 -120 -102 -197z" />
    <glyph glyph-name="Scaron" unicode="&#x160;" horiz-adv-x="1204" 
d="M154 416q11 -175 134 -279t320 -104q202 0 323 92q120 91 120 252q0 109 -62 176q-61 65 -156 97q-103 34 -239 57q-152 27 -243 57q-88 29 -153 100q-63 69 -63 197q0 180 128 284q127 103 347 103q198 0 323 -103t146 -278h-47q-21 156 -133 247t-289 91
q-200 0 -313 -91q-115 -92 -115 -251q0 -109 58 -172q57 -61 142 -88q79 -25 230 -53q144 -23 250 -61q105 -37 169 -110q67 -76 67 -200q0 -179 -133 -284t-357 -105q-220 0 -354 115t-145 311h45zM612 1602l236 233h49l-262 -266h-45l-262 266h49z" />
    <glyph glyph-name="scaron" unicode="&#x161;" horiz-adv-x="997" 
d="M137 297q7 -129 111 -199q102 -69 270 -69q148 0 245 64t97 173q0 82 -47 129t-120 70q-75 23 -191 41q-130 21 -207 42q-76 21 -129 74t-53 146q0 80 48 143q49 65 133 100q86 36 193 36q171 0 279 -72q109 -72 125 -211h-45q-21 118 -114 181t-238 63q-150 0 -243 -66
t-93 -172q0 -80 47 -124q46 -43 113 -61q64 -17 186 -36q127 -18 211 -45q86 -28 137 -83q53 -58 53 -153q0 -126 -111 -203q-112 -77 -276 -77q-189 0 -304 80t-122 229h45zM502 1202l235 234h49l-262 -267h-45l-262 267h49z" />
    <glyph glyph-name="uni0162" unicode="&#x162;" horiz-adv-x="1165" 
d="M43 1434h1079v-45h-516v-1389h-47v1389h-516v45zM561 -111h43l-98 -284h-35z" />
    <glyph glyph-name="uni0163" unicode="&#x163;" horiz-adv-x="575" 
d="M201 991h-203v43h203v289h45v-289h286v-43h-286v-776q0 -94 39 -133t133 -39h123v-43h-125q-115 0 -165 50t-50 165v776zM360 -111h43l-98 -284h-35z" />
    <glyph glyph-name="Tcaron" unicode="&#x164;" horiz-adv-x="1165" 
d="M43 1434h1079v-45h-516v-1389h-47v1389h-516v45zM584 1602l235 233h49l-262 -266h-45l-262 266h49z" />
    <glyph glyph-name="tcaron" unicode="&#x165;" horiz-adv-x="575" 
d="M201 991h-203v43h203v289h45v-289h286v-43h-286v-776q0 -94 39 -133t133 -39h123v-43h-125q-115 0 -165 50t-50 165v776zM465 1456h45l-100 -295h-35z" />
    <glyph glyph-name="Tbar" unicode="&#x166;" horiz-adv-x="1165" 
d="M1122 1389h-516v-656h283v-41h-283v-692h-47v692h-280v41h280v656h-516v45h1079v-45z" />
    <glyph glyph-name="tbar" unicode="&#x167;" horiz-adv-x="593" 
d="M547 43v-43h-125q-115 0 -165 50t-50 165v363h-203v40h203v373h-203v43h203v289h45v-289h289v-43h-289v-373h289v-40h-289v-363q0 -94 39 -133t133 -39h123z" />
    <glyph glyph-name="Utilde" unicode="&#x168;" horiz-adv-x="1308" 
d="M197 1434v-863q0 -273 110 -405q111 -133 344 -133q238 0 349 133q112 135 112 405v863h47v-861q0 -295 -124 -440t-384 -145q-259 0 -380 145t-121 440v861h47zM474 1739q-23 -32 -23 -80h-33v6q0 61 33 101t92 40q43 0 69 -16q27 -17 56 -47q22 -27 45 -43
q21 -14 55 -14q46 0 69 32t23 80h33v-6q0 -60 -33 -101q-33 -40 -92 -40q-44 0 -70 16q-25 15 -55 47q-22 27 -45 43q-23 15 -55 15q-45 0 -69 -33z" />
    <glyph glyph-name="utilde" unicode="&#x169;" horiz-adv-x="1081" 
d="M950 1034v-1034h-41l-6 313q-40 -148 -144 -237q-103 -88 -251 -88q-179 0 -284 118q-105 119 -105 345v583h45v-581q0 -204 94 -313t254 -109q121 0 208 62q90 64 137 176q48 114 48 266v499h45zM353 1339q-23 -32 -23 -79h-33v6q0 60 33 101q33 40 92 40q44 0 70 -16
q22 -14 55 -48q22 -27 45 -43q21 -14 55 -14q45 0 69 33q23 32 23 80h33v-6q0 -61 -33 -102q-33 -40 -92 -40q-41 0 -69 17q-27 17 -56 47q-22 27 -45 43q-21 14 -55 14q-45 0 -69 -33z" />
    <glyph glyph-name="Umacron" unicode="&#x16a;" horiz-adv-x="1308" 
d="M197 1434v-863q0 -273 110 -405q111 -133 344 -133q238 0 349 133q112 135 112 405v863h47v-861q0 -295 -124 -440t-384 -145q-259 0 -380 145t-121 440v861h47zM412 1718v39h487v-39h-487z" />
    <glyph glyph-name="umacron" unicode="&#x16b;" horiz-adv-x="1081" 
d="M950 1034v-1034h-41l-6 313q-40 -148 -144 -237q-103 -88 -251 -88q-179 0 -284 118q-105 119 -105 345v583h45v-581q0 -204 94 -313t254 -109q121 0 208 62q90 64 137 176q48 114 48 266v499h45zM291 1319v39h487v-39h-487z" />
    <glyph glyph-name="Ubreve" unicode="&#x16c;" horiz-adv-x="1308" 
d="M197 1434v-863q0 -273 110 -405q111 -133 344 -133q238 0 349 133q112 135 112 405v863h47v-861q0 -295 -124 -440t-384 -145q-259 0 -380 145t-121 440v861h47zM459 1835q0 -87 54 -144t138 -57q88 0 145 57q56 56 56 144h39q0 -107 -68 -173q-69 -67 -172 -67
q-102 0 -167 67q-64 65 -64 173h39z" />
    <glyph glyph-name="ubreve" unicode="&#x16d;" horiz-adv-x="1081" 
d="M950 1034v-1034h-41l-6 313q-40 -148 -144 -237q-103 -88 -251 -88q-179 0 -284 118q-105 119 -105 345v583h45v-581q0 -204 94 -313t254 -109q121 0 208 62q90 64 137 176q48 114 48 266v499h45zM338 1436q0 -88 54 -145q53 -56 138 -56q89 0 145 56t56 145h39
q0 -107 -68 -173q-69 -67 -172 -67q-101 0 -166 67t-65 173h39z" />
    <glyph glyph-name="Uring" unicode="&#x16e;" horiz-adv-x="1308" 
d="M197 1434v-863q0 -273 110 -405q111 -133 344 -133q238 0 349 133q112 135 112 405v863h47v-861q0 -295 -124 -440t-384 -145q-259 0 -380 145t-121 440v861h47zM501 1785q64 64 154 64q91 0 155 -64t64 -155q0 -90 -64 -153q-66 -64 -155 -64q-88 0 -154 64
q-65 63 -65 153t65 155zM787 1762q-55 55 -132 55t-132 -55q-54 -54 -54 -132t54 -131q55 -53 132 -53t132 53t55 131q0 77 -55 132z" />
    <glyph glyph-name="uring" unicode="&#x16f;" horiz-adv-x="1081" 
d="M950 1034v-1034h-41l-6 313q-40 -148 -144 -237q-103 -88 -251 -88q-179 0 -284 118q-105 119 -105 345v583h45v-581q0 -204 94 -313t254 -109q121 0 208 62q90 64 137 176q48 114 48 266v499h45zM380 1519q64 64 155 64q90 0 154 -64q65 -65 65 -155q0 -91 -65 -154
t-154 -63q-91 0 -155 63q-65 63 -65 154q0 90 65 155zM667 1496q-54 54 -132 54q-79 0 -133 -54t-54 -132t54 -131q55 -53 133 -53q77 0 132 53q54 53 54 131t-54 132z" />
    <glyph glyph-name="Uhungarumlaut" unicode="&#x170;" horiz-adv-x="1308" 
d="M197 1434v-863q0 -273 110 -405q111 -133 344 -133q238 0 349 133q112 135 112 405v863h47v-861q0 -295 -124 -440t-384 -145q-259 0 -380 145t-121 440v861h47zM467 1571l197 264h53l-209 -264h-41zM778 1571l197 264h53l-209 -264h-41z" />
    <glyph glyph-name="uhungarumlaut" unicode="&#x171;" horiz-adv-x="1081" 
d="M950 1034v-1034h-41l-6 313q-40 -148 -144 -237q-103 -88 -251 -88q-179 0 -284 118q-105 119 -105 345v583h45v-581q0 -204 94 -313t254 -109q121 0 208 62q90 64 137 176q48 114 48 266v499h45zM346 1171l197 265h53l-209 -265h-41zM657 1171l197 265h53l-209 -265h-41
z" />
    <glyph glyph-name="Uogonek" unicode="&#x172;" horiz-adv-x="1308" 
d="M1159 1434v-861q0 -264 -98 -407q-99 -144 -303 -172q-122 -86 -170 -134q-53 -53 -53 -118q0 -55 34 -85q35 -30 101 -30h114v-37h-120q-78 0 -123 39t-45 109q0 67 50 126q48 56 146 124h-41q-259 0 -380 145t-121 440v861h47v-863q0 -273 110 -405q111 -133 344 -133
q238 0 349 133q112 135 112 405v863h47z" />
    <glyph glyph-name="uogonek" unicode="&#x173;" horiz-adv-x="1081" 
d="M969 -373v-37h-121q-78 0 -123 39t-45 109q0 74 57 135q54 58 172 139l-6 301q-40 -148 -144 -237q-103 -88 -251 -88q-179 0 -284 118q-105 119 -105 345v583h45v-581q0 -204 94 -313t254 -109q121 0 208 62q90 64 137 176q48 114 48 266v499h45v-1034q-93 -65 -130 -95
q-39 -32 -71 -75q-30 -40 -30 -88q0 -55 35 -85q34 -30 100 -30h115z" />
    <glyph glyph-name="Wcircumflex" unicode="&#x174;" horiz-adv-x="1966" 
d="M61 1434h50l430 -1368l417 1368h52l411 -1368l434 1368h50l-455 -1434h-57l-410 1356l-414 -1356h-57zM983 1802l-235 -233h-50l263 266h45l262 -266h-49z" />
    <glyph glyph-name="wcircumflex" unicode="&#x175;" horiz-adv-x="1581" 
d="M29 1034h47l344 -975l350 975h45l328 -975l364 975h47l-387 -1034h-49l-327 965l-349 -965h-49zM793 1403l-236 -234h-49l262 267h45l262 -267h-49z" />
    <glyph glyph-name="Ycircumflex" unicode="&#x176;" horiz-adv-x="1236" 
d="M37 1436h55l526 -856l527 856h55l-559 -910v-526h-47v526zM610 1802l-235 -233h-49l262 266h45l262 -266h-49z" />
    <glyph glyph-name="ycircumflex" unicode="&#x177;" horiz-adv-x="944" 
d="M76 1034l397 -977l395 977h50l-508 -1243q-33 -84 -62 -128q-27 -40 -63 -56q-39 -17 -103 -17h-121v43h113q60 0 90 15q31 15 51 47q25 40 52 108l82 197l-422 1034h49zM471 1403l-235 -234h-50l263 267h45l262 -267h-49z" />
    <glyph glyph-name="Ydieresis" unicode="&#x178;" horiz-adv-x="1236" 
d="M37 1436h55l526 -856l527 856h55l-559 -910v-526h-47v526zM423 1765q13 13 30 13q15 0 28 -13t13 -28t-13 -28q-11 -11 -28 -11q-19 0 -30 11t-11 28t11 28zM739 1765q13 13 29 13q17 0 30 -13q11 -11 11 -28t-11 -28t-30 -11q-18 0 -29 11q-12 12 -12 28t12 28z" />
    <glyph glyph-name="Zacute" unicode="&#x179;" horiz-adv-x="1236" 
d="M133 1434h1028v-37l-1030 -1352h1036v-45h-1097v37l1030 1352h-967v45zM602 1571l197 264h55l-211 -264h-41z" />
    <glyph glyph-name="zacute" unicode="&#x17a;" horiz-adv-x="933" 
d="M76 1034h782v-41l-756 -950h787v-43h-844v41l756 950h-725v43zM451 1171l196 265h55l-210 -265h-41z" />
    <glyph glyph-name="Zdotaccent" unicode="&#x17b;" horiz-adv-x="1236" 
d="M133 1434h1028v-37l-1030 -1352h1036v-45h-1097v37l1030 1352h-967v45zM592 1781q11 11 29 11q17 0 28 -11q13 -13 13 -28t-13 -28q-11 -11 -28 -11q-18 0 -29 11q-12 12 -12 28t12 28z" />
    <glyph glyph-name="zdotaccent" unicode="&#x17c;" horiz-adv-x="933" 
d="M76 1034h782v-41l-756 -950h787v-43h-844v41l756 950h-725v43zM440 1381q12 12 29 12t29 -12t12 -27q0 -16 -12 -28q-11 -11 -29 -11t-29 11q-12 12 -12 28q0 15 12 27z" />
    <glyph glyph-name="Zcaron" unicode="&#x17d;" horiz-adv-x="1236" 
d="M133 1434h1028v-37l-1030 -1352h1036v-45h-1097v37l1030 1352h-967v45zM621 1602l235 233h49l-262 -266h-45l-262 266h49z" />
    <glyph glyph-name="zcaron" unicode="&#x17e;" horiz-adv-x="933" 
d="M76 1034h782v-41l-756 -950h787v-43h-844v41l756 950h-725v43zM469 1202l236 234h49l-262 -267h-46l-262 267h49z" />
    <glyph glyph-name="florin" unicode="&#x192;" horiz-adv-x="993" 
d="M624 1350q-46 -42 -53 -133l-43 -490h275v-43h-279l-59 -694q-7 -111 -65 -159q-57 -48 -167 -48h-176v43h174q95 0 139 41t52 133l57 684h-266v43h270l43 500q10 110 66 158q57 49 166 49h176v-43h-172q-94 0 -138 -41z" />
    <glyph glyph-name="AEacute" unicode="&#x1fc;" horiz-adv-x="1878" 
d="M1567 1835l-211 -264h-41l196 264h56zM985 43h834v-45h-881v438h-588l-272 -436h-53l893 1432h872v-43h-805v-633h680v-43h-680v-670zM373 479h565v907z" />
    <glyph glyph-name="aeacute" unicode="&#x1fd;" horiz-adv-x="1902" 
d="M1159 1434l-211 -265h-41l197 265h55zM924 539v-29q0 -140 55 -249t153 -171q97 -61 220 -61q140 0 247 84t144 227h45q-38 -161 -155 -256q-119 -96 -277 -96q-162 0 -282 93t-165 251q-29 -153 -155 -248q-128 -96 -303 -96q-172 0 -267 79q-96 79 -96 218
q0 137 103 215t296 78h394v102q0 153 -93 240q-92 86 -258 86q-146 0 -237 -65t-115 -177h-45q23 130 127 206q106 77 270 77q176 0 274 -82q99 -83 116 -236q50 148 160 233t261 85q130 0 234 -58q103 -58 163 -168q60 -111 66 -264v-18h-880zM1140 952q-91 -52 -148 -150
q-56 -97 -64 -222h829q-15 204 -127 314q-114 112 -289 112q-107 0 -201 -54zM881 537h-398q-167 0 -258 -67q-90 -66 -90 -183q0 -121 83 -190q81 -68 233 -68q119 0 219 50q96 48 154 138q57 89 57 197v123z" />
    <glyph glyph-name="Scommaaccent" unicode="&#x218;" horiz-adv-x="1204" 
d="M154 416q11 -175 134 -279t320 -104q202 0 323 92q120 91 120 252q0 109 -62 176q-61 65 -156 97q-103 34 -239 57q-152 27 -243 57q-88 29 -153 100q-63 69 -63 197q0 180 128 284q127 103 347 103q198 0 323 -103t146 -278h-47q-21 156 -133 247t-289 91
q-200 0 -313 -91q-115 -92 -115 -251q0 -109 58 -172q57 -61 142 -88q79 -25 230 -53q144 -23 250 -61q105 -37 169 -110q67 -76 67 -200q0 -179 -133 -284t-357 -105q-220 0 -354 115t-145 311h45zM592 -111h43l-98 -284h-35z" />
    <glyph glyph-name="scommaaccent" unicode="&#x219;" horiz-adv-x="997" 
d="M137 297q7 -129 111 -199q102 -69 270 -69q148 0 245 64t97 173q0 82 -47 129t-120 70q-75 23 -191 41q-130 21 -207 42q-76 21 -129 74t-53 146q0 80 48 143q49 65 133 100q86 36 193 36q171 0 279 -72q109 -72 125 -211h-45q-21 118 -114 181t-238 63q-150 0 -243 -66
t-93 -172q0 -80 47 -124q46 -43 113 -61q64 -17 186 -36q127 -18 211 -45q86 -28 137 -83q53 -58 53 -153q0 -126 -111 -203q-112 -77 -276 -77q-189 0 -304 80t-122 229h45zM508 -111h43l-98 -284h-35z" />
    <glyph glyph-name="uni021A" unicode="&#x21a;" horiz-adv-x="1165" 
d="M43 1434h1079v-45h-516v-1389h-47v1389h-516v45zM561 -111h43l-98 -284h-35z" />
    <glyph glyph-name="uni021B" unicode="&#x21b;" horiz-adv-x="575" 
d="M201 991h-203v43h203v289h45v-289h286v-43h-286v-776q0 -94 39 -133t133 -39h123v-43h-125q-115 0 -165 50t-50 165v776zM360 -111h43l-98 -284h-35z" />
    <glyph glyph-name="uni0237" unicode="&#x237;" horiz-adv-x="317" 
d="M-29 -367q92 0 131 39t39 131v1231h45v-1229q0 -114 -50 -164q-51 -51 -163 -51h-114v43h112z" />
    <glyph glyph-name="uni02BC" unicode="&#x2bc;" horiz-adv-x="608" 
d="M322 1434h45l-101 -295h-35z" />
    <glyph glyph-name="circumflex" unicode="&#x2c6;" horiz-adv-x="819" 
d="M410 1401l-236 -234h-49l262 267h45l262 -267h-49z" />
    <glyph glyph-name="caron" unicode="&#x2c7;" horiz-adv-x="819" 
d="M410 1200l235 234h49l-262 -267h-45l-262 267h49z" />
    <glyph glyph-name="breve" unicode="&#x2d8;" horiz-adv-x="819" 
d="M213 1434q0 -88 54 -145q53 -56 139 -56q88 0 144 56t56 145h39q0 -107 -67 -173q-69 -67 -172 -67q-102 0 -167 67t-65 173h39z" />
    <glyph glyph-name="dotaccent" unicode="&#x2d9;" horiz-adv-x="819" 
d="M381 1379q12 12 29 12q16 0 28 -12q13 -13 13 -27q0 -15 -13 -28q-11 -11 -28 -11q-18 0 -29 11q-12 12 -12 28q0 15 12 27z" />
    <glyph glyph-name="ring" unicode="&#x2da;" horiz-adv-x="819" 
d="M255 1517q64 64 155 64q90 0 154 -64q65 -65 65 -155q0 -91 -65 -154q-64 -63 -154 -63t-155 63t-65 154q0 90 65 155zM542 1494q-54 54 -132 54t-132 -54q-55 -55 -55 -132q0 -78 55 -131t132 -53t132 53q54 53 54 131t-54 132z" />
    <glyph glyph-name="ogonek" unicode="&#x2db;" horiz-adv-x="819" 
d="M198 -127q56 59 177 143l35 -16q-93 -65 -130 -95q-42 -35 -72 -75t-30 -88q0 -55 35 -85t100 -30h115v-37h-121q-78 0 -123 39t-45 109q0 73 59 135z" />
    <glyph glyph-name="tilde" unicode="&#x2dc;" horiz-adv-x="819" 
d="M228 1337q-23 -32 -23 -80h-33v7q0 60 33 101q33 40 92 40q44 0 70 -16q22 -14 55 -48q22 -27 45 -43q21 -14 55 -14q45 0 69 33q23 32 23 80h33v-6q0 -61 -33 -102q-33 -40 -92 -40q-41 0 -69 17q-27 17 -56 47q-22 27 -45 43q-21 14 -55 14q-45 0 -69 -33z" />
    <glyph glyph-name="hungarumlaut" unicode="&#x2dd;" horiz-adv-x="831" 
d="M221 1169l197 265h53l-209 -265h-41zM532 1169l197 265h53l-209 -265h-41z" />
    <glyph glyph-name="gravecomb" unicode="&#x300;" horiz-adv-x="0" 
d="M-639 1434h53l197 -265h-43z" />
    <glyph glyph-name="acutecomb" unicode="&#x301;" horiz-adv-x="0" 
d="M-428 1169l197 265h55l-211 -265h-41z" />
    <glyph glyph-name="uni0302" unicode="&#x302;" horiz-adv-x="0" 
d="M-410 1401l-235 -234h-49l262 267h45l262 -267h-49z" />
    <glyph glyph-name="tildecomb" unicode="&#x303;" horiz-adv-x="0" 
d="M-591 1337q-23 -32 -23 -80h-33v7q0 60 33 101q33 40 92 40q43 0 69 -16q25 -15 56 -48q22 -27 45 -43q21 -14 55 -14q45 0 69 33q23 32 23 80h33v-6q0 -61 -33 -102q-33 -40 -92 -40q-42 0 -70 17q-25 15 -55 47q-22 27 -45 43q-21 14 -55 14q-45 0 -69 -33z" />
    <glyph glyph-name="uni0304" unicode="&#x304;" horiz-adv-x="0" 
d="M-653 1317v39h487v-39h-487z" />
    <glyph glyph-name="uni0306" unicode="&#x306;" horiz-adv-x="0" 
d="M-606 1434q0 -88 54 -145q53 -56 138 -56q89 0 145 56t56 145h39q0 -107 -68 -173q-69 -67 -172 -67q-102 0 -167 67q-64 65 -64 173h39z" />
    <glyph glyph-name="uni0307" unicode="&#x307;" horiz-adv-x="0" 
d="M-438 1379q12 12 28 12q17 0 29 -12t12 -27q0 -16 -12 -28q-11 -11 -29 -11q-17 0 -28 11q-13 13 -13 28q0 14 13 27z" />
    <glyph glyph-name="uni0308" unicode="&#x308;" horiz-adv-x="0" 
d="M-597 1364q12 12 30 12q16 0 28 -12q13 -13 13 -29q0 -14 -13 -27q-12 -12 -28 -12q-18 0 -30 12q-11 11 -11 27q0 18 11 29zM-281 1364q12 12 29 12q18 0 30 -12q11 -11 11 -29q0 -16 -11 -27q-12 -12 -30 -12q-17 0 -29 12t-12 27q0 17 12 29z" />
    <glyph glyph-name="uni030A" unicode="&#x30a;" horiz-adv-x="0" 
d="M-564 1517q64 64 154 64q91 0 155 -64q65 -65 65 -155q0 -91 -65 -154t-155 -63t-154 63q-65 63 -65 154q0 90 65 155zM-278 1494q-54 54 -132 54t-132 -54t-54 -132t54 -131q55 -53 132 -53t132 53t55 131q0 77 -55 132z" />
    <glyph glyph-name="uni030B" unicode="&#x30b;" horiz-adv-x="0" 
d="M-598 1169l197 265h53l-209 -265h-41zM-287 1169l197 265h53l-209 -265h-41z" />
    <glyph glyph-name="uni030C" unicode="&#x30c;" horiz-adv-x="0" 
d="M-410 1200l236 234h49l-262 -267h-45l-262 267h49z" />
    <glyph glyph-name="uni0312" unicode="&#x312;" horiz-adv-x="0" 
d="M-403 1149h-46l99 285h37z" />
    <glyph glyph-name="uni0326" unicode="&#x326;" horiz-adv-x="0" 
d="M-432 -111h43l-98 -284h-35z" />
    <glyph glyph-name="uni0327" unicode="&#x327;" horiz-adv-x="0" 
d="M-391 6l-27 -119h43q70 0 114 -41t44 -104q0 -68 -45 -110t-117 -42h-153v33h147q59 0 95 33t36 86q0 49 -36 82t-91 33h-76l35 149h31z" />
    <glyph glyph-name="uni0328" unicode="&#x328;" horiz-adv-x="0" 
d="M-622 -127q54 56 178 143l34 -16q-93 -65 -130 -95q-39 -32 -71 -75q-30 -40 -30 -88q0 -55 35 -85q34 -30 100 -30h115v-37h-121q-78 0 -123 39t-45 109q0 74 58 135z" />
    <glyph glyph-name="pi" unicode="&#x3c0;" horiz-adv-x="1218" 
d="M1180 1034v-43h-201v-991h-45v991h-649v-991h-45v991h-201v43h1141z" />
    <glyph glyph-name="uni0E3F" unicode="&#xe3f;" horiz-adv-x="1251" 
d="M1031 626q95 -89 95 -241q0 -181 -125 -283t-366 -102h-49v-207h-37v207h-393v1434h393v204h37v-204h45q202 0 315 -96q111 -94 111 -263q0 -137 -78 -225q-79 -89 -225 -113q182 -22 277 -111zM203 1391v-635h346v635h-346zM586 1391v-635h47q178 0 277 84
q100 85 100 233q0 150 -99 234t-278 84h-47zM203 43h346v670h-346v-670zM965 134q112 91 112 253q0 158 -114 242t-328 84h-49v-670h49q218 0 330 91z" />
    <glyph glyph-name="Wgrave" unicode="&#x1e80;" horiz-adv-x="1966" 
d="M61 1434h50l430 -1368l417 1368h52l411 -1368l434 1368h50l-455 -1434h-57l-410 1356l-414 -1356h-57zM754 1835h53l197 -264h-43z" />
    <glyph glyph-name="wgrave" unicode="&#x1e81;" horiz-adv-x="1581" 
d="M29 1034h47l344 -975l350 975h45l328 -975l364 975h47l-387 -1034h-49l-327 965l-349 -965h-49zM563 1436h53l197 -265h-43z" />
    <glyph glyph-name="Wacute" unicode="&#x1e82;" horiz-adv-x="1966" 
d="M61 1434h50l430 -1368l417 1368h52l411 -1368l434 1368h50l-455 -1434h-57l-410 1356l-414 -1356h-57zM965 1571l196 264h56l-211 -264h-41z" />
    <glyph glyph-name="wacute" unicode="&#x1e83;" horiz-adv-x="1581" 
d="M29 1034h47l344 -975l350 975h45l328 -975l364 975h47l-387 -1034h-49l-327 965l-349 -965h-49zM774 1171l197 265h55l-211 -265h-41z" />
    <glyph glyph-name="Wdieresis" unicode="&#x1e84;" horiz-adv-x="1966" 
d="M61 1434h50l430 -1368l417 1368h52l411 -1368l434 1368h50l-455 -1434h-57l-410 1356l-414 -1356h-57zM796 1765q13 13 29 13t29 -13q12 -12 12 -28t-12 -28q-11 -11 -29 -11t-29 11q-12 12 -12 28t12 28zM1112 1765q13 13 29 13t29 -13q12 -12 12 -28t-12 -28
q-11 -11 -29 -11t-29 11q-12 12 -12 28t12 28z" />
    <glyph glyph-name="wdieresis" unicode="&#x1e85;" horiz-adv-x="1581" 
d="M29 1034h47l344 -975l350 975h45l328 -975l364 975h47l-387 -1034h-49l-327 965l-349 -965h-49zM605 1366q12 12 30 12q17 0 29 -12t12 -29q0 -15 -12 -27t-29 -12q-18 0 -30 12q-11 11 -11 27q0 18 11 29zM922 1366q12 12 28 12q18 0 30 -12q11 -11 11 -29
q0 -16 -11 -27q-12 -12 -30 -12q-16 0 -28 12q-13 13 -13 27q0 16 13 29z" />
    <glyph glyph-name="Ygrave" unicode="&#x1ef2;" horiz-adv-x="1236" 
d="M37 1436h55l526 -856l527 856h55l-559 -910v-526h-47v526zM381 1835h53l197 -264h-43z" />
    <glyph glyph-name="ygrave" unicode="&#x1ef3;" horiz-adv-x="944" 
d="M76 1034l397 -977l395 977h50l-508 -1243q-33 -84 -62 -128q-27 -40 -63 -56q-39 -17 -103 -17h-121v43h113q60 0 90 15q31 15 51 47q25 40 52 108l82 197l-422 1034h49zM242 1436h53l197 -265h-43z" />
    <glyph glyph-name="endash" unicode="&#x2013;" horiz-adv-x="1183" 
d="M133 561v41h920v-41h-920z" />
    <glyph glyph-name="emdash" unicode="&#x2014;" horiz-adv-x="1878" 
d="M133 604h1612v-41h-1612v41z" />
    <glyph glyph-name="quoteleft" unicode="&#x2018;" horiz-adv-x="335" 
d="M128 1159q-28 40 -28 94q0 77 47 132t127 61v-31q-61 -1 -100 -48t-39 -110q0 -53 33 -77q8 24 35 24q16 0 26 -11q11 -13 11 -28q0 -20 -14 -32q-15 -13 -33 -13q-38 0 -65 39z" />
    <glyph glyph-name="quoteright" unicode="&#x2019;" horiz-adv-x="335" 
d="M208 1403q28 -40 28 -94q0 -76 -48 -132q-47 -55 -127 -61v31q62 2 101 48q39 47 39 110q0 53 -33 77q-10 -24 -35 -24q-17 0 -27 11t-10 28q0 21 14 33t33 12q38 0 65 -39z" />
    <glyph glyph-name="quotesinglbase" unicode="&#x201a;" horiz-adv-x="335" 
d="M208 37q28 -40 28 -94q0 -76 -48 -132q-47 -55 -127 -61v31q62 2 101 48t39 110q0 53 -33 77q-8 -24 -35 -24q-17 0 -27 11t-10 28q0 20 14 32q15 13 33 13q38 0 65 -39z" />
    <glyph glyph-name="quotedblleft" unicode="&#x201c;" horiz-adv-x="598" 
d="M128 1159q-28 40 -28 94q0 77 47 132t127 61v-31q-61 -1 -100 -48t-39 -110q0 -53 33 -77q8 24 35 24q16 0 26 -11q11 -13 11 -28q0 -20 -14 -32q-15 -13 -33 -13q-38 0 -65 39zM390 1159q-28 40 -28 94q0 76 48 132q47 55 127 61v-31q-62 -2 -101 -48q-39 -47 -39 -110
q0 -53 33 -77q8 24 35 24q17 0 27 -11t10 -28q0 -20 -14 -32q-15 -13 -33 -13q-38 0 -65 39z" />
    <glyph glyph-name="quotedblright" unicode="&#x201d;" horiz-adv-x="598" 
d="M208 1403q28 -40 28 -94q0 -76 -48 -132q-47 -55 -127 -61v31q62 2 101 48q39 47 39 110q0 53 -33 77q-10 -24 -35 -24q-17 0 -27 11t-10 28q0 21 14 33t33 12q38 0 65 -39zM470 1403q28 -40 28 -94q0 -77 -47 -132t-127 -61v31q61 1 100 48t39 110q0 53 -33 77
q-10 -24 -35 -24q-16 0 -26 11q-11 13 -11 28q0 21 14 33q13 12 34 12q37 0 64 -39z" />
    <glyph glyph-name="quotedblbase" unicode="&#x201e;" horiz-adv-x="598" 
d="M208 37q28 -40 28 -94q0 -76 -48 -132q-47 -55 -127 -61v31q62 2 101 48t39 110q0 53 -33 77q-8 -24 -35 -24q-17 0 -27 11t-10 28q0 20 14 32q15 13 33 13q38 0 65 -39zM470 37q28 -40 28 -94q0 -77 -47 -132t-127 -61v31q61 1 100 48q39 46 39 110q0 53 -33 77
q-8 -24 -35 -24q-16 0 -26 11q-11 13 -11 28q0 20 14 32q15 13 34 13q37 0 64 -39z" />
    <glyph glyph-name="dagger" unicode="&#x2020;" horiz-adv-x="1054" 
d="M967 965v-41h-420v-924h-41v924h-418v41h418v469h41v-469h420z" />
    <glyph glyph-name="daggerdbl" unicode="&#x2021;" horiz-adv-x="1067" 
d="M973 993h-420v-553h420v-41h-420v-399h-41v399h-420v41h420v553h-420v41h420v400h41v-400h420v-41z" />
    <glyph glyph-name="bullet" unicode="&#x2022;" horiz-adv-x="561" 
d="M199 778q34 31 82 31q50 0 83 -31q31 -30 31 -80q0 -52 -31 -82q-32 -30 -83 -30q-50 0 -82 31q-33 31 -33 81t33 80z" />
    <glyph glyph-name="ellipsis" unicode="&#x2026;" horiz-adv-x="935" 
d="M137 65q11 11 31 11q19 0 30 -11t11 -30q0 -20 -11 -31q-12 -12 -30 -12q-19 0 -31 12t-12 31q0 18 12 30zM438 65q11 11 31 11q19 0 30 -11t11 -30q0 -20 -11 -31q-12 -12 -30 -12q-19 0 -31 12t-12 31q0 18 12 30zM737 65q11 11 31 11q19 0 30 -11t11 -30
q0 -20 -11 -31q-12 -12 -30 -12q-19 0 -31 12t-12 31q0 18 12 30z" />
    <glyph glyph-name="perthousand" unicode="&#x2030;" horiz-adv-x="2547" 
d="M185 1276q43 78 120 123t168 45t168 -45t120 -123q44 -79 44 -172t-44 -172t-120 -122q-77 -44 -168 -44t-168 44q-76 43 -120 122t-44 172t44 172zM383 0l952 1434h47l-954 -1434h-45zM681 1319q-83 86 -208 86t-208 -86t-83 -215q0 -83 38 -153q36 -66 105 -107
q66 -39 148 -39q83 0 149 39q68 40 104 107q38 70 38 153q0 129 -83 215zM1002 500q44 78 120 123t168 45t169 -45q78 -46 121 -123q44 -79 44 -172t-44 -172q-43 -77 -121 -123q-77 -45 -169 -45t-168 45t-120 123q-44 79 -44 172t44 172zM1787 500q43 78 120 123t168 45
t168 -45q75 -44 119 -123t44 -172t-44 -172t-119 -123q-77 -45 -168 -45t-168 45t-120 123q-44 79 -44 172t44 172zM1543 480q-37 68 -104 109q-65 40 -149 40q-124 0 -207 -86q-82 -85 -82 -215t82 -215q83 -86 207 -86q125 0 208 86t83 215q0 82 -38 152zM2328 480
q-36 67 -105 109q-65 40 -148 40q-84 0 -149 -40q-67 -41 -104 -109q-38 -70 -38 -152q0 -129 83 -215t208 -86q124 0 207 86t83 215q0 84 -37 152z" />
    <glyph glyph-name="guilsinglleft" unicode="&#x2039;" horiz-adv-x="653" 
d="M516 1034l-336 -516l336 -518h-47l-340 518l340 516h47z" />
    <glyph glyph-name="guilsinglright" unicode="&#x203a;" horiz-adv-x="653" 
d="M137 1034h47l340 -516l-340 -518h-47l336 518z" />
    <glyph glyph-name="uni2042" unicode="&#x2042;" horiz-adv-x="1947" 
d="M1266 1300l-273 -108l187 -225l-27 -25l-188 232l-189 -232l-26 25l186 225l-270 108l12 33l270 -112l-2 297h37l-2 -297l270 112zM758 270l-273 -108l187 -225l-27 -25l-188 231l-189 -231l-26 25l186 225l-270 108l12 33l270 -113l-2 297h37l-2 -297l270 113zM1794 270
l-272 -108l186 -225l-27 -25l-188 231l-188 -231l-27 25l186 225l-270 108l12 33l271 -113l-2 297h36l-2 -297l271 113z" />
    <glyph glyph-name="fraction" unicode="&#x2044;" horiz-adv-x="360" 
d="M-295 0l909 1434h41l-909 -1434h-41z" />
    <glyph glyph-name="uni2051" unicode="&#x2051;" horiz-adv-x="911" 
d="M758 1300l-273 -108l187 -225l-27 -25l-188 232l-189 -232l-26 25l186 225l-270 108l12 33l270 -112l-2 297h37l-2 -297l270 112zM758 264l-273 -108l187 -226l-27 -24l-188 231l-189 -231l-26 24l186 226l-270 108l12 33l270 -113l-2 297h37l-2 -297l270 113z" />
    <glyph glyph-name="uni2070" unicode="&#x2070;" horiz-adv-x="684" 
d="M140 1544q77 109 202 109q124 0 201 -109q75 -106 75 -276q0 -171 -75 -277q-77 -108 -201 -108q-126 0 -202 108q-77 109 -77 277q0 167 77 276zM517 1518q-66 100 -175 100t-175 -100q-67 -102 -67 -250t67 -250q66 -100 175 -100t175 100q67 102 67 250t-67 250z" />
    <glyph glyph-name="uni2074" unicode="&#x2074;" horiz-adv-x="665" 
d="M446 1638h41v-503h131v-35h-131v-207h-36v207h-406v35zM451 1593l-365 -458h365v458z" />
    <glyph glyph-name="uni2075" unicode="&#x2075;" horiz-adv-x="634" 
d="M524 1606h-395l-20 -336q35 54 92 82q56 28 125 28q108 0 177 -69q68 -68 68 -178q0 -111 -72 -182q-71 -70 -184 -70q-103 0 -171 56q-67 56 -78 148h34q10 -76 70 -122q62 -48 145 -48q93 0 157 61q63 60 63 157q0 95 -62 154t-158 59q-66 0 -121 -32t-85 -87l-31 2
l20 409h426v-32z" />
    <glyph glyph-name="uni2076" unicode="&#x2076;" horiz-adv-x="655" 
d="M147 1544q77 109 207 109q87 0 154 -55q65 -53 80 -152h-35q-18 85 -72 131q-53 45 -127 45q-115 0 -181 -99q-67 -101 -67 -263q0 -22 9 -125q-5 95 58 163q64 70 173 70t175 -66q67 -67 67 -176q0 -111 -68 -177t-178 -66q-139 0 -205 100q-65 99 -65 270q0 185 75 291
zM495 1279q-58 58 -153 58q-94 0 -153 -57q-58 -57 -58 -152q0 -94 58 -153q59 -60 153 -60q97 0 154 59q57 58 57 152q0 95 -58 153z" />
    <glyph glyph-name="uni2077" unicode="&#x2077;" horiz-adv-x="614" 
d="M55 1638h510v-30l-385 -717h-39l383 715l-469 -2v34z" />
    <glyph glyph-name="uni2078" unicode="&#x2078;" horiz-adv-x="645" 
d="M118 1220q53 53 140 64q-77 11 -124 59q-48 49 -48 121q0 82 67 135q68 54 171 54q101 0 169 -54q66 -53 66 -135q0 -72 -48 -121q-47 -48 -124 -59q87 -11 140 -64q55 -55 55 -135q0 -87 -73 -145q-72 -57 -185 -57q-116 0 -188 57q-73 58 -73 145q0 80 55 135z
M467 1577q-55 45 -143 45t-145 -45q-56 -44 -56 -115t56 -117q58 -47 145 -47t143 47q55 46 55 117q0 70 -55 115zM482 1217q-63 51 -158 51q-97 0 -160 -51q-64 -52 -64 -130q0 -74 64 -123t160 -49q94 0 158 49q63 48 63 123q0 79 -63 130z" />
    <glyph glyph-name="uni2079" unicode="&#x2079;" horiz-adv-x="643" 
d="M506 991q-76 -108 -207 -108q-88 0 -154 54q-64 52 -79 153h34q17 -87 71 -132t128 -45q114 0 181 100q67 101 67 263q0 34 -8 125q4 -94 -59 -164q-64 -70 -173 -70q-108 0 -175 67q-66 66 -66 175q0 111 67 177q69 67 178 67q139 0 205 -101q66 -100 66 -270
q0 -184 -76 -291zM159 1256q58 -58 152 -58q95 0 153 57t58 152t-58 154t-153 59q-93 0 -152 -57t-59 -154q0 -94 59 -153z" />
    <glyph glyph-name="uni2080" unicode="&#x2080;" horiz-adv-x="681" 
d="M138 444q77 109 202 109q124 0 201 -109q75 -106 75 -276q0 -171 -75 -277q-77 -108 -201 -108q-125 0 -202 108q-77 109 -77 277q0 167 77 276zM515 418q-66 100 -175 100t-175 -100q-67 -102 -67 -250t67 -250q66 -100 175 -100t175 100q67 102 67 250t-67 250z" />
    <glyph glyph-name="uni2081" unicode="&#x2081;" horiz-adv-x="321" 
d="M182 -205v549q-6 -14 -32 -14h-150v35h150q14 0 23 10q9 11 9 24v142h35v-746h-35z" />
    <glyph glyph-name="uni2082" unicode="&#x2082;" horiz-adv-x="624" 
d="M76 326q0 104 66 166q65 61 171 61q107 0 172 -58q66 -59 66 -153q0 -75 -40 -131q-44 -62 -116 -127l-284 -254h450v-35h-502v33l310 276q70 60 109 117q36 53 36 121q0 81 -56 128q-57 48 -145 48q-91 0 -147 -51q-55 -51 -55 -143v-15h-35v17z" />
    <glyph glyph-name="uni2083" unicode="&#x2083;" horiz-adv-x="643" 
d="M147 497q66 56 177 56q105 0 170 -55t65 -142q0 -68 -47 -115t-125 -59q89 -15 139 -62q52 -49 52 -126q0 -94 -71 -153q-70 -58 -185 -58q-124 0 -194 60q-71 60 -71 165h37q0 -92 63 -141q62 -49 165 -49q96 0 157 48q62 48 62 126q0 80 -64 127t-166 47h-49v29h49
q94 0 153 44q58 43 58 115t-55 118t-143 46q-93 0 -151 -47q-56 -46 -58 -129h-35q0 98 67 155z" />
    <glyph glyph-name="uni2084" unicode="&#x2084;" horiz-adv-x="665" 
d="M446 541h41v-504h131v-35h-131v-207h-36v207h-406v35zM451 496l-365 -459h365v459z" />
    <glyph glyph-name="uni2085" unicode="&#x2085;" horiz-adv-x="634" 
d="M524 508h-395l-20 -336q35 54 92 82q58 29 125 29q107 0 177 -70q68 -68 68 -178t-72 -181q-73 -71 -184 -71q-103 0 -171 56q-67 56 -78 149h34q11 -77 70 -123q61 -47 145 -47q94 0 157 60t63 157q0 95 -62 154t-158 59q-66 0 -121 -32t-85 -87l-31 2l20 410h426v-33z
" />
    <glyph glyph-name="uni2086" unicode="&#x2086;" horiz-adv-x="655" 
d="M147 444q77 109 207 109q88 0 154 -54q65 -53 80 -153h-35q-18 85 -72 131q-53 45 -127 45q-115 0 -181 -99q-67 -101 -67 -263q0 -22 9 -125q-5 95 58 164t173 69q109 0 175 -66q67 -67 67 -175q0 -112 -68 -178t-178 -66q-139 0 -205 100q-65 99 -65 271q0 184 75 290z
M495 179q-59 59 -153 59q-93 0 -153 -58q-58 -57 -58 -151q0 -95 58 -154t153 -59q97 0 154 58t57 153q0 94 -58 152z" />
    <glyph glyph-name="uni2087" unicode="&#x2087;" horiz-adv-x="614" 
d="M55 543h510v-31l-385 -717h-39l383 715l-469 -2v35z" />
    <glyph glyph-name="uni2088" unicode="&#x2088;" horiz-adv-x="645" 
d="M118 120q53 53 140 64q-76 10 -124 60t-48 121q0 82 67 135t171 53q102 0 169 -53q66 -52 66 -135q0 -71 -48 -121t-124 -60q87 -11 140 -64q55 -55 55 -134q0 -88 -73 -146q-72 -57 -185 -57q-116 0 -188 57q-73 58 -73 146q0 79 55 134zM467 477q-55 45 -143 45
t-145 -45q-56 -44 -56 -115t56 -117t145 -46q88 0 143 46t55 117q0 70 -55 115zM482 117q-63 51 -158 51q-97 0 -160 -51q-64 -52 -64 -129q0 -75 64 -124q63 -48 160 -48q95 0 158 48t63 124q0 78 -63 129z" />
    <glyph glyph-name="uni2089" unicode="&#x2089;" horiz-adv-x="643" 
d="M506 -109q-76 -108 -207 -108q-88 0 -154 54q-64 52 -79 153h34q17 -86 71 -131t128 -45q115 0 181 99q67 101 67 263q0 34 -8 125q4 -94 -59 -164q-63 -69 -173 -69q-109 0 -175 66t-66 175q0 111 67 177q69 67 178 67q139 0 205 -100t66 -271q0 -184 -76 -291zM159 157
q59 -59 152 -59t153 58q58 57 58 151q0 95 -58 154t-153 59q-93 0 -152 -57t-59 -154q0 -93 59 -152z" />
    <glyph glyph-name="franc" unicode="&#x20a3;" horiz-adv-x="1036" 
d="M995 1389h-768v-652h643v-45h-643v-336h357v-41h-357v-315h-47v315h-188v41h188v1078h815v-45z" />
    <glyph glyph-name="uni20A8" unicode="&#x20a8;" horiz-adv-x="1304" 
d="M1219 1434l-9 -39h-409q112 -34 179 -124q68 -91 69 -216h127l-7 -37h-120q-6 -158 -105 -255q-99 -98 -262 -114l358 -649h-55l-352 643h-477v43h462q168 0 272 90q103 90 109 242h-843v37h843q-6 153 -108 243q-103 91 -270 91h-465v45h1063z" />
    <glyph glyph-name="Euro" unicode="&#x20ac;" horiz-adv-x="1308" 
d="M51 532v39h142q-7 79 -7 144q0 67 4 108h-139v39h142q21 274 162 428q143 156 366 156q194 0 323 -111q130 -112 158 -288h-47q-24 158 -141 257t-291 99q-202 0 -333 -145q-130 -143 -148 -396h475l-8 -39h-471q-5 -48 -5 -108q0 -65 7 -144h419l-8 -39h-407
q30 -234 159 -368q129 -133 322 -133q173 0 284 96t144 258h47q-35 -180 -160 -289q-124 -108 -315 -108q-213 0 -355 144q-142 143 -175 400h-144z" />
    <glyph glyph-name="uni20BF" unicode="&#x20bf;" horiz-adv-x="1263" 
d="M367 1434v215h41v-215h217v215h43v-217q190 -4 295 -99q104 -94 104 -258q0 -137 -75 -224t-214 -114q172 -22 265 -111q94 -89 94 -241q0 -177 -120 -279q-121 -103 -349 -104v-199h-43v197h-217v-197h-43v197h-209v1434h211zM203 756h440q179 0 278 84t99 233
q0 151 -98 234q-99 84 -279 84h-440v-635zM203 43h442q218 0 331 91q114 92 114 253q0 158 -116 242q-115 84 -329 84h-442v-670z" />
    <glyph glyph-name="trademark" unicode="&#x2122;" horiz-adv-x="1384" 
d="M61 1434h484v-35h-223v-516h-37v516h-224v35zM641 1434h49l258 -506l262 506h50v-551h-35v506l-262 -506h-31l-256 506v-506h-35v551z" />
    <glyph glyph-name="uni2126" unicode="&#x2126;" horiz-adv-x="1540" 
d="M942 176q222 119 322 264t100 355q0 173 -77 312q-76 137 -213 217q-136 79 -304 79q-170 0 -306 -79q-137 -80 -213 -217q-77 -139 -77 -312q0 -208 100 -354q99 -145 322 -265v-176h-465v45h424v113q-224 113 -326 267q-102 155 -102 372q0 186 83 335q82 148 230 231
t330 83t330 -83t230 -231q83 -149 83 -335q0 -218 -103 -372t-325 -267v-113h424v-45h-467v176z" />
    <glyph glyph-name="uni2153" unicode="&#x2153;" horiz-adv-x="1310" 
d="M182 690v549q-6 -14 -32 -14h-150v35h150q14 0 23 10t9 24v142h35v-746h-35zM27 0l909 1434h41l-909 -1434h-41zM827 701q67 57 177 57q103 0 170 -56q65 -55 65 -141q0 -69 -47 -116q-46 -46 -125 -58q89 -15 139 -62q51 -48 51 -126q0 -95 -70 -153t-186 -58
q-123 0 -193 60q-71 60 -71 165h37q0 -91 63 -141q62 -49 164 -49q97 0 158 48q62 48 62 126q0 80 -64 127t-166 47h-49v28h49q94 0 153 44q58 43 58 116q0 72 -55 118t-143 46q-93 0 -151 -47q-56 -46 -58 -129h-35q0 97 67 154z" />
    <glyph glyph-name="uni2155" unicode="&#x2155;" horiz-adv-x="1263" 
d="M182 690v549q-6 -14 -32 -14h-150v35h150q14 0 23 10t9 24v142h35v-746h-35zM27 0l909 1434h41l-909 -1434h-41zM1163 713h-395l-20 -336q35 54 92 82q56 28 125 28q108 0 177 -69q68 -68 68 -178q0 -111 -72 -182q-71 -70 -184 -70q-103 0 -171 56q-67 56 -78 149h34
q11 -77 70 -123q61 -47 145 -47q94 0 157 60t63 157q0 95 -62 154t-158 59q-66 0 -121 -32t-85 -87l-31 2l20 409h426v-32z" />
    <glyph glyph-name="uni2156" unicode="&#x2156;" horiz-adv-x="1568" 
d="M76 1219q0 103 66 165q67 62 171 62q107 0 172 -58q66 -58 66 -153q0 -75 -40 -131q-44 -62 -116 -127l-284 -254h450v-35h-502v33l310 276q70 60 109 117q36 52 36 121q0 81 -56 128q-57 48 -145 48q-91 0 -147 -51q-55 -51 -55 -143v-15h-35v17zM330 0l909 1434h41
l-909 -1434h-41zM1466 713h-395l-20 -336q35 54 92 82q56 28 125 28q108 0 177 -69q68 -68 68 -178q0 -111 -72 -182q-71 -70 -184 -70q-103 0 -171 56q-67 56 -78 149h34q11 -77 70 -123q61 -47 145 -47q94 0 157 60t63 157q0 95 -62 154t-158 59q-66 0 -121 -32t-85 -87
l-31 2l20 409h426v-32z" />
    <glyph glyph-name="uni2157" unicode="&#x2157;" horiz-adv-x="1585" 
d="M147 1394q66 56 177 56q105 0 170 -55t65 -142q0 -68 -47 -115t-125 -59q89 -15 139 -62q52 -49 52 -126q0 -94 -71 -153q-70 -58 -185 -58q-124 0 -194 60q-71 60 -71 165h37q0 -91 63 -141q62 -49 165 -49q96 0 157 48q62 48 62 126q0 80 -64 127t-166 47h-49v29h49
q94 0 153 44q58 43 58 115t-55 118t-143 46q-93 0 -151 -47q-56 -46 -58 -129h-35q0 98 67 155zM348 0l909 1434h41l-909 -1434h-41zM1485 713h-395l-21 -336q35 54 92 82q56 28 125 28q108 0 177 -69t69 -178q0 -111 -73 -182q-71 -70 -183 -70q-103 0 -171 56t-79 149h35
q11 -78 69 -123q61 -47 146 -47q94 0 157 60q62 59 62 157q0 96 -61 154q-62 59 -158 59q-67 0 -122 -32t-85 -87l-31 2l21 409h426v-32z" />
    <glyph glyph-name="uni2158" unicode="&#x2158;" horiz-adv-x="1607" 
d="M446 1434h41v-504h131v-35h-131v-207h-36v207h-406v35zM451 1389l-365 -459h365v459zM371 0l909 1434h41l-909 -1434h-41zM1507 713h-395l-20 -336q35 54 92 82q56 28 125 28q108 0 177 -69q68 -68 68 -178q0 -111 -72 -182q-71 -70 -184 -70q-103 0 -171 56
q-67 56 -78 149h34q11 -77 70 -123q61 -47 145 -47q94 0 157 60t63 157q0 95 -62 154t-158 59q-66 0 -121 -32t-85 -87l-31 2l20 409h426v-32z" />
    <glyph glyph-name="uni2159" unicode="&#x2159;" horiz-adv-x="1243" 
d="M182 690v549q-6 -14 -32 -14h-150v35h150q14 0 23 10t9 24v142h35v-746h-35zM27 0l909 1434h41l-909 -1434h-41zM750 649q77 109 206 109q87 0 154 -55q65 -53 80 -152h-35q-18 85 -72 131q-53 45 -127 45q-115 0 -181 -99t-66 -263q0 -34 8 -125q-5 95 58 163
q64 70 173 70t175 -66q67 -67 67 -176q0 -111 -68 -177t-178 -66q-139 0 -205 100q-65 99 -65 270q0 184 76 291zM1097 384q-58 58 -153 58q-94 0 -152 -57q-59 -57 -59 -152q0 -92 59 -153q58 -60 152 -60q97 0 154 59t57 152q0 95 -58 153z" />
    <glyph glyph-name="oneeighth" unicode="&#x215b;" horiz-adv-x="1269" 
d="M182 690v549q-6 -14 -32 -14h-150v35h150q14 0 23 10t9 24v142h35v-746h-35zM27 0l909 1434h41l-909 -1434h-41zM753 325q53 53 140 64q-76 10 -124 60t-48 120q0 83 66 136q67 53 171 53q102 0 169 -53t67 -136q0 -71 -48 -120q-48 -50 -124 -60q87 -11 140 -64
q55 -55 55 -135q0 -87 -73 -145q-72 -57 -186 -57q-115 0 -187 57q-73 58 -73 145q0 80 55 135zM1102 682q-56 45 -144 45q-87 0 -144 -45q-56 -44 -56 -115t56 -117q58 -47 144 -47q88 0 144 47q55 46 55 117q0 70 -55 115zM1117 322q-63 51 -159 51t-159 -51
q-64 -52 -64 -129q0 -75 64 -124t159 -49t159 49q63 48 63 124q0 78 -63 129z" />
    <glyph glyph-name="threeeighths" unicode="&#x215c;" horiz-adv-x="1591" 
d="M147 1394q66 56 177 56q105 0 170 -55t65 -142q0 -68 -47 -115t-125 -59q89 -15 139 -62q52 -49 52 -126q0 -94 -71 -153q-70 -58 -185 -58q-124 0 -194 60q-71 60 -71 165h37q0 -91 63 -141q62 -49 165 -49q96 0 157 48q62 48 62 126q0 80 -64 127t-166 47h-49v29h49
q94 0 153 44q58 43 58 115t-55 118t-143 46q-93 0 -151 -47q-56 -46 -58 -129h-35q0 98 67 155zM348 0l909 1434h41l-909 -1434h-41zM1074 325q53 53 140 64q-75 10 -123 60q-49 51 -49 120q0 83 67 136t171 53q102 0 169 -53t67 -136q0 -69 -49 -120q-48 -50 -124 -60
q88 -11 141 -64q54 -54 54 -135q0 -87 -73 -145q-72 -57 -185 -57q-115 0 -187 57q-73 58 -73 145q0 81 54 135zM1423 682q-56 45 -143 45t-144 -45t-57 -115q0 -71 57 -117q58 -47 144 -47q87 0 143 47t56 117t-56 115zM1439 322q-63 51 -159 51q-97 0 -160 -51t-63 -129
q0 -76 63 -124q64 -49 160 -49q95 0 159 49q62 47 62 124q0 79 -62 129z" />
    <glyph glyph-name="fiveeighths" unicode="&#x215d;" horiz-adv-x="1583" 
d="M524 1401h-395l-20 -336q35 54 92 82q58 29 125 29q107 0 177 -70q68 -68 68 -178q0 -112 -72 -182q-71 -70 -184 -70q-103 0 -171 56q-67 56 -78 149h34q11 -77 70 -123q61 -47 145 -47q94 0 157 60t63 157q0 95 -62 154t-158 59q-66 0 -121 -32t-85 -87l-31 2l20 410
h426v-33zM340 0l909 1434h41l-909 -1434h-41zM1066 325q53 53 140 64q-76 10 -124 60t-48 120q0 83 67 136t171 53q102 0 169 -53q66 -53 66 -136q0 -71 -48 -120q-48 -50 -124 -60q88 -11 141 -64q54 -54 54 -135q0 -87 -73 -145q-72 -57 -185 -57q-116 0 -188 57t-72 145
q0 81 54 135zM1415 682q-55 45 -143 45t-145 -45q-56 -44 -56 -115t56 -117q58 -47 145 -47t143 47q55 46 55 117q0 70 -55 115zM1431 322q-63 51 -159 51q-97 0 -160 -51t-63 -129q0 -76 63 -124q64 -49 160 -49q95 0 159 49q62 47 62 124q0 79 -62 129z" />
    <glyph glyph-name="seveneighths" unicode="&#x215e;" horiz-adv-x="1562" 
d="M55 1434h510v-31l-385 -717h-39l383 715l-469 -2v35zM319 0l910 1434h41l-910 -1434h-41zM1046 325q53 53 140 64q-76 10 -124 60t-48 120q0 83 66 136q67 53 171 53q102 0 169 -53t67 -136q0 -71 -48 -120q-48 -50 -124 -60q87 -11 140 -64q54 -54 54 -135
q0 -88 -72 -145t-186 -57q-115 0 -187 57q-73 58 -73 145q0 80 55 135zM1395 682q-55 45 -144 45q-87 0 -144 -45q-56 -44 -56 -115t56 -117q58 -47 144 -47q88 0 144 47q55 46 55 117q0 70 -55 115zM1410 322q-63 51 -159 51t-159 -51q-64 -52 -64 -129q0 -75 64 -124
t159 -49t159 49q63 48 63 124q0 78 -63 129z" />
    <glyph glyph-name="arrowleft" unicode="&#x2190;" horiz-adv-x="1118" 
d="M29 551l508 510l30 -29l-461 -461h883v-43h-883l461 -462l-28 -29z" />
    <glyph glyph-name="arrowup" unicode="&#x2191;" horiz-adv-x="1282" 
d="M1153 537l-29 -31l-462 463v-969h-44v969l-460 -461l-29 31l510 508z" />
    <glyph glyph-name="arrowright" unicode="&#x2192;" horiz-adv-x="1118" 
d="M1090 553l-510 -514l-29 29l461 462h-883v43h883l-461 461l31 29z" />
    <glyph glyph-name="arrowdown" unicode="&#x2193;" horiz-adv-x="1282" 
d="M1153 498l-514 -510l-510 508l29 30l460 -460v968h44v-968l462 462z" />
    <glyph glyph-name="arrowboth" unicode="&#x2194;" horiz-adv-x="1732" 
d="M1106 1053l502 -502l-504 -506l-29 29l453 454h-1323l452 -454l-28 -29l-504 506l502 502l30 -29l-452 -453h1323l-451 453z" />
    <glyph glyph-name="arrowupdn" unicode="&#x2195;" horiz-adv-x="1261" 
d="M125 952l504 502l506 -504l-29 -28l-457 452v-1315l457 453l29 -31l-506 -501l-504 501l31 29l452 -451v1315l-452 -450z" />
    <glyph glyph-name="uni2196" unicode="&#x2196;" horiz-adv-x="985" 
d="M129 1034h723v-41l-653 2l626 -626l-30 -29l-627 625l2 -656h-41v725z" />
    <glyph glyph-name="uni2197" unicode="&#x2197;" horiz-adv-x="985" 
d="M856 1034v-725h-41l2 656l-627 -625l-30 29l626 626l-653 -2v41h723z" />
    <glyph glyph-name="uni2198" unicode="&#x2198;" horiz-adv-x="985" 
d="M133 39l655 -2l-628 627l30 28l627 -626l-2 657h41v-725h-723v41z" />
    <glyph glyph-name="uni2199" unicode="&#x2199;" horiz-adv-x="985" 
d="M170 725l-2 -657l627 626l30 -28l-628 -627l655 2v-41h-723v725h41z" />
    <glyph glyph-name="partialdiff" unicode="&#x2202;" horiz-adv-x="1177" 
d="M160 724q62 110 169 171t242 61q148 0 263 -68t165 -190q-30 169 -116 323q-85 151 -246 258q-159 105 -391 126v41q281 -24 465 -169q182 -143 265 -347t83 -414q0 -157 -60 -277t-168 -186q-106 -65 -253 -65q-141 0 -249 62q-111 64 -170 173q-61 113 -61 252t62 249z
M808 88q102 62 153 167q53 109 53 251q0 127 -61 222q-60 93 -159 141q-101 49 -216 49q-125 0 -224 -57q-98 -56 -153 -158q-56 -103 -56 -228q0 -127 56 -230t153 -159q99 -57 224 -57q133 0 230 59z" />
    <glyph glyph-name="emptyset" unicode="&#x2205;" horiz-adv-x="1249" 
d="M1096 942q45 -102 45 -219q0 -147 -69 -268q-70 -123 -186 -192q-118 -70 -261 -70q-109 0 -200 38q-93 39 -163 109l-121 -131l-26 24l121 134q-63 73 -96 162q-34 90 -34 194q0 145 69 267q71 124 187 192q118 69 263 69q89 0 170 -28q79 -27 147 -80l115 125l26 -25
l-112 -125q80 -74 125 -176zM183 550q30 -82 83 -149l647 709q-127 100 -288 100q-133 0 -239 -65t-170 -177q-62 -109 -62 -245q0 -93 29 -173zM862 299q108 66 171 178q63 113 63 246q0 105 -41 201q-39 91 -115 161l-649 -710q66 -68 151 -105q84 -37 183 -37
q129 0 237 66z" />
    <glyph glyph-name="uni2206" unicode="&#x2206;" horiz-adv-x="1331" 
d="M51 0v41l584 1393h59l586 -1393v-41h-1229zM102 43h1123l-561 1339z" />
    <glyph glyph-name="product" unicode="&#x220f;" horiz-adv-x="1421" 
d="M1358 1434v-45h-193v-1606h-47v1606h-815v-1606h-47v1606h-195v45h1297z" />
    <glyph glyph-name="summation" unicode="&#x2211;" horiz-adv-x="1241" 
d="M92 -176l621 799l-578 770v41h1008v-43h-946l561 -750v-35l-606 -780h1007v-43h-1067v41z" />
    <glyph glyph-name="minus" unicode="&#x2212;" 
d="M152 571v39h788v-39h-788z" />
    <glyph glyph-name="radical" unicode="&#x221a;" horiz-adv-x="1097" 
d="M205 838l-160 -72l-14 37l196 90l332 -836l410 1377h45l-426 -1434h-49z" />
    <glyph glyph-name="infinity" unicode="&#x221e;" horiz-adv-x="1548" 
d="M956 294q-81 66 -182 232q-100 -168 -181 -232q-82 -65 -190 -65q-135 0 -222 93q-85 91 -85 243q0 151 85 242q86 92 222 92q110 0 189 -64t180 -233q102 170 181 233q80 64 190 64q139 0 223 -92t84 -242q0 -151 -84 -243q-85 -93 -223 -93q-107 0 -187 65zM578 334
q73 61 172 229q-101 168 -175 232q-73 63 -169 63q-119 0 -193 -80t-74 -213q0 -136 73 -215q72 -78 194 -78q98 0 172 62zM969 335q77 -63 174 -63q119 0 191 79q73 81 73 214q0 132 -73 213q-72 80 -191 80q-99 0 -174 -62q-76 -62 -172 -231q95 -167 172 -230z" />
    <glyph glyph-name="integral" unicode="&#x222b;" horiz-adv-x="755" 
d="M184 -174q94 0 133 39t39 131v1223q0 113 51 164t162 51h117v-43h-115q-92 0 -131 -39t-39 -131v-1223q0 -115 -50 -165t-165 -50h-116v43h114z" />
    <glyph glyph-name="approxequal" unicode="&#x2248;" 
d="M170 248q0 99 55 160t146 61q56 0 97 -23q39 -22 89 -67q55 -45 83 -62q33 -20 81 -20q75 0 119 50q43 49 43 128h41q0 -98 -56 -159q-56 -60 -145 -60q-59 0 -100 23q-44 25 -91 67q-52 45 -80 61q-34 19 -83 19q-72 0 -116 -50t-44 -128h-39zM170 666q0 98 55 159
q56 62 146 62q56 0 97 -23q39 -22 89 -67q55 -45 83 -62q33 -20 81 -20q75 0 119 50q43 49 43 128h41q0 -98 -56 -159q-56 -60 -145 -60q-60 0 -100 22q-42 23 -91 68q-48 42 -80 60q-35 20 -83 20q-72 0 -116 -50t-44 -128h-39z" />
    <glyph glyph-name="notequal" unicode="&#x2260;" 
d="M920 745h-291l-129 -372h420v-41h-435l-75 -223h-43l75 223h-270v41h285l129 372h-414v39h428l76 224h43l-76 -224h277v-39z" />
    <glyph glyph-name="lessequal" unicode="&#x2264;" 
d="M174 627v45l744 362v-47l-693 -338l693 -338v-45zM174 0v39h744v-39h-744z" />
    <glyph glyph-name="greaterequal" unicode="&#x2265;" 
d="M918 672v-45l-744 -361v45l692 338l-692 338v47zM174 0v39h744v-39h-744z" />
    <glyph glyph-name="dotmath" unicode="&#x22c5;" horiz-adv-x="335" 
d="M137 620q11 11 31 11q19 0 30 -11t11 -30q0 -20 -11 -31q-12 -12 -30 -12q-19 0 -31 12t-12 31q0 18 12 30z" />
    <glyph glyph-name="filledbox" unicode="&#x25a0;" horiz-adv-x="1753" 
d="M156 1434h1441v-1434h-1441v1434z" />
    <glyph glyph-name="uni25A1" unicode="&#x25a1;" horiz-adv-x="1744" 
d="M156 1434h1433v-1434h-1433v1434zM201 1391v-1348h1343v1348h-1343z" />
    <glyph glyph-name="uni25AF" unicode="&#x25af;" horiz-adv-x="1202" 
d="M156 1434h891v-1434h-891v1434zM201 1391v-1348h800v1348h-800z" />
    <glyph glyph-name="triagup" unicode="&#x25b2;" horiz-adv-x="1820" 
d="M913 1458l838 -1458h-1679z" />
    <glyph glyph-name="uni25B3" unicode="&#x25b3;" horiz-adv-x="1820" 
d="M913 1458l838 -1458h-1679zM913 1370l-768 -1327h1530z" />
    <glyph glyph-name="uni25B6" unicode="&#x25b6;" horiz-adv-x="1089" 
d="M129 1036l913 -524l-913 -524v1048z" />
    <glyph glyph-name="uni25B7" unicode="&#x25b7;" 
d="M129 1042l918 -524l-918 -526v1050zM168 55l805 463l-805 461v-924z" />
    <glyph glyph-name="uni25C0" unicode="&#x25c0;" horiz-adv-x="1089" 
d="M961 1036v-1048l-914 524z" />
    <glyph glyph-name="uni25C1" unicode="&#x25c1;" 
d="M963 1042v-1050l-918 526zM924 55v924l-805 -461z" />
    <glyph glyph-name="lozenge" unicode="&#x25ca;" horiz-adv-x="1150" 
d="M602 1434l422 -717l-422 -719h-55l-422 719l422 717h55zM575 37l398 680l-398 678l-397 -678z" />
    <glyph glyph-name="circle" unicode="&#x25cb;" horiz-adv-x="1681" 
d="M1209 1349q169 -97 267 -265q97 -166 97 -367q0 -202 -97 -368q-98 -167 -267 -264t-369 -97q-202 0 -369 97t-265 264q-97 166 -97 368q0 201 97 367q99 168 265 265q167 97 369 97q200 0 369 -97zM488 1320q-157 -92 -251 -252q-94 -161 -94 -351t94 -351
q94 -160 251 -252q161 -94 352 -94t352 94t252 252q92 160 92 351t-92 351q-91 158 -252 252q-159 93 -352 93t-352 -93z" />
    <glyph glyph-name="uni25CF" unicode="&#x25cf;" horiz-adv-x="1673" 
d="M466 1351q-167 -95 -262 -262t-95 -372t95 -372t262 -262t372 -95q204 0 371 95t262 262q96 169 96 372t-96 372q-95 167 -262 262t-371 95q-205 0 -372 -95z" />
    <glyph glyph-name="uni25FD" unicode="&#x25fd;" horiz-adv-x="1294" 
d="M129 1034h1034v-1034h-1034v1034zM168 997v-960h956v960h-956z" />
    <glyph glyph-name="uni25FE" unicode="&#x25fe;" horiz-adv-x="1294" 
d="M129 1034h1034v-1034h-1034v1034z" />
    <glyph glyph-name="uni262E" unicode="&#x262e;" horiz-adv-x="1675" 
d="M204 1090q94 166 261 261t373 95q204 0 371 -95q168 -95 262 -261q96 -169 96 -373t-96 -373q-94 -166 -262 -261q-167 -95 -371 -95q-206 0 -373 95t-261 261q-95 167 -95 373t95 373zM817 1403q-188 -1 -342 -92t-241 -246q-87 -156 -87 -348q0 -138 50 -261
q51 -124 139 -214l481 497v664zM856 739l481 -497q91 91 140 213t49 262q0 192 -87 348t-240 246q-154 91 -343 92v-664zM358 213q90 -87 207 -133q121 -48 252 -49v659zM856 31q132 1 253 49q116 45 208 133l-461 477v-659z" />
    <glyph glyph-name="uni26AA" unicode="&#x26aa;" horiz-adv-x="1251" 
d="M891 972q120 -69 191 -191q71 -121 71 -263t-71 -264t-191 -192q-121 -70 -264 -70q-145 0 -266 70t-192 192t-71 264t71 263t192 191t266 70q143 0 264 -70zM380 942q-113 -65 -179 -178q-66 -112 -66 -246q0 -133 66 -247q66 -113 179 -179q112 -65 247 -65
q134 0 245 65q114 67 179 179t65 247t-65 246t-179 178q-113 66 -245 66q-133 0 -247 -66z" />
    <glyph glyph-name="uni26AB" unicode="&#x26ab;" horiz-adv-x="1251" 
d="M891 972q120 -69 191 -191q71 -121 71 -263t-71 -264t-191 -192q-121 -70 -264 -70q-145 0 -266 70t-192 192t-71 264t71 263t192 191t266 70q143 0 264 -70z" />
    <glyph glyph-name="uni2713" unicode="&#x2713;" horiz-adv-x="2250" 
d="M72 715l34 37l678 -680l1358 1362l37 -37l-1395 -1397z" />
    <glyph glyph-name="uni2715" unicode="&#x2715;" horiz-adv-x="1628" 
d="M135 1434l678 -678l680 678l35 -37l-678 -678l678 -682l-35 -35l-680 678l-678 -678l-37 35l680 682l-680 678z" />
    <glyph glyph-name="uni2780" unicode="&#x2780;" horiz-adv-x="1681" 
d="M1209 1349q169 -97 267 -265q97 -166 97 -367q0 -202 -97 -368q-98 -167 -267 -264t-369 -97q-202 0 -369 97t-265 264q-97 166 -97 368q0 201 97 367q99 168 265 265q167 97 369 97q200 0 369 -97zM488 1320q-157 -92 -251 -252q-94 -161 -94 -351t94 -351
q94 -160 251 -252q161 -94 352 -94t352 94t252 252q92 160 92 351t-92 351q-91 158 -252 252q-159 93 -352 93t-352 -93zM836 344v549q-6 -14 -33 -14h-150v34h150q14 0 23 11q10 12 10 24v142h34v-746h-34z" />
    <glyph glyph-name="uni2781" unicode="&#x2781;" horiz-adv-x="1681" 
d="M1209 1349q169 -97 267 -265q97 -166 97 -367q0 -202 -97 -368q-98 -167 -267 -264t-369 -97q-202 0 -369 97t-265 264q-97 166 -97 368q0 201 97 367q99 168 265 265q167 97 369 97q200 0 369 -97zM488 1320q-157 -92 -251 -252q-94 -161 -94 -351t94 -351
q94 -160 251 -252q161 -94 352 -94t352 94t252 252q92 160 92 351t-92 351q-91 158 -252 252q-159 93 -352 93t-352 -93zM596 874q0 104 67 166t171 62q105 0 172 -59q65 -58 65 -152q0 -75 -40 -131q-44 -62 -116 -127l-284 -254h450v-35h-501v33l309 276q70 60 109 117
q36 52 36 121q0 81 -56 128q-57 48 -144 48q-92 0 -148 -51q-55 -51 -55 -144v-14h-35v16z" />
    <glyph glyph-name="uni2782" unicode="&#x2782;" horiz-adv-x="1681" 
d="M1209 1349q169 -97 267 -265q97 -166 97 -367q0 -202 -97 -368q-98 -167 -267 -264t-369 -97q-202 0 -369 97t-265 264q-97 166 -97 368q0 201 97 367q99 168 265 265q167 97 369 97q200 0 369 -97zM488 1320q-157 -92 -251 -252q-94 -161 -94 -351t94 -351
q94 -160 251 -252q161 -94 352 -94t352 94t252 252q92 160 92 351t-92 351q-91 158 -252 252q-159 93 -352 93t-352 -93zM668 1046q66 56 176 56q105 0 170 -55t65 -142q0 -68 -47 -115t-125 -59q90 -15 140 -62q51 -48 51 -126q0 -94 -71 -153q-70 -58 -185 -58
q-124 0 -194 60t-70 165h36q0 -91 63 -141q62 -49 165 -49q96 0 157 48q62 48 62 126q0 80 -64 127t-166 47h-49v28h49q94 0 153 44q58 43 58 116q0 72 -55 118t-143 46q-93 0 -151 -47q-56 -46 -58 -129h-35q0 98 68 155z" />
    <glyph glyph-name="uni2783" unicode="&#x2783;" horiz-adv-x="1681" 
d="M1209 1349q169 -97 267 -265q97 -166 97 -367q0 -202 -97 -368q-98 -167 -267 -264t-369 -97q-202 0 -369 97t-265 264q-97 166 -97 368q0 201 97 367q99 168 265 265q167 97 369 97q200 0 369 -97zM488 1320q-157 -92 -251 -252q-94 -161 -94 -351t94 -351
q94 -160 251 -252q161 -94 352 -94t352 94t252 252q92 160 92 351t-92 351q-91 158 -252 252q-159 93 -352 93t-352 -93zM915 1090h41v-504h131v-35h-131v-207h-36v207h-406v35zM920 1044l-365 -458h365v458z" />
    <glyph glyph-name="uni2784" unicode="&#x2784;" horiz-adv-x="1681" 
d="M1209 1349q169 -97 267 -265q97 -166 97 -367q0 -202 -97 -368q-98 -167 -267 -264t-369 -97q-202 0 -369 97t-265 264q-97 166 -97 368q0 201 97 367q99 168 265 265q167 97 369 97q200 0 369 -97zM488 1320q-157 -92 -251 -252q-94 -161 -94 -351t94 -351
q94 -160 251 -252q161 -94 352 -94t352 94t252 252q92 160 92 351t-92 351q-91 158 -252 252q-159 93 -352 93t-352 -93zM1061 1057h-395l-21 -336q35 54 92 82q56 28 125 28q108 0 177 -69t69 -178q0 -111 -73 -182q-71 -70 -183 -70q-103 0 -171 56t-79 149h35
q11 -77 70 -123q61 -47 145 -47q94 0 157 60q62 59 62 157q0 96 -61 154q-62 59 -158 59q-67 0 -122 -32t-85 -87l-31 2l21 410h426v-33z" />
    <glyph glyph-name="uni2785" unicode="&#x2785;" horiz-adv-x="1681" 
d="M1209 1349q169 -97 267 -265q97 -166 97 -367q0 -202 -97 -368q-98 -167 -267 -264t-369 -97q-202 0 -369 97t-265 264q-97 166 -97 368q0 201 97 367q99 168 265 265q167 97 369 97q200 0 369 -97zM488 1320q-157 -92 -251 -252q-94 -161 -94 -351t94 -351
q94 -160 251 -252q161 -94 352 -94t352 94t252 252q92 160 92 351t-92 351q-91 158 -252 252q-159 93 -352 93t-352 -93zM645 993q77 109 207 109q88 0 154 -54q64 -52 79 -153h-34q-18 85 -72 131q-53 45 -127 45q-115 0 -181 -99q-67 -100 -67 -263q0 -34 8 -125
q-4 94 59 164q63 69 173 69q109 0 175 -66t66 -176q0 -111 -67 -177q-68 -66 -178 -66q-139 0 -205 100t-66 270q0 184 76 291zM992 728q-58 58 -152 58t-153 -57q-58 -57 -58 -151q0 -95 58 -154t153 -59q96 0 153 58q58 60 58 152q0 94 -59 153z" />
    <glyph glyph-name="uni2786" unicode="&#x2786;" horiz-adv-x="1681" 
d="M1209 1349q169 -97 267 -265q97 -166 97 -367q0 -202 -97 -368q-98 -167 -267 -264t-369 -97q-202 0 -369 97t-265 264q-97 166 -97 368q0 201 97 367q99 168 265 265q167 97 369 97q200 0 369 -97zM488 1320q-157 -92 -251 -252q-94 -161 -94 -351t94 -351
q94 -160 251 -252q161 -94 352 -94t352 94t252 252q92 160 92 351t-92 351q-91 158 -252 252q-159 93 -352 93t-352 -93zM600 1092h510v-31l-385 -717h-39l383 715l-469 -2v35z" />
    <glyph glyph-name="uni2787" unicode="&#x2787;" horiz-adv-x="1681" 
d="M1209 1349q169 -97 267 -265q97 -166 97 -367q0 -202 -97 -368q-98 -167 -267 -264t-369 -97q-202 0 -369 97t-265 264q-97 166 -97 368q0 201 97 367q99 168 265 265q167 97 369 97q200 0 369 -97zM488 1320q-157 -92 -251 -252q-94 -161 -94 -351t94 -351
q94 -160 251 -252q161 -94 352 -94t352 94t252 252q92 160 92 351t-92 351q-91 158 -252 252q-159 93 -352 93t-352 -93zM636 669q53 53 140 64q-76 10 -124 60q-48 49 -48 120q0 83 67 136t171 53q102 0 169 -53q66 -52 66 -136q0 -71 -48 -120q-48 -50 -124 -60
q88 -11 141 -64q54 -54 54 -134q0 -88 -73 -146q-72 -57 -185 -57q-116 0 -188 57t-72 146q0 80 54 134zM985 1026q-55 45 -143 45t-145 -45q-56 -44 -56 -115t56 -117t145 -46q88 0 143 46t55 117q0 70 -55 115zM1000 666q-63 51 -158 51q-97 0 -160 -51t-63 -129
q0 -76 63 -124t160 -48q95 0 158 48t63 124q0 78 -63 129z" />
    <glyph glyph-name="uni2788" unicode="&#x2788;" horiz-adv-x="1681" 
d="M1209 1349q169 -97 267 -265q97 -166 97 -367q0 -202 -97 -368q-98 -167 -267 -264t-369 -97q-202 0 -369 97t-265 264q-97 166 -97 368q0 201 97 367q99 168 265 265q167 97 369 97q200 0 369 -97zM488 1320q-157 -92 -251 -252q-94 -161 -94 -351t94 -351
q94 -160 251 -252q161 -94 352 -94t352 94t252 252q92 160 92 351t-92 351q-91 158 -252 252q-159 93 -352 93t-352 -93zM1024 440q-76 -108 -207 -108q-87 0 -153 54q-65 53 -80 153h34q17 -86 71 -131q55 -46 128 -46q114 0 181 100t67 263q0 34 -8 125q4 -94 -59 -164
q-64 -70 -173 -70q-108 0 -175 67q-66 66 -66 175q0 111 67 177q69 67 178 67q139 0 205 -101t66 -270q0 -184 -76 -291zM677 706q59 -59 152 -59t153 58q58 57 58 151q0 95 -58 154t-153 59q-93 0 -152 -57t-59 -154q0 -93 59 -152z" />
    <glyph glyph-name="uni278A" unicode="&#x278a;" horiz-adv-x="1673" 
d="M466 1349q-166 -94 -262 -263q-95 -167 -95 -371q0 -205 95 -372t262 -262t372 -95q204 0 371 95t262 262q96 169 96 372q0 202 -96 371t-262 263q-167 95 -371 95q-205 0 -372 -95zM831 342v549q-6 -14 -32 -14h-150v34h150q14 0 23 11q9 10 9 24v141h35v-745h-35z" />
    <glyph glyph-name="uni278B" unicode="&#x278b;" horiz-adv-x="1673" 
d="M466 1351q-167 -95 -262 -262t-95 -372t95 -372t262 -262t372 -95q204 0 371 95t262 262q96 169 96 372t-96 372q-95 167 -262 262t-371 95q-205 0 -372 -95zM592 874q0 105 66 166q67 62 171 62q105 0 172 -59q66 -59 66 -152q0 -75 -40 -131q-44 -62 -116 -127
l-284 -254h450v-35h-502v33l310 276q70 60 109 117q36 52 36 121q0 81 -56 128q-57 48 -145 48q-91 0 -147 -51q-55 -51 -55 -144v-14h-35v16z" />
    <glyph glyph-name="uni278C" unicode="&#x278c;" horiz-adv-x="1673" 
d="M466 1351q-167 -95 -262 -262t-95 -372t95 -372t262 -262t372 -95q204 0 371 95t262 262q96 169 96 372t-96 372q-95 167 -262 262t-371 95q-205 0 -372 -95zM664 1046q66 56 176 56q105 0 170 -55t65 -142q0 -68 -47 -115t-125 -59q89 -15 139 -62q52 -49 52 -126
q0 -94 -71 -153q-70 -58 -185 -58q-123 0 -194 60t-71 165h37q0 -91 63 -141q62 -49 165 -49q96 0 157 48q62 48 62 126q0 80 -64 127t-166 47h-49v28h49q94 0 153 44q58 43 58 116q0 72 -55 118t-143 46q-93 0 -151 -47q-56 -46 -58 -129h-35q0 98 68 155z" />
    <glyph glyph-name="uni278D" unicode="&#x278d;" horiz-adv-x="1673" 
d="M466 1351q-167 -95 -262 -262t-95 -372t95 -372t262 -262t372 -95q204 0 371 95t262 262q96 169 96 372t-96 372q-95 167 -262 262t-371 95q-205 0 -372 -95zM911 1090h41v-504h131v-35h-131v-207h-37v207h-405v35zM915 1044l-364 -458h364v458z" />
    <glyph glyph-name="uni278E" unicode="&#x278e;" horiz-adv-x="1673" 
d="M466 1351q-167 -95 -262 -262t-95 -372t95 -372t262 -262t372 -95q204 0 371 95t262 262q96 169 96 372t-96 372q-95 167 -262 262t-371 95q-205 0 -372 -95zM1057 1057h-395l-21 -336q35 54 92 82q56 28 125 28q108 0 177 -69t69 -178q0 -111 -73 -182q-71 -70 -183 -70
q-103 0 -171 56t-79 149h35q11 -78 69 -123q61 -47 146 -47q94 0 157 60q62 59 62 157q0 96 -61 154q-62 59 -158 59q-67 0 -122 -32t-85 -87l-31 2l21 410h426v-33z" />
    <glyph glyph-name="uni278F" unicode="&#x278f;" horiz-adv-x="1673" 
d="M466 1351q-167 -95 -262 -262t-95 -372t95 -372t262 -262t372 -95q204 0 371 95t262 262q96 169 96 372t-96 372q-95 167 -262 262t-371 95q-205 0 -372 -95zM641 993q77 109 207 109q87 0 153 -54q65 -53 80 -153h-34q-18 85 -72 131q-52 45 -127 45q-115 0 -181 -99
q-67 -100 -67 -263q0 -34 8 -125q-4 94 59 164q63 69 173 69q109 0 175 -66t66 -176q0 -111 -67 -177q-68 -66 -178 -66q-139 0 -205 100t-66 270q0 184 76 291zM988 728q-58 58 -152 58t-153 -57q-58 -57 -58 -151q0 -95 58 -154t153 -59q96 0 153 58q58 60 58 152
q0 94 -59 153z" />
    <glyph glyph-name="uni2790" unicode="&#x2790;" horiz-adv-x="1673" 
d="M466 1351q-167 -95 -262 -262t-95 -372t95 -372t262 -262t372 -95q204 0 371 95t262 262q96 169 96 372t-96 372q-95 167 -262 262t-371 95q-205 0 -372 -95zM596 1092h510v-31l-385 -717h-39l383 715l-469 -2v35z" />
    <glyph glyph-name="uni2791" unicode="&#x2791;" horiz-adv-x="1673" 
d="M466 1351q-167 -95 -262 -262t-95 -372t95 -372t262 -262t372 -95q204 0 371 95t262 262q96 169 96 372t-96 372q-95 167 -262 262t-371 95q-205 0 -372 -95zM632 669q53 53 140 64q-76 10 -124 60q-48 49 -48 120q0 83 67 136t171 53q102 0 169 -53q66 -52 66 -136
q0 -71 -48 -120q-48 -50 -124 -60q87 -11 140 -64q55 -55 55 -134q0 -88 -73 -146q-72 -57 -185 -57q-116 0 -188 57t-72 146q0 80 54 134zM981 1026q-55 45 -143 45t-145 -45q-56 -44 -56 -115t56 -117t145 -46q88 0 143 46t55 117q0 70 -55 115zM996 666q-63 51 -158 51
q-97 0 -160 -51q-64 -52 -64 -129q0 -75 64 -124q63 -48 160 -48q95 0 158 48t63 124q0 78 -63 129z" />
    <glyph glyph-name="uni2792" unicode="&#x2792;" horiz-adv-x="1673" 
d="M466 1351q-167 -95 -262 -262t-95 -372t95 -372t262 -262t372 -95q204 0 371 95t262 262q96 169 96 372t-96 372q-95 167 -262 262t-371 95q-205 0 -372 -95zM1020 440q-76 -108 -207 -108q-88 0 -154 54q-64 52 -79 153h34q17 -86 71 -131q55 -46 128 -46q114 0 181 100
t67 263q0 34 -8 125q4 -94 -59 -164q-64 -70 -173 -70q-108 0 -175 67q-66 66 -66 175q0 111 67 177q69 67 178 67q139 0 205 -101t66 -270q0 -184 -76 -291zM673 706q59 -59 152 -59t153 58q58 57 58 151q0 95 -58 154t-153 59q-93 0 -152 -57t-59 -154q0 -93 59 -152z" />
    <glyph glyph-name="fl" unicode="&#xfb02;" horiz-adv-x="866" 
d="M201 1034v185q0 115 51 164q53 51 164 51h159v-43h-157q-94 0 -133 -39t-39 -131v-187h327v-43h-327v-991h-45v991h-203v43h203zM690 1434h45v-1434h-45v1434z" />
    <glyph glyph-name="u1F10B" unicode="&#x1f10b;" horiz-adv-x="1681" 
d="M1209 1349q169 -97 267 -265q97 -166 97 -367q0 -202 -97 -368q-98 -167 -267 -264t-369 -97q-202 0 -369 97t-265 264q-97 166 -97 368q0 201 97 367q99 168 265 265q167 97 369 97q200 0 369 -97zM488 1320q-157 -92 -251 -252q-94 -161 -94 -351t94 -351
q94 -160 251 -252q161 -94 352 -94t352 94t252 252q92 160 92 351t-92 351q-91 158 -252 252q-159 93 -352 93t-352 -93zM640 993q77 109 202 109q123 0 200 -109q76 -107 76 -276q0 -170 -76 -277q-76 -108 -200 -108q-126 0 -202 108q-77 109 -77 277q0 167 77 276z
M1017 967q-66 100 -175 100t-175 -100q-67 -102 -67 -250t67 -250q66 -100 175 -100t175 100q66 101 66 250t-66 250z" />
    <glyph glyph-name="u1F10C" unicode="&#x1f10c;" horiz-adv-x="1673" 
d="M466 1351q-167 -95 -262 -262t-95 -372t95 -372t262 -262t372 -95q204 0 371 95t262 262q96 169 96 372t-96 372q-95 167 -262 262t-371 95q-205 0 -372 -95zM636 993q77 109 202 109q123 0 200 -109q76 -107 76 -276q0 -170 -76 -277q-76 -108 -200 -108
q-126 0 -202 108q-77 109 -77 277q0 167 77 276zM1013 967q-66 100 -175 100t-175 -100q-67 -102 -67 -250t67 -250q66 -100 175 -100t175 100q66 101 66 250t-66 250z" />
    <glyph glyph-name="J.ss06" horiz-adv-x="1114" 
d="M129 489q0 -213 102 -335q102 -121 289 -121q196 0 297 108q101 109 101 365v928h47v-926q0 -277 -113 -399q-112 -121 -332 -121q-206 0 -322 132q-116 133 -116 369h47z" />
    <glyph glyph-name="Jcircumflex.ss06" horiz-adv-x="1114" 
d="M129 489q0 -213 102 -335q102 -121 289 -121q196 0 297 108q101 109 101 365v928h47v-926q0 -277 -113 -399q-112 -121 -332 -121q-206 0 -322 132q-116 133 -116 369h47zM942 1802l-235 -233h-50l263 266h45l262 -266h-49z" />
    <glyph glyph-name="Q.ss07" horiz-adv-x="1527" 
d="M1323 317q-97 -175 -262 -260l133 -217h-49l-123 199q-122 -51 -258 -51q-190 0 -339 93q-148 93 -232 259q-84 167 -84 377t84 377q84 166 232 259q149 93 339 93t339 -93q148 -93 232 -259q84 -167 84 -377q0 -226 -96 -400zM1282 339q90 163 90 378q0 198 -78 354
t-216 243t-314 87q-179 0 -317 -87q-139 -87 -215 -243q-76 -155 -76 -354q0 -200 76 -355q76 -154 215 -242q138 -87 317 -87q125 0 233 45l-206 334h49l196 -316q156 80 246 243z" />
    <glyph glyph-name="a.ss01" horiz-adv-x="1185" 
d="M1057 1034v-1034h-41l-6 322q-45 -151 -161 -243q-115 -91 -274 -91q-139 0 -247 66q-109 67 -169 188q-61 124 -61 276t61 274q59 118 169 187q109 68 247 68q157 0 274 -91q116 -91 161 -241l6 319h41zM802 91q98 63 154 174q56 112 56 253q0 140 -56 252
q-55 110 -154 173t-224 63q-126 0 -225 -63t-154 -173q-56 -112 -56 -252q0 -142 56 -254q55 -110 154 -173q97 -62 225 -62q127 0 224 62z" />
    <glyph glyph-name="a.ss02" horiz-adv-x="1040" 
d="M815 952q107 -95 107 -258v-694h-41l-4 252q-44 -124 -151 -194t-277 -70q-166 0 -264 77q-97 76 -97 205q0 144 103 223q102 78 288 78h395v125q0 142 -94 226t-260 84q-139 0 -229 -66q-91 -67 -113 -176h-45q23 130 126 206q104 77 261 77q188 0 295 -95zM874 530
h-399q-159 0 -249 -68q-91 -69 -91 -190q0 -111 85 -177q86 -66 231 -66q196 0 304 98q109 98 119 260v143z" />
    <glyph glyph-name="aacute.ss01" horiz-adv-x="1185" 
d="M1057 1034v-1034h-41l-6 322q-45 -151 -161 -243q-115 -91 -274 -91q-139 0 -247 66q-109 67 -169 188q-61 124 -61 276t61 274q59 118 169 187q109 68 247 68q157 0 274 -91q116 -91 161 -241l6 319h41zM802 91q98 63 154 174q56 112 56 253q0 140 -56 252
q-55 110 -154 173t-224 63q-126 0 -225 -63t-154 -173q-56 -112 -56 -252q0 -142 56 -254q55 -110 154 -173q97 -62 225 -62q127 0 224 62zM561 1171l197 265h55l-211 -265h-41z" />
    <glyph glyph-name="aacute.ss02" horiz-adv-x="1040" 
d="M815 952q107 -95 107 -258v-694h-41l-4 252q-44 -124 -151 -194t-277 -70q-166 0 -264 77q-97 76 -97 205q0 144 103 223q102 78 288 78h395v125q0 142 -94 226t-260 84q-139 0 -229 -66q-91 -67 -113 -176h-45q23 130 126 206q104 77 261 77q188 0 295 -95zM874 530
h-399q-159 0 -249 -68q-91 -69 -91 -190q0 -111 85 -177q86 -66 231 -66q196 0 304 98q109 98 119 260v143zM502 1171l196 265h56l-211 -265h-41z" />
    <glyph glyph-name="abreve.ss01" horiz-adv-x="1185" 
d="M1057 1034v-1034h-41l-6 322q-45 -151 -161 -243q-115 -91 -274 -91q-139 0 -247 66q-109 67 -169 188q-61 124 -61 276t61 274q59 118 169 187q109 68 247 68q157 0 274 -91q116 -91 161 -241l6 319h41zM802 91q98 63 154 174q56 112 56 253q0 140 -56 252
q-55 110 -154 173t-224 63q-126 0 -225 -63t-154 -173q-56 -112 -56 -252q0 -142 56 -254q55 -110 154 -173q97 -62 225 -62q127 0 224 62zM383 1436q0 -88 54 -145q53 -56 138 -56q89 0 145 56t56 145h39q0 -107 -67 -173q-69 -67 -173 -67q-101 0 -166 67t-65 173h39z" />
    <glyph glyph-name="abreve.ss02" horiz-adv-x="1040" 
d="M815 952q107 -95 107 -258v-694h-41l-4 252q-44 -124 -151 -194t-277 -70q-166 0 -264 77q-97 76 -97 205q0 144 103 223q102 78 288 78h395v125q0 142 -94 226t-260 84q-139 0 -229 -66q-91 -67 -113 -176h-45q23 130 126 206q104 77 261 77q188 0 295 -95zM874 530
h-399q-159 0 -249 -68q-91 -69 -91 -190q0 -111 85 -177q86 -66 231 -66q196 0 304 98q109 98 119 260v143zM324 1436q0 -88 54 -145q53 -56 138 -56q88 0 144 56q57 57 57 145h39q0 -107 -68 -173q-69 -67 -172 -67q-102 0 -167 67q-64 65 -64 173h39z" />
    <glyph glyph-name="acircumflex.ss01" horiz-adv-x="1185" 
d="M1057 1034v-1034h-41l-6 322q-45 -151 -161 -243q-115 -91 -274 -91q-139 0 -247 66q-109 67 -169 188q-61 124 -61 276t61 274q59 118 169 187q109 68 247 68q157 0 274 -91q116 -91 161 -241l6 319h41zM802 91q98 63 154 174q56 112 56 253q0 140 -56 252
q-55 110 -154 173t-224 63q-126 0 -225 -63t-154 -173q-56 -112 -56 -252q0 -142 56 -254q55 -110 154 -173q97 -62 225 -62q127 0 224 62zM580 1403l-236 -234h-49l262 267h45l262 -267h-49z" />
    <glyph glyph-name="acircumflex.ss02" horiz-adv-x="1040" 
d="M815 952q107 -95 107 -258v-694h-41l-4 252q-44 -124 -151 -194t-277 -70q-166 0 -264 77q-97 76 -97 205q0 144 103 223q102 78 288 78h395v125q0 142 -94 226t-260 84q-139 0 -229 -66q-91 -67 -113 -176h-45q23 130 126 206q104 77 261 77q188 0 295 -95zM874 530
h-399q-159 0 -249 -68q-91 -69 -91 -190q0 -111 85 -177q86 -66 231 -66q196 0 304 98q109 98 119 260v143zM520 1403l-235 -234h-49l262 267h45l262 -267h-49z" />
    <glyph glyph-name="adieresis.ss01" horiz-adv-x="1185" 
d="M1057 1034v-1034h-41l-6 322q-45 -151 -161 -243q-115 -91 -274 -91q-139 0 -247 66q-109 67 -169 188q-61 124 -61 276t61 274q59 118 169 187q109 68 247 68q157 0 274 -91q116 -91 161 -241l6 319h41zM802 91q98 63 154 174q56 112 56 253q0 140 -56 252
q-55 110 -154 173t-224 63q-126 0 -225 -63t-154 -173q-56 -112 -56 -252q0 -142 56 -254q55 -110 154 -173q97 -62 225 -62q127 0 224 62zM392 1366q12 12 30 12q17 0 29 -12t12 -29q0 -15 -12 -27t-29 -12q-18 0 -30 12q-11 11 -11 27q0 18 11 29zM709 1366q12 12 28 12
q18 0 30 -12q11 -11 11 -29q0 -16 -11 -27q-12 -12 -30 -12q-16 0 -28 12q-13 13 -13 27q0 16 13 29z" />
    <glyph glyph-name="adieresis.ss02" horiz-adv-x="1040" 
d="M815 952q107 -95 107 -258v-694h-41l-4 252q-44 -124 -151 -194t-277 -70q-166 0 -264 77q-97 76 -97 205q0 144 103 223q102 78 288 78h395v125q0 142 -94 226t-260 84q-139 0 -229 -66q-91 -67 -113 -176h-45q23 130 126 206q104 77 261 77q188 0 295 -95zM874 530
h-399q-159 0 -249 -68q-91 -69 -91 -190q0 -111 85 -177q86 -66 231 -66q196 0 304 98q109 98 119 260v143zM333 1366q12 12 29 12t29 -12t12 -29q0 -15 -12 -27t-29 -12t-29 12q-11 11 -11 27q0 18 11 29zM649 1366q12 12 29 12q18 0 30 -12q11 -11 11 -29q0 -16 -11 -27
q-12 -12 -30 -12q-17 0 -29 12t-12 27q0 17 12 29z" />
    <glyph glyph-name="agrave.ss01" horiz-adv-x="1185" 
d="M1057 1034v-1034h-41l-6 322q-45 -151 -161 -243q-115 -91 -274 -91q-139 0 -247 66q-109 67 -169 188q-61 124 -61 276t61 274q59 118 169 187q109 68 247 68q157 0 274 -91q116 -91 161 -241l6 319h41zM802 91q98 63 154 174q56 112 56 253q0 140 -56 252
q-55 110 -154 173t-224 63q-126 0 -225 -63t-154 -173q-56 -112 -56 -252q0 -142 56 -254q55 -110 154 -173q97 -62 225 -62q127 0 224 62zM350 1436h53l197 -265h-43z" />
    <glyph glyph-name="agrave.ss02" horiz-adv-x="1040" 
d="M815 952q107 -95 107 -258v-694h-41l-4 252q-44 -124 -151 -194t-277 -70q-166 0 -264 77q-97 76 -97 205q0 144 103 223q102 78 288 78h395v125q0 142 -94 226t-260 84q-139 0 -229 -66q-91 -67 -113 -176h-45q23 130 126 206q104 77 261 77q188 0 295 -95zM874 530
h-399q-159 0 -249 -68q-91 -69 -91 -190q0 -111 85 -177q86 -66 231 -66q196 0 304 98q109 98 119 260v143zM291 1436h53l197 -265h-43z" />
    <glyph glyph-name="amacron.ss01" horiz-adv-x="1185" 
d="M1057 1034v-1034h-41l-6 322q-45 -151 -161 -243q-115 -91 -274 -91q-139 0 -247 66q-109 67 -169 188q-61 124 -61 276t61 274q59 118 169 187q109 68 247 68q157 0 274 -91q116 -91 161 -241l6 319h41zM802 91q98 63 154 174q56 112 56 253q0 140 -56 252
q-55 110 -154 173t-224 63q-126 0 -225 -63t-154 -173q-56 -112 -56 -252q0 -142 56 -254q55 -110 154 -173q97 -62 225 -62q127 0 224 62zM336 1319v39h487v-39h-487z" />
    <glyph glyph-name="amacron.ss02" horiz-adv-x="1040" 
d="M815 952q107 -95 107 -258v-694h-41l-4 252q-44 -124 -151 -194t-277 -70q-166 0 -264 77q-97 76 -97 205q0 144 103 223q102 78 288 78h395v125q0 142 -94 226t-260 84q-139 0 -229 -66q-91 -67 -113 -176h-45q23 130 126 206q104 77 261 77q188 0 295 -95zM874 530
h-399q-159 0 -249 -68q-91 -69 -91 -190q0 -111 85 -177q86 -66 231 -66q196 0 304 98q109 98 119 260v143zM276 1319v39h488v-39h-488z" />
    <glyph glyph-name="aogonek.ss01" horiz-adv-x="1185" 
d="M1075 -373v-37h-121q-78 0 -123 39t-45 109q0 72 58 135q54 58 172 139l-6 310q-45 -151 -161 -243q-115 -91 -274 -91q-139 0 -247 66q-109 67 -169 188q-61 124 -61 276t61 274q59 118 169 187q109 68 247 68q157 0 274 -91q116 -91 161 -241l6 319h41v-1034
q-93 -65 -130 -95q-42 -35 -72 -75t-30 -88q0 -55 35 -85q34 -30 101 -30h114zM802 91q98 63 154 174q56 112 56 253q0 140 -56 252q-55 110 -154 173t-224 63q-126 0 -225 -63t-154 -173q-56 -112 -56 -252q0 -142 56 -254q55 -110 154 -173q97 -62 225 -62q127 0 224 62z
" />
    <glyph glyph-name="aogonek.ss02" horiz-adv-x="1040" 
d="M942 -373v-37h-121q-78 0 -123 39t-45 109q0 73 57 133q56 59 171 139l-4 242q-44 -124 -151 -194t-277 -70q-166 0 -264 77q-97 76 -97 205q0 144 103 223q102 78 288 78h395v125q0 142 -94 226t-260 84q-139 0 -229 -66q-91 -67 -113 -176h-45q23 130 126 206
q104 77 261 77q188 0 295 -95t107 -258v-694h2q-93 -65 -130 -95q-42 -35 -72 -75t-30 -88q0 -55 35 -85t100 -30h115zM874 530h-399q-159 0 -249 -68q-91 -69 -91 -190q0 -111 85 -177q86 -66 231 -66q196 0 304 98q109 98 119 260v143z" />
    <glyph glyph-name="aring.ss01" horiz-adv-x="1185" 
d="M1057 1034v-1034h-41l-6 322q-45 -151 -161 -243q-115 -91 -274 -91q-139 0 -247 66q-109 67 -169 188q-61 124 -61 276t61 274q59 118 169 187q109 68 247 68q157 0 274 -91q116 -91 161 -241l6 319h41zM802 91q98 63 154 174q56 112 56 253q0 140 -56 252
q-55 110 -154 173t-224 63q-126 0 -225 -63t-154 -173q-56 -112 -56 -252q0 -142 56 -254q55 -110 154 -173q97 -62 225 -62q127 0 224 62zM425 1519q64 64 155 64q90 0 154 -64q65 -65 65 -155q0 -91 -65 -154q-64 -63 -154 -63t-155 63t-65 154q0 90 65 155zM712 1496
q-54 54 -132 54q-79 0 -133 -54t-54 -132t54 -131q55 -53 133 -53q77 0 132 53q54 53 54 131t-54 132z" />
    <glyph glyph-name="aring.ss02" horiz-adv-x="1040" 
d="M815 952q107 -95 107 -258v-694h-41l-4 252q-44 -124 -151 -194t-277 -70q-166 0 -264 77q-97 76 -97 205q0 144 103 223q102 78 288 78h395v125q0 142 -94 226t-260 84q-139 0 -229 -66q-91 -67 -113 -176h-45q23 130 126 206q104 77 261 77q188 0 295 -95zM874 530
h-399q-159 0 -249 -68q-91 -69 -91 -190q0 -111 85 -177q86 -66 231 -66q196 0 304 98q109 98 119 260v143zM366 1519q64 64 154 64q91 0 155 -64t64 -155t-64 -154q-65 -63 -155 -63t-154 63q-65 63 -65 154q0 90 65 155zM652 1496q-54 54 -132 54t-132 -54t-54 -132
t54 -131q55 -53 132 -53t132 53t55 131q0 77 -55 132z" />
    <glyph glyph-name="atilde.ss01" horiz-adv-x="1185" 
d="M1057 1034v-1034h-41l-6 322q-45 -151 -161 -243q-115 -91 -274 -91q-139 0 -247 66q-109 67 -169 188q-61 124 -61 276t61 274q59 118 169 187q109 68 247 68q157 0 274 -91q116 -91 161 -241l6 319h41zM802 91q98 63 154 174q56 112 56 253q0 140 -56 252
q-55 110 -154 173t-224 63q-126 0 -225 -63t-154 -173q-56 -112 -56 -252q0 -142 56 -254q55 -110 154 -173q97 -62 225 -62q127 0 224 62zM398 1339q-23 -32 -23 -79h-33v6q0 60 33 101q33 40 92 40q44 0 70 -16q22 -14 55 -48q22 -27 45 -43q21 -14 55 -14q45 0 69 33
q23 32 23 80h33v-6q0 -61 -33 -102q-33 -40 -92 -40q-41 0 -69 17q-27 17 -56 47q-22 27 -45 43q-21 14 -55 14q-45 0 -69 -33z" />
    <glyph glyph-name="atilde.ss02" horiz-adv-x="1040" 
d="M815 952q107 -95 107 -258v-694h-41l-4 252q-44 -124 -151 -194t-277 -70q-166 0 -264 77q-97 76 -97 205q0 144 103 223q102 78 288 78h395v125q0 142 -94 226t-260 84q-139 0 -229 -66q-91 -67 -113 -176h-45q23 130 126 206q104 77 261 77q188 0 295 -95zM874 530
h-399q-159 0 -249 -68q-91 -69 -91 -190q0 -111 85 -177q86 -66 231 -66q196 0 304 98q109 98 119 260v143zM339 1339q-24 -33 -24 -79h-32v6q0 62 32 101q33 40 93 40q43 0 69 -16q22 -14 55 -48q21 -26 46 -43q21 -14 55 -14q44 0 68 33t24 80h33v-6q0 -61 -33 -102
q-33 -40 -92 -40q-42 0 -70 17q-25 15 -55 47q-22 27 -45 43q-21 14 -55 14q-45 0 -69 -33z" />
    <glyph glyph-name="f.calt" horiz-adv-x="491" 
d="M180 1383q53 51 164 51h160v-43h-158q-94 0 -133 -39t-39 -131v-187h328v-43h-328v-991h-45v1219q0 115 51 164z" />
    <glyph glyph-name="i.ss03" horiz-adv-x="339" 
d="M217 1381q12 -12 12 -29q0 -16 -12 -28q-11 -11 -29 -11t-29 11q-12 12 -12 28q0 17 12 29t29 12t29 -12zM166 991h-162v43h207v-1034h-45v991z" />
    <glyph glyph-name="dotlessi.ss03" horiz-adv-x="339" 
d="M4 1034h207v-1034h-45v991h-162v43z" />
    <glyph glyph-name="iacute.ss03" horiz-adv-x="339" 
d="M4 1034h207v-1034h-45v991h-162v43zM168 1171l197 265h55l-211 -265h-41z" />
    <glyph glyph-name="ibreve.ss03" horiz-adv-x="339" 
d="M4 1034h207v-1034h-45v991h-162v43zM-10 1436q0 -88 54 -145q53 -56 138 -56q89 0 145 56t56 145h39q0 -107 -68 -173q-69 -67 -172 -67q-102 0 -167 67q-64 65 -64 173h39z" />
    <glyph glyph-name="icircumflex.ss03" horiz-adv-x="339" 
d="M4 1034h207v-1034h-45v991h-162v43zM186 1403l-235 -234h-49l262 267h45l262 -267h-49z" />
    <glyph glyph-name="idieresis.ss03" horiz-adv-x="339" 
d="M4 1034h207v-1034h-45v991h-162v43zM-1 1366q12 12 30 12q16 0 28 -12q13 -13 13 -29q0 -14 -13 -27q-12 -12 -28 -12q-18 0 -30 12q-11 11 -11 27q0 18 11 29zM315 1366q12 12 29 12q18 0 30 -12q11 -11 11 -29q0 -16 -11 -27q-12 -12 -30 -12q-17 0 -29 12t-12 27
q0 17 12 29z" />
    <glyph glyph-name="i.loclTRK" horiz-adv-x="305" 
d="M129 1034h45v-1034h-45v1034zM125 1381q12 12 29 12q16 0 28 -12q13 -13 13 -27q0 -15 -13 -28q-11 -11 -28 -11q-18 0 -29 11q-12 12 -12 28q0 15 12 27z" />
    <glyph glyph-name="i.loclTRK.ss03" horiz-adv-x="339" 
d="M4 1034h207v-1034h-45v991h-162v43zM158 1381q12 12 28 12q17 0 29 -12t12 -27q0 -16 -12 -28q-11 -11 -29 -11q-17 0 -28 11q-13 13 -13 28q0 14 13 27z" />
    <glyph glyph-name="igrave.ss03" horiz-adv-x="339" 
d="M4 1034h207v-1034h-45v991h-162v43zM-43 1436h53l197 -265h-43z" />
    <glyph glyph-name="ij.ss03" horiz-adv-x="647" 
d="M181 1381q12 -12 12 -29q0 -16 -12 -28q-11 -11 -29 -11q-17 0 -28 11t-11 28q0 18 11 29q12 12 28 12q17 0 29 -12zM129 1034h45v-1034h-45v1034zM466 1381q12 12 28 12q17 0 29 -12t12 -29q0 -16 -12 -28q-11 -11 -29 -11q-17 0 -28 11t-11 28q0 18 11 29zM301 -367
q92 0 131 39t39 131v1188h-160v43h205v-1229q0 -114 -50 -164q-51 -51 -163 -51h-121v43h119z" />
    <glyph glyph-name="ij.ss04" horiz-adv-x="610" 
d="M181 1381q12 -12 12 -29q0 -16 -12 -28q-11 -11 -29 -11q-17 0 -28 11t-11 28q0 18 11 29q12 12 28 12q17 0 29 -12zM129 1034h45v-1034h-45v1034zM429 1381q12 12 28 12q17 0 29 -12t12 -29q0 -16 -12 -28q-11 -11 -29 -11q-17 0 -28 11t-11 28q0 18 11 29zM434 1034h45
v-1444h-45v1444z" />
    <glyph glyph-name="imacron.ss01" horiz-adv-x="339" 
d="M4 1034h207v-1034h-45v991h-162v43zM-57 1319v39h487v-39h-487z" />
    <glyph glyph-name="iogonek.ss03" horiz-adv-x="339" 
d="M159 1324q-12 12 -12 28q0 17 12 29t29 12t29 -12t12 -29q0 -16 -12 -28q-11 -11 -29 -11t-29 11zM14 -343q34 -30 101 -30h114v-37h-120q-78 0 -123 39t-45 109q0 74 56 133q57 60 169 139v981h-162v43h207v-1034q-93 -65 -130 -95q-42 -35 -72 -75q-29 -39 -29 -88
q0 -55 34 -85z" />
    <glyph glyph-name="itilde.ss03" horiz-adv-x="339" 
d="M4 1034h207v-1034h-45v991h-162v43zM5 1339q-23 -32 -23 -79h-33v6q0 60 33 101q33 40 92 40q43 0 69 -16q25 -15 56 -48q22 -27 45 -43q21 -14 55 -14q45 0 69 33q23 32 23 80h33v-6q0 -61 -33 -102q-33 -40 -92 -40q-42 0 -70 17q-25 15 -55 47q-22 27 -45 43
q-21 14 -55 14q-45 0 -69 -33z" />
    <glyph glyph-name="j.short" horiz-adv-x="317" 
d="M136 1381q12 12 28 12q18 0 30 -12q11 -11 11 -29q0 -17 -11 -28t-30 -11q-17 0 -28 11t-11 28q0 18 11 29zM-29 -367q92 0 131 39t39 131v1231h45v-1229q0 -114 -50 -164q-51 -51 -163 -51h-51v43h49z" />
    <glyph glyph-name="j.ss03" horiz-adv-x="342" 
d="M161 1381q12 12 27 12q18 0 30 -12q11 -11 11 -29q0 -17 -11 -28t-30 -11q-16 0 -27 11t-11 28q0 18 11 29zM-4 -367q92 0 131 39t39 131v1188h-160v43h205v-1229q0 -114 -50 -164q-51 -51 -163 -51h-121v43h119z" />
    <glyph glyph-name="j.ss04" horiz-adv-x="305" 
d="M124 1381q12 12 28 12q17 0 29 -12t12 -29q0 -16 -12 -28q-11 -11 -29 -11q-17 0 -28 11t-11 28q0 18 11 29zM129 1034h45v-1444h-45v1444z" />
    <glyph glyph-name="uni0237.short" horiz-adv-x="317" 
d="M-29 -367q92 0 131 39t39 131v1231h45v-1229q0 -114 -50 -164q-51 -51 -163 -51h-51v43h49z" />
    <glyph glyph-name="uni0237.ss03" horiz-adv-x="342" 
d="M-4 -367q92 0 131 39t39 131v1188h-160v43h205v-1229q0 -114 -50 -164q-51 -51 -163 -51h-121v43h119z" />
    <glyph glyph-name="uni0237.ss04" horiz-adv-x="305" 
d="M129 1034h45v-1444h-45v1444z" />
    <glyph glyph-name="jcircumflex.short" horiz-adv-x="317" 
d="M-29 -367q92 0 131 39t39 131v1231h45v-1229q0 -114 -50 -164q-51 -51 -163 -51h-51v43h49zM166 1403l-236 -234h-49l262 267h45l263 -267h-50z" />
    <glyph glyph-name="jcircumflex.ss03" horiz-adv-x="342" 
d="M-4 -367q92 0 131 39t39 131v1188h-160v43h205v-1229q0 -114 -50 -164q-51 -51 -163 -51h-121v43h119zM190 1403l-235 -234h-49l262 267h45l262 -267h-49z" />
    <glyph glyph-name="jcircumflex.ss04" horiz-adv-x="305" 
d="M129 1034h45v-1444h-45v1444zM154 1403l-236 -234h-49l262 267h45l262 -267h-49z" />
    <glyph glyph-name="t.calt" horiz-adv-x="503" 
d="M129 1323h45v-289h289v-43h-289v-776q0 -94 39 -133t133 -39h123v-43h-125q-115 0 -165 50t-50 165v1108z" />
    <glyph glyph-name="t.ss05" horiz-adv-x="550" 
d="M-2 1034h203v289h45v-289h284v-43h-284v-991h-45v991h-203v43z" />
    <glyph glyph-name="tbar.calt" horiz-adv-x="503" 
d="M174 991v-373h289v-40h-289v-363q0 -94 39 -133t133 -39h123v-43h-125q-115 0 -165 50t-50 165v1108h45v-289h289v-43h-289z" />
    <glyph glyph-name="tbar.ss05" horiz-adv-x="567" 
d="M539 991h-285v-375h285v-41h-285v-575h-45v575h-205v41h205v375h-205v43h205v289h45v-289h285v-43z" />
    <glyph glyph-name="tcaron.calt" horiz-adv-x="503" 
d="M129 1323h45v-289h289v-43h-289v-776q0 -94 39 -133t133 -39h123v-43h-125q-115 0 -165 50t-50 165v1108zM389 1456h45l-100 -295h-35z" />
    <glyph glyph-name="tcaron.ss05" horiz-adv-x="550" 
d="M-2 1034h203v289h45v-289h284v-43h-284v-991h-45v991h-203v43zM465 1438h45l-100 -295h-35z" />
    <glyph glyph-name="uni0163.calt" horiz-adv-x="503" 
d="M129 1323h45v-289h289v-43h-289v-776q0 -94 39 -133t133 -39h123v-43h-125q-115 0 -165 50t-50 165v1108zM256 -111h43l-98 -284h-35z" />
    <glyph glyph-name="uni0163.ss05" horiz-adv-x="550" 
d="M-2 1034h203v289h45v-289h284v-43h-284v-991h-45v991h-203v43zM201 -111h43l-99 -284h-34z" />
    <glyph glyph-name="uni021B.calt" horiz-adv-x="503" 
d="M129 1323h45v-289h289v-43h-289v-776q0 -94 39 -133t133 -39h123v-43h-125q-115 0 -165 50t-50 165v1108zM256 -111h43l-98 -284h-35z" />
    <glyph glyph-name="uni021B.ss05" horiz-adv-x="550" 
d="M-2 1034h203v289h45v-289h284v-43h-284v-991h-45v991h-203v43zM201 -111h43l-99 -284h-34z" />
    <glyph glyph-name="y.ss01" horiz-adv-x="1081" 
d="M950 1034v-1016q0 -211 -108 -325q-109 -115 -316 -115q-172 0 -275 81q-103 80 -130 235h47q27 -134 118 -204q92 -71 242 -71q183 0 280 103t97 296v308q-41 -158 -143 -247q-103 -89 -254 -89q-176 0 -283 119q-106 118 -106 342v583h45v-581q0 -201 95 -311
q94 -109 255 -109q118 0 206 61q90 62 137 175q48 114 48 266v499h45z" />
    <glyph glyph-name="yacute.ss01" horiz-adv-x="1081" 
d="M950 1034v-1016q0 -211 -108 -325q-109 -115 -316 -115q-172 0 -275 81q-103 80 -130 235h47q27 -134 118 -204q92 -71 242 -71q183 0 280 103t97 296v308q-41 -158 -143 -247q-103 -89 -254 -89q-176 0 -283 119q-106 118 -106 342v583h45v-581q0 -201 95 -311
q94 -109 255 -109q118 0 206 61q90 62 137 175q48 114 48 266v499h45zM518 1171l197 265h55l-211 -265h-41z" />
    <glyph glyph-name="ycircumflex.ss01" horiz-adv-x="1081" 
d="M950 1034v-1016q0 -211 -108 -325q-109 -115 -316 -115q-172 0 -275 81q-103 80 -130 235h47q27 -134 118 -204q92 -71 242 -71q183 0 280 103t97 296v308q-41 -158 -143 -247q-103 -89 -254 -89q-176 0 -283 119q-106 118 -106 342v583h45v-581q0 -201 95 -311
q94 -109 255 -109q118 0 206 61q90 62 137 175q48 114 48 266v499h45zM537 1403l-236 -234h-49l262 267h45l262 -267h-49z" />
    <glyph glyph-name="ydieresis.ss01" horiz-adv-x="1081" 
d="M950 1034v-1016q0 -211 -108 -325q-109 -115 -316 -115q-172 0 -275 81q-103 80 -130 235h47q27 -134 118 -204q92 -71 242 -71q183 0 280 103t97 296v308q-41 -158 -143 -247q-103 -89 -254 -89q-176 0 -283 119q-106 118 -106 342v583h45v-581q0 -201 95 -311
q94 -109 255 -109q118 0 206 61q90 62 137 175q48 114 48 266v499h45zM349 1366q12 12 30 12q17 0 29 -12t12 -29q0 -15 -12 -27t-29 -12q-18 0 -30 12q-11 11 -11 27q0 18 11 29zM666 1366q12 12 28 12q18 0 30 -12q11 -11 11 -29q0 -16 -11 -27q-12 -12 -30 -12
q-16 0 -28 12q-13 13 -13 27q0 16 13 29z" />
    <glyph glyph-name="ygrave.ss01" horiz-adv-x="1081" 
d="M950 1034v-1016q0 -211 -108 -325q-109 -115 -316 -115q-172 0 -275 81q-103 80 -130 235h47q27 -134 118 -204q92 -71 242 -71q183 0 280 103t97 296v308q-41 -158 -143 -247q-103 -89 -254 -89q-176 0 -283 119q-106 118 -106 342v583h45v-581q0 -201 95 -311
q94 -109 255 -109q118 0 206 61q90 62 137 175q48 114 48 266v499h45zM307 1436h53l197 -265h-43z" />
    <glyph glyph-name="w_w_w" horiz-adv-x="4538" 
d="M4465 1034h47l-387 -1034h-49l-328 965l-348 -965h-49l-342 969l-363 -969h-49l-328 965l-348 -965h-49l-342 969l-363 -969h-49l-327 965l-349 -965h-49l-364 1034h47l344 -975l350 975h45l328 -975l364 975h47l344 -975l351 975h45l327 -975l365 975h47l344 -975
l350 975h45l328 -975z" />
    <glyph glyph-name="zero.osf" horiz-adv-x="1251" 
d="M177 785q70 123 188 192q120 70 262 70q140 0 260 -70q116 -68 187 -192q69 -121 69 -267t-69 -268q-70 -123 -186 -192q-118 -70 -261 -70t-262 69q-118 69 -188 192q-68 120 -68 269q0 147 68 267zM1035 763q-63 111 -171 177t-237 66q-131 0 -239 -66
q-106 -65 -170 -177q-62 -109 -62 -245q0 -138 62 -247q64 -112 170 -177t239 -65q131 0 237 65q108 66 171 178t63 246t-63 245z" />
    <glyph glyph-name="one.osf" horiz-adv-x="497" 
d="M207 741q42 0 66 26q24 25 24 71v196h43v-1034h-45v737q-27 -37 -88 -37h-205v41h205z" />
    <glyph glyph-name="two.osf" horiz-adv-x="1017" 
d="M920 41v-41h-842v39l483 321q99 68 153 115q57 49 88 109q32 61 32 137q0 125 -95 205t-243 80q-153 0 -254 -93q-99 -91 -99 -235v-35h-47v35q0 106 51 190t142 131q93 48 207 48q168 0 276 -91q107 -90 107 -233q0 -119 -66 -201q-63 -79 -213 -180l-453 -301h773z" />
    <glyph glyph-name="three.osf" horiz-adv-x="1136" 
d="M919 242q99 -90 99 -236q0 -112 -59 -201q-58 -87 -163 -137q-104 -49 -241 -49q-218 0 -346 111q-127 111 -127 301h45q0 -174 116 -273q114 -98 312 -98q118 0 214 44q97 45 150 123q54 79 54 179q0 146 -116 233q-115 87 -308 87h-100v43h98q117 0 207 41
q88 40 136 111t48 159q0 95 -48 167q-49 74 -134 114q-84 40 -197 40q-179 0 -286 -88t-107 -239h-45q0 171 121 270q120 98 319 98q125 0 220 -45q98 -47 149 -127q53 -83 53 -186q0 -135 -91 -226q-92 -92 -247 -108q175 -18 274 -108z" />
    <glyph glyph-name="four.osf" horiz-adv-x="1153" 
d="M821 1034h53v-991h240v-43h-240v-369h-45v369h-770v43zM829 981l-718 -938h718v938z" />
    <glyph glyph-name="five.osf" horiz-adv-x="1173" 
d="M849 493q102 -59 160 -166q56 -103 56 -241q0 -146 -64 -253q-64 -106 -168 -160q-105 -54 -231 -54q-138 0 -241 57q-102 56 -160 154q-59 99 -66 213h45q10 -104 63 -191q53 -88 144 -140t215 -52q112 0 207 50q94 49 152 147q57 96 57 229q0 120 -51 218
q-51 97 -146 153q-94 55 -219 55q-138 0 -244 -68q-105 -67 -151 -188l-45 4l55 772h758v-43h-717l-49 -659q51 103 160 164q105 59 239 59q138 0 241 -60z" />
    <glyph glyph-name="six.osf" horiz-adv-x="1191" 
d="M918 1319q109 -103 137 -268h-45q-29 147 -126 239q-94 90 -253 90q-235 0 -353 -181t-118 -478q0 -170 37 -291q-4 21 -4 43q0 130 56 230q57 101 158 158q102 57 230 57q132 0 232 -59q101 -60 153 -164q53 -106 53 -240q0 -140 -56 -243q-57 -105 -160 -165
q-102 -59 -238 -59q-143 0 -245 65q-104 66 -161 185q-48 94 -73 218t-25 259q0 317 129 512q128 194 385 194q179 0 287 -102zM415 824q-96 -53 -148 -147t-52 -218q0 -127 50 -225q48 -95 143 -151q92 -54 215 -54q121 0 213 53t143 149t51 222q0 191 -107 307
q-108 117 -292 117q-121 0 -216 -53z" />
    <glyph glyph-name="seven.osf" horiz-adv-x="995" 
d="M33 1034h901v-41l-713 -1362h-49l711 1360h-850v43z" />
    <glyph glyph-name="eight.osf" horiz-adv-x="1187" 
d="M977 603q100 -97 100 -243q0 -108 -60 -192t-171 -132t-252 -48q-143 0 -254 48t-171 132t-60 192q0 144 101 242q102 99 263 121q-143 27 -232 117q-89 91 -89 223q0 104 55 186t155 127t232 45q130 0 231 -45t156 -127t55 -186q0 -131 -90 -222q-91 -92 -233 -116
q163 -24 264 -122zM247 898q50 -73 141 -113q90 -40 206 -40t205 40q90 41 140 113q50 73 50 165t-50 165q-50 72 -140 113q-91 41 -205 41q-116 0 -206 -40q-92 -41 -141 -112q-50 -73 -50 -167q0 -92 50 -165zM819 70q101 44 157 119t56 174t-56 176q-57 78 -157 121
q-104 45 -225 45q-123 0 -227 -45q-101 -44 -156 -121t-55 -176t56 -174t156 -119q98 -43 226 -43q126 0 225 43z" />
    <glyph glyph-name="nine.osf" horiz-adv-x="1191" 
d="M1050 581q25 -124 25 -257q0 -316 -130 -510q-131 -195 -384 -195q-179 0 -287 102t-137 269h45q30 -148 126 -240q94 -90 253 -90q236 0 354 181q119 182 119 476q0 162 -39 293q2 -16 2 -39q0 -131 -55 -232t-156 -158q-99 -56 -231 -56q-134 0 -232 58
q-101 60 -153 163q-53 106 -53 238q0 136 56 239q57 105 160 163t238 58q142 0 245 -64q105 -65 161 -181q48 -94 73 -218zM269 282q108 -116 292 -116q122 0 217 53q93 52 147 149q52 94 52 216t-50 219q-49 94 -144 148q-94 53 -214 53q-185 0 -296 -116t-111 -304
t107 -302z" />
    <glyph glyph-name="one.osf.ss08" horiz-adv-x="1228" 
d="M1085 41v-41h-919v41h426v698q-28 -39 -88 -39h-285v39h285q42 0 65 26t23 71v198h45v-993h448z" />
    <glyph glyph-name="seven.osf.ss08" horiz-adv-x="1071" 
d="M88 1034h922v-41l-713 -1362h-49l710 1360h-829v-307h-41v350z" />
    <glyph glyph-name="four.osf.ss09" horiz-adv-x="1040" 
d="M821 1034h53v-1403h-45v369h-770v43zM829 981l-718 -938h718v938z" />
    <glyph glyph-name="zero.osf.zero" horiz-adv-x="1251" 
d="M887 977q116 -68 187 -192q69 -121 69 -267t-69 -268q-70 -123 -186 -192q-118 -70 -261 -70t-262 69q-118 69 -188 192q-68 120 -68 269q0 147 68 267q70 123 188 192q120 70 262 70q140 0 260 -70zM388 940q-106 -65 -170 -177q-62 -109 -62 -245q0 -95 31 -179
t89 -151l678 682q-68 68 -149 101q-85 35 -178 35q-131 0 -239 -66zM864 94q108 66 171 178t63 246q0 93 -32 178q-31 84 -89 152l-678 -686q66 -66 148 -99q84 -34 180 -34q131 0 237 65z" />
    <glyph glyph-name="one.ss08" horiz-adv-x="1048" 
d="M952 43v-43h-893v43h435v1079q-24 -39 -84 -39h-260v43h256q88 0 88 97v211h45v-1391h413z" />
    <glyph glyph-name="seven.ss08" horiz-adv-x="1132" 
d="M1073 1434v-37l-778 -1397h-51l778 1391h-883v-308h-41v351h975z" />
    <glyph glyph-name="four.ss09" horiz-adv-x="1085" 
d="M834 1432h55v-1434h-45v399h-793v45zM844 1378l-742 -936h742v936z" />
    <glyph glyph-name="zero.tf" horiz-adv-x="1228" 
d="M127 752q0 202 60 360q61 159 171 247q112 89 256 89t256 -89q110 -88 171 -247q61 -160 61 -360v-66q0 -200 -61 -360q-61 -159 -171 -247q-112 -89 -256 -89t-256 89q-110 88 -171 247q-60 158 -60 360v66zM1057 750q0 189 -56 339q-56 149 -155 232q-101 84 -232 84
q-130 0 -231 -84t-156 -232q-55 -147 -55 -339v-62q0 -192 55 -339q55 -148 156 -232t231 -84q132 0 232 84q99 83 155 232q56 150 56 339v62z" />
    <glyph glyph-name="one.tf" horiz-adv-x="1228" 
d="M1090 43v-43h-893v43h434v1079q-24 -39 -84 -39h-260v43h256q88 0 88 97v211h45v-1391h414z" />
    <glyph glyph-name="two.tf" horiz-adv-x="1228" 
d="M686 567q108 102 160 158q55 59 98 141t43 176q0 167 -107 264t-292 97q-180 0 -287 -107q-106 -106 -106 -290v-31h-45v33q0 202 118 320t320 118q203 0 324 -109q120 -108 120 -293q0 -102 -42 -187q-43 -87 -101 -148q-60 -63 -174 -174l-520 -492h862v-43h-926v41z
" />
    <glyph glyph-name="three.tf" horiz-adv-x="1228" 
d="M991 629q105 -90 105 -248q0 -113 -62 -202q-62 -90 -172 -140q-111 -51 -252 -51q-220 0 -351 110q-132 111 -132 301h47q0 -171 121 -270q120 -98 317 -98q126 0 225 45q98 44 155 126q57 81 57 181q0 160 -121 245t-328 85h-102v43h100q122 0 214 43q94 44 144 119
q52 78 52 169t-52 164q-50 71 -141 112q-89 40 -203 40q-180 0 -289 -91q-110 -92 -110 -247h-45q0 178 121 280q120 101 321 101q131 0 233 -45q100 -44 156 -126t56 -185q0 -141 -94 -236q-95 -96 -250 -117q175 -18 280 -108z" />
    <glyph glyph-name="four.tf" horiz-adv-x="1228" 
d="M76 442l772 992h53v-992h258v-43h-258v-399h-47v399h-778v43zM127 442h727v934z" />
    <glyph glyph-name="five.tf" horiz-adv-x="1228" 
d="M878 878q101 -59 159 -167q57 -107 57 -244q0 -151 -66 -259q-66 -107 -173 -164q-106 -56 -234 -56q-139 0 -243 57q-101 56 -160 153q-56 94 -64 212h45q11 -104 61 -190q51 -87 143 -138q91 -51 218 -51q111 0 209 51t157 149q60 99 60 236q0 120 -52 221
q-51 98 -144 154q-92 55 -218 55q-135 0 -247 -68t-155 -188l-45 4l56 789h762v-43h-719l-49 -676q55 105 165 164q109 59 238 59q135 0 239 -60z" />
    <glyph glyph-name="six.tf" horiz-adv-x="1228" 
d="M153 460q-26 130 -26 261q0 325 128 525t376 200q181 0 291 -101q111 -102 139 -268h-45q-30 148 -128 237t-259 89q-230 0 -345 -185q-116 -187 -116 -491q0 -160 37 -293q-2 22 -2 51q0 130 57 232q58 103 159 160q102 57 232 57q136 0 238 -60q104 -61 158 -166
q55 -107 55 -247q0 -135 -58 -245q-57 -108 -162 -168t-243 -60q-148 0 -251 65q-105 66 -165 185q-44 93 -70 222zM945 772q-110 119 -296 119q-125 0 -222 -54q-99 -55 -151 -153q-53 -100 -53 -223q0 -125 52 -223q53 -99 147 -153t217 -54q125 0 219 54q95 54 146 152
q51 97 51 224q0 192 -110 311z" />
    <glyph glyph-name="seven.tf" horiz-adv-x="1228" 
d="M129 1434h973v-37l-783 -1397h-51l783 1391h-922v43z" />
    <glyph glyph-name="eight.tf" horiz-adv-x="1228" 
d="M992 613q104 -99 104 -246q0 -110 -61 -197q-61 -86 -171 -134q-111 -48 -254 -48q-141 0 -252 48q-110 48 -171 134q-60 85 -60 197q0 147 102 246q103 100 271 124q-148 23 -240 116q-92 94 -92 228q0 108 55 190q55 83 156 129q99 46 231 46q133 0 232 -46t155 -129
t56 -190q0 -134 -92 -228q-92 -93 -240 -116q166 -24 271 -124zM265 914q50 -72 140 -113q91 -41 205 -41t205 41q90 41 141 114q52 75 52 166q0 93 -52 168t-141 115q-91 41 -205 41t-205 -41q-90 -40 -140 -115q-50 -74 -50 -168t50 -167zM838 72q99 43 156 121t57 176
q0 97 -57 177t-156 124q-100 45 -228 45q-125 0 -227 -44q-101 -43 -156 -123q-55 -79 -55 -179q0 -99 56 -176t156 -121q98 -43 226 -43q129 0 228 43z" />
    <glyph glyph-name="nine.tf" horiz-adv-x="1228" 
d="M1075 976q25 -130 25 -253q0 -354 -131 -545q-130 -190 -375 -190q-181 0 -301 98q-121 99 -150 279h45q30 -162 139 -248t269 -86q222 0 340 174q119 174 123 497q0 160 -35 295q2 -22 2 -53q0 -126 -57 -228q-56 -101 -159 -158q-100 -56 -230 -56q-138 0 -238 59
q-103 61 -158 166q-55 106 -55 244q0 139 57 247q56 106 163 167t243 61q143 0 252 -68t164 -184q43 -93 67 -218zM285 663q111 -118 297 -118q125 0 221 54t149 154q54 102 54 228q0 125 -53 220q-55 98 -146 149q-95 53 -219 53q-188 0 -301 -119t-113 -313
q0 -189 111 -308z" />
    <glyph glyph-name="seven.tf.ss08" horiz-adv-x="1228" 
d="M1096 1434v-37l-779 -1397h-51l778 1391h-882v-308h-41v351h975z" />
    <glyph glyph-name="four.tf.ss09" horiz-adv-x="1228" 
d="M899 1432h55v-1434h-45v399h-792v45zM909 1378l-741 -936h741v936z" />
    <glyph glyph-name="zero.tf.zero" horiz-adv-x="1228" 
d="M870 1359q110 -88 171 -247q61 -160 61 -360v-66q0 -200 -61 -360q-61 -159 -171 -247q-112 -89 -256 -89t-256 89q-110 88 -171 247q-60 158 -60 360v66q0 202 60 360q61 159 171 247q112 89 256 89t256 -89zM172 688q0 -190 55 -342l754 795q-57 124 -153 194t-214 70
q-130 0 -231 -84t-156 -232q-55 -147 -55 -339v-62zM1057 750q0 202 -60 352l-753 -797q57 -128 152 -201q93 -71 218 -71q132 0 232 84q99 83 155 232q56 150 56 339v62z" />
    <glyph glyph-name="zero.tosf" horiz-adv-x="1228" 
d="M176 784q68 122 183 192q116 71 255 71t255 -71q117 -71 184 -192t67 -268q0 -146 -67 -267q-68 -123 -184 -192q-115 -69 -255 -69t-255 69q-114 68 -183 192q-67 121 -67 267q0 147 67 268zM1014 762q-61 111 -167 178q-105 66 -233 66q-126 0 -233 -66t-168 -178
t-61 -246t61 -246t168 -177q106 -64 233 -64q129 0 233 64q106 65 167 177t61 246t-61 246z" />
    <glyph glyph-name="one.tosf" horiz-adv-x="1228" 
d="M1085 41v-41h-919v41h426v698q-28 -39 -88 -39h-285v39h285q42 0 65 26t23 71v198h45v-993h448z" />
    <glyph glyph-name="two.tosf" horiz-adv-x="1228" 
d="M1040 41v-41h-841v39l483 321q99 68 153 115q57 49 88 109q31 59 31 137q0 126 -94 205q-95 80 -244 80q-153 0 -254 -93q-98 -91 -98 -235v-35h-47v35q0 106 51 190t142 131q93 48 206 48q169 0 277 -91q106 -90 106 -233q0 -120 -65 -201q-63 -79 -213 -180l-453 -301
h772z" />
    <glyph glyph-name="three.tosf" horiz-adv-x="1228" 
d="M983 229q104 -89 104 -247q0 -114 -61 -202q-62 -90 -172 -140q-113 -52 -252 -52q-219 0 -351 111t-132 301h47q0 -171 121 -270t317 -99q125 0 224 45t156 126q56 80 56 182q0 160 -120 244q-121 85 -328 85h-103v43h101q122 0 214 43q94 44 144 119q51 76 51 170
q0 92 -51 164q-50 71 -141 112q-89 40 -203 40q-180 0 -290 -92q-109 -91 -109 -246h-45q0 177 121 279t321 102q129 0 233 -46q101 -44 156 -125q56 -82 56 -186q0 -138 -95 -235q-95 -96 -250 -117q175 -18 281 -109z" />
    <glyph glyph-name="four.tosf" horiz-adv-x="1228" 
d="M821 1034h53v-991h240v-43h-240v-369h-45v369h-770v43zM829 981l-718 -938h718v938z" />
    <glyph glyph-name="five.tosf" horiz-adv-x="1228" 
d="M867 495q102 -59 160 -166q56 -103 56 -241q0 -148 -63 -253q-63 -106 -169 -160q-105 -54 -230 -54q-137 0 -241 57q-103 57 -161 154t-65 213h45q11 -106 62 -191q52 -87 145 -140q91 -52 215 -52q111 0 206 50q94 49 152 147q57 96 57 229q0 121 -51 218
q-51 98 -145 153t-219 55q-138 0 -244 -68t-152 -188l-45 4l56 772h757v-43h-717l-49 -659q51 103 160 164q105 59 240 59q137 0 240 -60z" />
    <glyph glyph-name="six.tosf" horiz-adv-x="1228" 
d="M936 1319q109 -103 137 -268h-45q-29 147 -126 239q-94 90 -253 90q-235 0 -353 -181t-118 -478q0 -170 37 -291q-4 21 -4 43q0 130 56 230q57 101 158 158q102 57 230 57q133 0 233 -59q99 -59 152 -164q54 -108 54 -240q0 -138 -57 -243q-58 -106 -159 -165
q-102 -59 -239 -59q-143 0 -245 65q-104 66 -161 185q-46 91 -72 218q-26 128 -26 259q0 317 129 512q128 194 385 194q179 0 287 -102zM433 824q-95 -52 -147 -147q-53 -95 -53 -218q0 -125 51 -225q49 -96 142 -151q92 -54 215 -54q121 0 213 53t143 149q52 98 52 222
q0 190 -108 307t-292 117q-121 0 -216 -53z" />
    <glyph glyph-name="seven.tosf" horiz-adv-x="1228" 
d="M127 1034h901v-41l-713 -1362h-49l711 1360h-850v43z" />
    <glyph glyph-name="eight.tosf" horiz-adv-x="1228" 
d="M997 603q101 -98 101 -243q0 -107 -61 -192q-60 -84 -171 -132t-252 -48q-143 0 -254 48t-171 132t-60 192q0 144 101 242t264 121q-145 27 -233 117q-89 91 -89 223q0 104 55 186t156 127t231 45q132 0 232 -45t155 -127q56 -83 56 -186q0 -131 -90 -222
q-91 -92 -234 -116q163 -24 264 -122zM267 898q50 -72 142 -113q90 -40 205 -40q116 0 205 40q90 41 140 113q51 74 51 165t-51 165q-50 72 -140 113q-91 41 -205 41q-115 0 -205 -40q-93 -41 -142 -112q-50 -73 -50 -167q0 -92 50 -165zM840 70q99 43 156 119t57 174
t-57 176t-156 121q-104 45 -226 45q-123 0 -227 -45q-101 -44 -156 -121t-55 -176t56 -174t156 -119q98 -43 226 -43q127 0 226 43z" />
    <glyph glyph-name="nine.tosf" horiz-adv-x="1228" 
d="M1068 581q26 -128 26 -257q0 -316 -130 -510q-130 -195 -384 -195q-179 0 -287 102t-137 269h45q30 -148 126 -240q95 -90 253 -90q236 0 354 181q119 182 119 476q0 162 -39 293q2 -16 2 -39q0 -131 -55 -232t-156 -158q-99 -56 -232 -56q-134 0 -232 58
q-101 60 -153 163q-53 106 -53 238q0 136 56 239q57 105 160 163t239 58q142 0 245 -64t160 -181q48 -94 73 -218zM288 282q108 -116 292 -116q122 0 217 53q91 51 146 149q52 94 52 216t-50 219q-49 95 -143 148t-214 53q-185 0 -296 -116q-112 -117 -112 -304
q0 -186 108 -302z" />
    <glyph glyph-name="seven.tosf.ss08" horiz-adv-x="1228" 
d="M135 1034h922v-41l-713 -1362h-49l711 1360h-830v-307h-41v350z" />
    <glyph glyph-name="four.tosf.ss09" horiz-adv-x="1228" 
d="M899 1034h55v-1433h-45v399h-792v45zM909 981l-741 -936h741v936z" />
    <glyph glyph-name="zero.tosf.zero" horiz-adv-x="1228" 
d="M869 976q117 -71 184 -192t67 -268q0 -146 -67 -267q-68 -123 -184 -192q-115 -69 -255 -69t-255 69q-114 68 -183 192q-67 121 -67 267q0 147 67 268q68 122 183 192q116 71 255 71t255 -71zM381 940q-107 -66 -168 -178t-61 -246q0 -95 29 -176q30 -85 85 -147l672 673
q-62 65 -146 103q-81 37 -178 37q-126 0 -233 -66zM847 93q106 65 167 177t61 246q0 95 -29 176q-30 85 -85 150l-670 -676q60 -65 145 -101q84 -36 178 -36q129 0 233 64z" />
    <glyph glyph-name="zero.zero" horiz-adv-x="1234" 
d="M868 1347q108 -87 168 -242t60 -353v-66q0 -200 -60 -355t-168 -242t-250 -87q-143 0 -251 87t-168 242t-60 355v66q0 198 60 353q61 156 169 242q109 87 250 87q142 0 250 -87zM160 686q0 -197 57 -350l778 819q-62 126 -157 194t-220 68q-136 0 -241 -84
q-104 -83 -161 -235q-56 -149 -56 -348v-64zM1075 750q0 206 -63 368l-776 -823l-5 8q60 -135 159 -210t228 -75q138 0 241 85t160 237q56 149 56 346v64z" />
    <glyph glyph-name="u1F10C.zero" horiz-adv-x="1673" 
d="M466 1357q-167 -95 -262 -262t-95 -372t95 -372t262 -262t372 -95q204 0 371 95t262 262q96 169 96 372t-96 372q-95 167 -262 262t-371 95q-205 0 -372 -95zM1038 999q76 -107 76 -276q0 -170 -76 -277q-76 -108 -200 -108q-126 0 -202 108q-77 109 -77 277
q0 167 77 276t202 109q123 0 200 -109zM663 973q-67 -102 -67 -250q0 -109 39 -199l389 428q-66 121 -186 121q-109 0 -175 -100zM1013 473q66 101 66 250q0 114 -41 201l-389 -428q29 -57 78 -90t111 -33q109 0 175 100z" />
    <glyph glyph-name="u1F10B.zero" horiz-adv-x="1681" 
d="M1209 1349q169 -97 267 -265q97 -166 97 -367q0 -202 -97 -368q-98 -167 -267 -264t-369 -97q-202 0 -369 97t-265 264q-97 166 -97 368q0 201 97 367q99 168 265 265q167 97 369 97q200 0 369 -97zM488 1320q-157 -92 -251 -252q-94 -161 -94 -351t94 -351
q94 -160 251 -252q161 -94 352 -94t352 94t252 252q92 160 92 351t-92 351q-91 158 -252 252q-159 93 -352 93t-352 -93zM1042 993q76 -107 76 -276q0 -170 -76 -277q-76 -108 -200 -108q-126 0 -202 108q-77 109 -77 277q0 167 77 276t202 109q123 0 200 -109zM667 967
q-67 -102 -67 -250q0 -109 39 -199l389 428q-66 121 -186 121q-109 0 -175 -100zM1017 467q66 101 66 250q0 114 -41 201l-389 -429q29 -57 78 -90q48 -32 111 -32q109 0 175 100z" />
    <glyph glyph-name="zero.dnom" horiz-adv-x="684" 
d="M140 649q77 109 202 109q124 0 201 -109q75 -106 75 -276q0 -171 -75 -277q-77 -108 -201 -108q-126 0 -202 108q-77 109 -77 277q0 167 77 276zM517 623q-66 100 -175 100t-175 -100q-67 -102 -67 -250t67 -250q66 -100 175 -100t175 100q67 102 67 250t-67 250z" />
    <glyph glyph-name="one.dnom" horiz-adv-x="321" 
d="M182 0v549q-6 -14 -32 -14h-150v34h150q14 0 23 11q9 10 9 24v141h35v-745h-35z" />
    <glyph glyph-name="two.dnom" horiz-adv-x="624" 
d="M76 530q0 104 66 166q67 62 171 62q105 0 172 -59q66 -58 66 -152q0 -75 -40 -131q-44 -62 -116 -127l-284 -254h450v-35h-502v33l310 276q70 60 109 117q36 52 36 121q0 81 -56 128q-57 48 -145 48q-91 0 -147 -51q-55 -51 -55 -144v-14h-35v16z" />
    <glyph glyph-name="three.dnom" horiz-adv-x="643" 
d="M147 701q67 57 177 57q103 0 170 -56q65 -55 65 -141q0 -69 -47 -116q-46 -46 -125 -58q89 -15 139 -62q52 -49 52 -126q0 -94 -71 -153q-70 -58 -185 -58q-124 0 -194 60q-71 60 -71 165h37q0 -91 63 -141q62 -49 165 -49q96 0 157 48q62 48 62 126q0 80 -64 127
t-166 47h-49v28h49q94 0 153 44q58 43 58 116q0 72 -55 118t-143 46q-93 0 -151 -47q-56 -46 -58 -129h-35q0 97 67 154z" />
    <glyph glyph-name="four.dnom" horiz-adv-x="665" 
d="M446 745h41v-503h131v-35h-131v-207h-36v207h-406v35zM451 700l-365 -458h365v458z" />
    <glyph glyph-name="five.dnom" horiz-adv-x="634" 
d="M524 713h-395l-20 -336q35 54 92 82q56 28 125 28q108 0 177 -69q68 -68 68 -178q0 -111 -72 -182q-71 -70 -184 -70q-103 0 -171 56q-67 56 -78 149h34q11 -77 70 -123q61 -47 145 -47q94 0 157 60t63 157q0 95 -62 154t-158 59q-66 0 -121 -32t-85 -87l-31 2l20 409
h426v-32z" />
    <glyph glyph-name="six.dnom" horiz-adv-x="655" 
d="M147 649q77 109 207 109q87 0 154 -55q65 -53 80 -152h-35q-18 85 -72 131q-53 45 -127 45q-115 0 -181 -99q-67 -100 -67 -263q0 -22 9 -125q-5 95 58 163q64 70 173 70t175 -66q67 -67 67 -176q0 -111 -68 -177t-178 -66q-139 0 -205 100q-65 99 -65 270q0 185 75 291z
M495 384q-58 58 -153 58q-94 0 -153 -57q-58 -57 -58 -152q0 -94 58 -153q59 -60 153 -60q97 0 154 59t57 152q0 95 -58 153z" />
    <glyph glyph-name="seven.dnom" horiz-adv-x="614" 
d="M55 748h510v-31l-385 -717h-39l383 715l-469 -2v35z" />
    <glyph glyph-name="eight.dnom" horiz-adv-x="645" 
d="M118 325q53 53 140 64q-76 10 -124 60t-48 120q0 83 67 136t171 53q102 0 169 -53q66 -53 66 -136q0 -71 -48 -120q-48 -50 -124 -60q87 -11 140 -64q55 -55 55 -135q0 -87 -73 -145q-72 -57 -185 -57q-116 0 -188 57q-73 58 -73 145q0 80 55 135zM467 682
q-55 45 -143 45t-145 -45q-56 -44 -56 -115t56 -117q58 -47 145 -47t143 47q55 46 55 117q0 70 -55 115zM482 322q-63 51 -158 51q-97 0 -160 -51q-64 -52 -64 -129q0 -75 64 -124t160 -49q94 0 158 49q63 48 63 124q0 78 -63 129z" />
    <glyph glyph-name="nine.dnom" horiz-adv-x="643" 
d="M506 96q-76 -108 -207 -108q-88 0 -154 54q-64 52 -79 153h34q17 -87 71 -132t128 -45q114 0 181 100t67 263q0 34 -8 125q4 -94 -59 -164q-64 -70 -173 -70q-108 0 -175 67q-66 66 -66 175q0 111 67 177q69 67 178 67q139 0 205 -101t66 -270q0 -184 -76 -291zM159 361
q58 -58 152 -58q95 0 153 57t58 152t-58 154t-153 59q-93 0 -152 -57t-59 -154q0 -94 59 -153z" />
    <glyph glyph-name="zero.numr" horiz-adv-x="684" 
d="M140 1339q77 109 202 109q124 0 201 -109q75 -106 75 -276q0 -171 -75 -277q-77 -108 -201 -108q-126 0 -202 108q-77 109 -77 277q0 167 77 276zM517 1313q-66 100 -175 100t-175 -100q-67 -102 -67 -250t67 -250q66 -100 175 -100t175 100q67 102 67 250t-67 250z" />
    <glyph glyph-name="one.numr" horiz-adv-x="321" 
d="M182 690v549q-6 -14 -32 -14h-150v35h150q14 0 23 10t9 24v142h35v-746h-35z" />
    <glyph glyph-name="two.numr" horiz-adv-x="624" 
d="M76 1219q0 103 66 165q67 62 171 62q107 0 172 -58q66 -58 66 -153q0 -75 -40 -131q-44 -62 -116 -127l-284 -254h450v-35h-502v33l310 276q70 60 109 117q36 52 36 121q0 81 -56 128q-57 48 -145 48q-91 0 -147 -51q-55 -51 -55 -143v-15h-35v17z" />
    <glyph glyph-name="three.numr" horiz-adv-x="643" 
d="M147 1394q66 56 177 56q105 0 170 -55t65 -142q0 -68 -47 -115t-125 -59q89 -15 139 -62q52 -49 52 -126q0 -94 -71 -153q-70 -58 -185 -58q-124 0 -194 60q-71 60 -71 165h37q0 -91 63 -141q62 -49 165 -49q96 0 157 48q62 48 62 126q0 80 -64 127t-166 47h-49v29h49
q94 0 153 44q58 43 58 115t-55 118t-143 46q-93 0 -151 -47q-56 -46 -58 -129h-35q0 98 67 155z" />
    <glyph glyph-name="four.numr" horiz-adv-x="665" 
d="M446 1434h41v-504h131v-35h-131v-207h-36v207h-406v35zM451 1389l-365 -459h365v459z" />
    <glyph glyph-name="five.numr" horiz-adv-x="634" 
d="M524 1401h-395l-20 -336q35 54 92 82q58 29 125 29q107 0 177 -70q68 -68 68 -178q0 -112 -72 -182q-71 -70 -184 -70q-103 0 -171 56q-67 56 -78 149h34q11 -77 70 -123q61 -47 145 -47q94 0 157 60t63 157q0 95 -62 154t-158 59q-66 0 -121 -32t-85 -87l-31 2l20 410
h426v-33z" />
    <glyph glyph-name="six.numr" horiz-adv-x="655" 
d="M147 1339q77 109 207 109q88 0 154 -54q65 -53 80 -153h-35q-18 85 -72 131q-53 45 -127 45q-115 0 -181 -99q-67 -100 -67 -263q0 -22 9 -125q-5 95 58 164t173 69q109 0 175 -66q67 -67 67 -175q0 -112 -68 -178t-178 -66q-139 0 -205 100q-65 99 -65 271q0 184 75 290
zM495 1074q-59 59 -153 59q-93 0 -153 -58q-58 -57 -58 -151q0 -95 58 -154t153 -59q97 0 154 58q57 59 57 153t-58 152z" />
    <glyph glyph-name="seven.numr" horiz-adv-x="614" 
d="M55 1434h510v-31l-385 -717h-39l383 715l-469 -2v35z" />
    <glyph glyph-name="eight.numr" horiz-adv-x="645" 
d="M118 1015q53 53 140 64q-76 10 -124 60q-48 49 -48 121q0 82 67 135t171 53q102 0 169 -53q66 -53 66 -135q0 -72 -48 -121q-48 -50 -124 -60q87 -11 140 -64q55 -55 55 -134q0 -88 -73 -146q-72 -57 -185 -57q-116 0 -188 57q-73 58 -73 146q0 79 55 134zM467 1372
q-55 45 -143 45t-145 -45q-56 -44 -56 -115t56 -117t145 -46q88 0 143 46t55 117q0 70 -55 115zM482 1012q-63 51 -158 51q-97 0 -160 -51q-64 -52 -64 -129q0 -75 64 -124q63 -48 160 -48q95 0 158 48t63 124q0 78 -63 129z" />
    <glyph glyph-name="nine.numr" horiz-adv-x="643" 
d="M506 786q-76 -108 -207 -108q-88 0 -154 54q-64 52 -79 153h34q17 -86 71 -131t128 -45q115 0 181 99q67 100 67 263q0 34 -8 125q4 -94 -59 -164q-63 -69 -173 -69q-109 0 -175 66t-66 175q0 111 67 177q69 67 178 67q139 0 205 -100t66 -271q0 -184 -76 -291zM159 1052
q59 -59 152 -59t153 58q58 57 58 151q0 95 -58 154t-153 59q-93 0 -152 -57t-59 -154q0 -93 59 -152z" />
    <glyph glyph-name="uni2080.zero" horiz-adv-x="684" 
d="M543 444q75 -106 75 -276q0 -171 -75 -277q-77 -108 -201 -108q-126 0 -202 108q-77 109 -77 277q0 167 77 276t202 109q124 0 201 -109zM167 418q-67 -102 -67 -250q0 -109 39 -199l389 428q-66 121 -186 121q-109 0 -175 -100zM517 -82q67 102 67 250q0 114 -41 201
l-389 -428q30 -59 77 -91q48 -32 111 -32q109 0 175 100z" />
    <glyph glyph-name="zero.dnom.zero" horiz-adv-x="684" 
d="M543 649q75 -106 75 -276q0 -171 -75 -277q-77 -108 -201 -108q-126 0 -202 108q-77 109 -77 277q0 167 77 276t202 109q124 0 201 -109zM167 623q-67 -102 -67 -250q0 -109 39 -199l389 428q-66 121 -186 121q-109 0 -175 -100zM517 123q67 102 67 250q0 113 -41 200
l-389 -428q29 -58 77 -90t111 -32q109 0 175 100z" />
    </font>
</defs>
</svg>
