<?xml version="1.0" standalone="no"?>
<!DOCTYPE svg PUBLIC "-//W3C//DTD SVG 1.1//EN" "http://www.w3.org/Graphics/SVG/1.1/DTD/svg11.dtd" >
<svg xmlns="http://www.w3.org/2000/svg" xmlns:xlink="http://www.w3.org/1999/xlink" version="1.1">
<metadata>
Created by FontForge 20201107 at Wed Dec 27 15:33:37 2023
 By 
Mark Bloom and Joe Leadbeater (c) 2018
</metadata>
<defs>
<font id="Aeonik-Regular" horiz-adv-x="1228" >
  <font-face 
    font-family="Aeonik"
    font-weight="400"
    font-stretch="normal"
    units-per-em="2048"
    panose-1="2 1 5 3 3 3 0 0 0 0"
    ascent="1638"
    descent="-410"
    x-height="1044"
    cap-height="1434"
    bbox="-764 -422 4385 1839"
    underline-thickness="122"
    underline-position="-532"
    unicode-range="U+0020-1F10C"
  />
<missing-glyph horiz-adv-x="1269" 
d="M164 1434h942v-1573h-942v1573z" />
    <glyph glyph-name="fi" unicode="fi" horiz-adv-x="1064" 
d="M788 1262q-30 30 -30 77q0 48 30 78q31 31 78 31t78 -31t31 -78q0 -46 -31 -77t-78 -31t-78 31zM950 0h-168v891h-430v-891h-168v891h-188v153h188v117q0 139 65 206t208 67h172v-154h-162q-61 0 -88 -27t-27 -88v-121h598v-1044z" />
    <glyph glyph-name="f_f.liga" unicode="ff" horiz-adv-x="1243" 
d="M977 1253q-27 -27 -27 -88v-121h295v-153h-295v-891h-168v891h-430v-891h-168v891h-188v153h188v117q0 139 65 206t208 67h172v-154h-162q-61 0 -88 -27t-27 -88v-121h430v117q0 139 65 206t208 67h192v-154h-182q-61 0 -88 -27z" />
    <glyph glyph-name="f_f_i.liga" unicode="ffi" horiz-adv-x="1662" 
d="M1386 1262q-30 30 -30 77q0 48 30 78q31 31 78 31t78 -31t31 -78q0 -46 -31 -77t-78 -31t-78 31zM1548 0h-168v891h-430v-891h-168v891h-430v-891h-168v891h-188v153h188v117q0 139 65 206t208 67h172v-154h-162q-61 0 -88 -27t-27 -88v-121h430v117q0 139 65 206t208 67
h172v-154h-162q-61 0 -88 -27t-27 -88v-121h598v-1044z" />
    <glyph glyph-name="f_f_t.liga" unicode="fft" horiz-adv-x="1849" 
d="M1845 154v-154h-192q-147 0 -210 66t-63 206v619h-430v-891h-168v891h-430v-891h-168v891h-188v153h188v117q0 139 65 206t208 67h172v-154h-162q-61 0 -88 -27t-27 -88v-121h430v117q0 139 65 206t208 67h172v-154h-162q-61 0 -88 -27t-27 -88v-121h430v293h168v-293
h264v-153h-264v-617q0 -65 26 -93q26 -27 89 -27h182z" />
    <glyph glyph-name="f_t.liga" unicode="ft" horiz-adv-x="1251" 
d="M1247 154v-154h-192q-147 0 -210 66t-63 206v619h-430v-891h-168v891h-188v153h188v117q0 139 65 206t208 67h172v-154h-162q-61 0 -88 -27t-27 -88v-121h430v293h168v-293h264v-153h-264v-617q0 -65 26 -93q26 -27 89 -27h182z" />
    <glyph glyph-name="t_t.liga" unicode="tt" horiz-adv-x="1251" 
d="M1247 154v-154h-192q-147 0 -210 66t-63 206v619h-430v-617q0 -65 26 -93q26 -27 89 -27h149v-154h-159q-147 0 -210 66t-63 206v619h-188v153h188v293h168v-293h430v293h168v-293h264v-153h-264v-617q0 -65 26 -93q26 -27 89 -27h182z" />
    <glyph glyph-name=".notdef" horiz-adv-x="1269" 
d="M164 1434h942v-1573h-942v1573z" />
    <glyph glyph-name=".null" horiz-adv-x="0" 
 />
    <glyph glyph-name="nonmarkingreturn" horiz-adv-x="682" 
 />
    <glyph glyph-name="space" unicode=" " horiz-adv-x="536" 
 />
    <glyph glyph-name="exclam" unicode="!" horiz-adv-x="512" 
d="M193 428l-27 1006h180l-24 -1006h-129zM172 185q34 32 84 32t84 -32q33 -31 33 -83t-33 -83q-32 -31 -84 -31t-84 31q-33 31 -33 83t33 83z" />
    <glyph glyph-name="quotedbl" unicode="&#x22;" horiz-adv-x="753" 
d="M121 1409q24 33 74 33q53 0 75 -33q23 -34 19 -82l-35 -391h-117l-37 391q-4 47 21 82zM485 1409q24 33 74 33q53 0 76 -33q22 -33 18 -82l-35 -391h-116l-37 391q-4 48 20 82z" />
    <glyph glyph-name="numbersign" unicode="#" horiz-adv-x="1185" 
d="M406 1241h139l-53 -344h280l53 344h140l-54 -344h197v-141h-217l-39 -271h211v-141h-232l-53 -344h-139l53 344h-280l-54 -344h-139l53 344h-196v141h217l39 271h-211v141h231zM471 756l-39 -271h281l39 271h-281z" />
    <glyph glyph-name="dollar" unicode="$" horiz-adv-x="1243" 
d="M1101 205q-58 -93 -158 -149q-99 -55 -232 -66v-209h-156v211q-212 24 -337 153q-124 129 -132 324h176q10 -145 117 -232t270 -87q148 0 239 64t91 179q0 83 -50 133q-49 49 -129 73q-76 23 -214 46q-216 38 -342 121q-127 84 -127 272q0 172 121 283q120 110 317 125
v209h156v-215q185 -27 299 -143q115 -116 125 -287h-177q-16 124 -112 200q-95 76 -240 76q-144 0 -227 -62q-84 -63 -84 -175q0 -82 49 -128t127 -70q74 -23 213 -46q217 -38 344 -122q129 -85 129 -273q0 -115 -56 -205z" />
    <glyph glyph-name="percent" unicode="%" horiz-adv-x="1843" 
d="M158 1277q46 79 129 124q82 45 184 45q101 0 184 -45t129 -124q47 -80 47 -179q0 -97 -47 -177q-46 -79 -129 -123t-184 -44t-184 44t-129 123q-47 80 -47 177q0 99 47 179zM352 0l977 1434h166l-977 -1434h-166zM621 1250q-61 61 -150 61q-88 0 -149 -61
q-60 -60 -60 -152q0 -90 60 -150q59 -59 149 -59q91 0 150 59t59 150q0 93 -59 152zM1059 511q46 79 129 124q82 45 184 45t184 -45q84 -46 130 -124q47 -80 47 -179q0 -97 -47 -177q-46 -79 -130 -123q-83 -44 -184 -44t-184 44q-82 44 -129 123q-47 80 -47 177
q0 99 47 179zM1522 484q-61 61 -150 61q-88 0 -149 -61q-60 -60 -60 -152q0 -90 60 -150q59 -59 149 -59q91 0 150 59t59 150q0 93 -59 152z" />
    <glyph glyph-name="ampersand" unicode="&#x26;" horiz-adv-x="1519" 
d="M1415 150v-150h-155q-75 0 -126 17q-55 18 -92 61l-81 92q-175 -182 -404 -182q-198 0 -324 98q-127 99 -127 274q0 122 77 231q75 106 245 179q-83 100 -111 168q-30 72 -30 164q0 95 53 175q52 78 145 124q91 45 205 45q96 0 173 -41q78 -41 121 -113q44 -73 44 -159
q0 -127 -81 -228t-267 -174l287 -319l241 362h178l-317 -477l80 -90q29 -33 58 -45q30 -12 73 -12h135zM520 1249q-59 -55 -59 -141q0 -74 27 -131q26 -54 102 -143q268 106 268 294q0 77 -50 127t-130 50q-97 0 -158 -56zM862 281l-334 372l-14 15q-130 -63 -183 -129
q-52 -65 -52 -162q0 -114 77 -176q79 -64 205 -64q167 0 301 144z" />
    <glyph glyph-name="quotesingle" unicode="'" horiz-adv-x="389" 
d="M121 1409q24 33 74 33q53 0 75 -33q23 -34 19 -82l-35 -391h-117l-37 391q-4 47 21 82z" />
    <glyph glyph-name="parenleft" unicode="(" horiz-adv-x="614" 
d="M614 1434q-182 -250 -260 -458q-75 -200 -75 -464q0 -262 75 -462q77 -206 260 -460h-176q-172 234 -249 450q-76 215 -76 472q0 259 76 472q77 214 249 450h176z" />
    <glyph glyph-name="parenright" unicode=")" horiz-adv-x="614" 
d="M435 984q77 -216 77 -472q0 -255 -77 -472q-77 -216 -249 -450h-176q183 254 260 460q76 203 76 462q0 261 -76 464q-78 208 -260 458h176q172 -236 249 -450z" />
    <glyph glyph-name="asterisk" unicode="*" horiz-adv-x="870" 
d="M774 1165l-250 -92l170 -201l-90 -81l-172 215l-170 -215l-88 81l172 203l-250 92l47 115l238 -108l-4 262h117l-7 -265l240 111z" />
    <glyph glyph-name="plus" unicode="+" horiz-adv-x="1073" 
d="M459 1016h153v-359h342v-141h-342v-360h-153v360h-340v141h340v359z" />
    <glyph glyph-name="comma" unicode="," horiz-adv-x="421" 
d="M308 155q44 -61 44 -149q0 -131 -77 -205q-75 -72 -212 -77v96q92 2 132 51q41 50 41 113q0 11 -3 26q-24 -24 -69 -24q-49 0 -78 28q-31 29 -31 82q0 50 36 85q35 34 99 34q74 0 118 -60z" />
    <glyph glyph-name="hyphen" unicode="-" horiz-adv-x="894" 
d="M106 512v139h682v-139h-682z" />
    <glyph glyph-name="period" unicode="." horiz-adv-x="421" 
d="M127 185q34 32 84 32t84 -32q33 -31 33 -83t-33 -83q-32 -31 -84 -31t-84 31q-33 31 -33 83t33 83z" />
    <glyph glyph-name="slash" unicode="/" horiz-adv-x="661" 
d="M-49 -410l600 1844h160l-600 -1844h-160z" />
    <glyph glyph-name="zero" unicode="0" horiz-adv-x="1280" 
d="M96 750q0 202 69 360q70 161 192 247q125 89 284 89q157 0 282 -89q122 -86 192 -247q69 -158 69 -360v-66q0 -212 -69 -369t-191 -242t-283 -85q-163 0 -285 85t-191 242t-69 369v66zM964 1034q-46 123 -129 189q-81 65 -194 65q-112 0 -195 -65t-130 -189
q-46 -122 -46 -291v-53q0 -169 46 -291t130 -188t195 -66t194 66t129 188t46 291v53q0 169 -46 291z" />
    <glyph glyph-name="one" unicode="1" horiz-adv-x="663" 
d="M512 1434v-1434h-172v1012q-28 -27 -98 -27h-232v154h234q50 0 74 33q26 35 26 90v172h168z" />
    <glyph glyph-name="two" unicode="2" horiz-adv-x="1157" 
d="M637 629q122 105 182 189q62 86 62 192q0 133 -85 209q-84 75 -229 75q-139 0 -223 -86t-84 -233v-27h-172v37q0 137 59 240q59 104 169 164q108 59 251 59q229 0 360 -117q130 -117 130 -313q0 -104 -40 -187q-39 -81 -104 -152q-61 -67 -165 -157l-431 -364h750v-158
h-987v145z" />
    <glyph glyph-name="three" unicode="3" 
d="M1044 626q89 -89 89 -229q0 -120 -65 -214q-64 -93 -183 -144t-275 -51q-237 0 -379 122q-141 122 -141 332h176q1 -138 100 -220q98 -81 255 -81q145 0 240 74t95 195q0 114 -92 180q-90 65 -260 65h-123v150h113q158 0 242 69t84 183q0 109 -85 172t-219 63
q-140 0 -226 -70q-88 -71 -89 -192h-172q1 193 133 305q130 111 348 111q146 0 258 -47q109 -46 169 -133q59 -86 59 -199q0 -131 -72 -217q-74 -87 -195 -111q126 -24 215 -113z" />
    <glyph glyph-name="four" unicode="4" horiz-adv-x="1249" 
d="M47 504l719 930h205v-926h231v-158h-231v-350h-172v350h-752v154zM231 508h568v733z" />
    <glyph glyph-name="five" unicode="5" horiz-adv-x="1204" 
d="M897 899q105 -61 166 -170q59 -106 59 -250q0 -154 -67 -264t-183 -168q-114 -57 -251 -57q-157 0 -271 60t-177 165q-64 106 -71 231h172q12 -128 106 -216q93 -87 241 -87q84 0 160 38q75 37 120 114q45 76 45 182q0 149 -88 240q-89 92 -235 92q-95 0 -191 -41
q-94 -40 -135 -154l-166 4l47 816h852v-158h-694l-33 -471q61 80 159 119q93 37 193 37q135 0 242 -62z" />
    <glyph glyph-name="six" unicode="6" horiz-adv-x="1236" 
d="M126 444q-30 124 -30 267q0 223 65 391q65 167 187 255q124 89 293 89q195 0 321 -108q125 -107 152 -287h-172q-24 112 -103 178q-78 65 -206 65q-184 0 -286 -151q-101 -150 -101 -400l2 -69q6 27 12 39q50 110 154 172q105 63 245 63q144 0 250 -59q109 -60 170 -168
q62 -109 62 -252q0 -136 -64 -247q-62 -108 -176 -172q-111 -62 -258 -62t-255 62q-111 64 -179 175q-53 96 -83 219zM882 706q-87 91 -235 91q-149 0 -241 -92q-93 -93 -93 -240q0 -146 90 -236t238 -90t238 92q90 91 90 238q0 145 -87 237z" />
    <glyph glyph-name="seven" unicode="7" horiz-adv-x="1091" 
d="M27 1434h1011v-121l-704 -1313h-187l703 1276h-823v158z" />
    <glyph glyph-name="eight" unicode="8" 
d="M1044 622q89 -94 89 -237q0 -117 -63 -207q-64 -92 -180 -140q-120 -50 -276 -50q-155 0 -275 50q-116 48 -180 140q-63 90 -63 207q0 143 88 235q88 93 230 123q-120 24 -199 112q-78 87 -78 212q0 113 59 199q59 87 166 134q108 48 252 48t252 -48t167 -134t59 -199
q0 -123 -78 -212q-79 -90 -199 -112q141 -28 229 -121zM393 894q87 -67 221 -67q135 0 222 67q86 66 86 173q0 105 -86 171q-87 67 -222 67q-134 0 -221 -67q-86 -66 -86 -171q0 -107 86 -173zM863 203q98 74 98 188q0 74 -46 137q-47 64 -123 97q-78 34 -178 34
q-99 0 -177 -34t-124 -97q-45 -62 -45 -137q0 -115 99 -188q100 -74 247 -74q151 0 249 74z" />
    <glyph glyph-name="nine" unicode="9" horiz-adv-x="1236" 
d="M1111 989q30 -125 30 -266q0 -223 -65 -391q-65 -167 -187 -255q-124 -89 -293 -89q-196 0 -321 107t-152 288h172q24 -112 103 -178q80 -66 206 -66q184 0 286 152q101 150 101 399l-2 70q-6 -27 -12 -39q-50 -110 -154 -172q-107 -64 -245 -64q-142 0 -250 60
q-109 60 -170 168q-62 109 -62 252q0 135 64 246q62 108 176 172q112 63 258 63t255 -63q111 -64 179 -175q53 -96 83 -219zM355 728q87 -91 235 -91q149 0 241 92q93 93 93 240q0 145 -90 235t-238 90t-238 -92t-90 -237t87 -237z" />
    <glyph glyph-name="colon" unicode=":" horiz-adv-x="421" 
d="M127 953q34 32 84 32t84 -32q33 -32 33 -83q0 -52 -33 -83q-32 -31 -84 -31t-84 31q-33 31 -33 83t33 83zM127 185q34 32 84 32t84 -32q33 -31 33 -83t-33 -83q-32 -31 -84 -31t-84 31q-33 31 -33 83t33 83z" />
    <glyph glyph-name="semicolon" unicode=";" horiz-adv-x="421" 
d="M308 155q44 -61 44 -149q0 -131 -77 -205q-75 -72 -212 -77v96q92 2 132 51q41 50 41 113q0 11 -3 26q-24 -24 -69 -24q-49 0 -78 28q-31 29 -31 82q0 50 36 85q35 34 99 34q74 0 118 -60zM121 953q34 32 84 32t84 -32q33 -32 33 -83q0 -52 -33 -83q-32 -31 -84 -31
t-84 31q-33 31 -33 83t33 83z" />
    <glyph glyph-name="less" unicode="&#x3c;" horiz-adv-x="1073" 
d="M147 502v160l779 348v-164l-590 -264l590 -265v-163z" />
    <glyph glyph-name="equal" unicode="=" horiz-adv-x="1073" 
d="M139 707v143h795v-143h-795zM139 281v141h795v-141h-795z" />
    <glyph glyph-name="greater" unicode="&#x3e;" horiz-adv-x="1073" 
d="M926 662v-160l-779 -348v163l590 265l-590 264v164z" />
    <glyph glyph-name="question" unicode="?" horiz-adv-x="1050" 
d="M126 1215q57 107 162 169q106 62 247 62q129 0 231 -47q101 -47 155 -129t54 -187q0 -124 -53 -204q-52 -79 -148 -146q-101 -71 -145 -120q-43 -47 -43 -124v-53h-158v72q0 75 29 131q28 55 70 91q45 38 120 89t114 111q38 58 38 137q0 97 -73 161q-71 62 -189 62
q-133 0 -214 -86t-81 -227h-172q0 132 56 238zM426 185q34 32 84 32t84 -32q33 -31 33 -83t-33 -83q-32 -31 -84 -31t-84 31q-33 32 -33 83q0 52 33 83z" />
    <glyph glyph-name="at" unicode="@" horiz-adv-x="2011" 
d="M230 957q127 205 343 320q218 116 476 116q247 0 445 -96q196 -95 304 -264q109 -171 109 -384q0 -158 -59 -284q-60 -128 -159 -195q-103 -70 -227 -70q-89 0 -145 44q-57 44 -64 110l-4 31q-34 -82 -125 -132q-93 -51 -198 -51q-103 0 -186 50q-84 50 -130 138
q-47 89 -47 204q0 126 59 235q60 111 156 172q101 64 211 64q116 0 189 -43q74 -44 98 -113l31 137h131l-62 -584l-2 -26q0 -58 31 -89q30 -30 86 -30q67 0 126 57q57 56 94 158q36 101 36 221q0 179 -87 315q-86 135 -247 211q-157 74 -366 74q-215 0 -393 -99
q-179 -99 -284 -270q-106 -173 -106 -378q0 -210 92 -367q90 -154 264 -238q172 -83 400 -83q137 0 253 32q119 33 216 95l-4 -150q-81 -54 -208 -85q-130 -32 -271 -32q-259 0 -467 103q-205 102 -320 289q-115 188 -115 434q0 249 126 453zM1189 775q-65 67 -169 67
q-85 0 -153 -46q-67 -45 -108 -125q-40 -79 -40 -171q0 -122 66 -199q66 -76 173 -76q83 0 150 46t106 130t39 193q0 116 -64 181z" />
    <glyph glyph-name="A" unicode="A" horiz-adv-x="1347" 
d="M23 0l546 1434h211l545 -1434h-190l-152 387h-625l-151 -387h-184zM412 549h518l-260 690z" />
    <glyph glyph-name="B" unicode="B" horiz-adv-x="1275" 
d="M647 1434q227 0 351 -99t124 -272q0 -129 -65 -210q-66 -83 -191 -116q316 -60 316 -342q0 -185 -134 -290t-386 -105h-523v1434h508zM317 811h338q137 0 213 61t76 170t-75 169q-76 61 -214 61h-338v-461zM317 162h345q163 0 250 63t87 176q0 122 -88 186t-249 64h-345
v-489z" />
    <glyph glyph-name="C" unicode="C" horiz-adv-x="1454" 
d="M170 1098q83 165 240 257q155 91 360 91q238 0 398 -129q162 -130 202 -352h-178q-39 149 -153 233t-277 84q-148 0 -260 -72q-114 -73 -173 -199q-61 -130 -61 -294q0 -162 61 -293q60 -129 173 -201q111 -71 260 -71q166 0 276 82q111 83 152 235h178
q-40 -222 -200 -352q-159 -129 -398 -129q-205 0 -360 91q-156 92 -240 256q-84 165 -84 382q0 215 84 381z" />
    <glyph glyph-name="D" unicode="D" horiz-adv-x="1370" 
d="M139 1434h424q220 0 384 -89q162 -88 250 -251q87 -162 87 -377q0 -212 -87 -376t-250 -252q-164 -89 -384 -89h-424v1434zM563 164q258 0 398 149q141 150 141 404q0 257 -140 404q-141 149 -399 149h-246v-1106h246z" />
    <glyph glyph-name="E" unicode="E" horiz-adv-x="1140" 
d="M139 1434h914v-164h-736v-459h613v-164h-613v-483h762v-164h-940v1434z" />
    <glyph glyph-name="F" unicode="F" horiz-adv-x="1081" 
d="M139 1434h891v-164h-713v-479h590v-164h-590v-627h-178v1434z" />
    <glyph glyph-name="G" unicode="G" horiz-adv-x="1529" 
d="M170 1098q83 165 240 257q155 91 360 91q238 0 398 -129q162 -130 202 -350h-176q-40 148 -154 232q-113 83 -274 83q-147 0 -261 -72t-175 -200q-62 -130 -62 -293t62 -293q62 -129 174 -201q111 -71 258 -71q129 0 234 50q103 49 162 143t59 218v49h-431v164h605v-776
h-148l-18 227q-60 -96 -178 -168q-117 -71 -287 -71q-196 0 -350 92q-153 92 -239 257q-85 164 -85 380q0 215 84 381z" />
    <glyph glyph-name="H" unicode="H" horiz-adv-x="1376" 
d="M139 1436h178v-625h742v625h178v-1436h-178v647h-742v-647h-178v1436z" />
    <glyph glyph-name="I" unicode="I" horiz-adv-x="456" 
d="M139 1434h178v-1434h-178v1434z" />
    <glyph glyph-name="J" unicode="J" horiz-adv-x="716" 
d="M578 1434v-1096q0 -166 -86 -252t-252 -86h-187v168h164q95 0 139 44q43 43 43 140v1082h179z" />
    <glyph glyph-name="K" unicode="K" horiz-adv-x="1306" 
d="M139 1434h178v-813l723 813h217l-524 -605l565 -829h-213l-483 694l-285 -321v-373h-178v1434z" />
    <glyph glyph-name="L" unicode="L" horiz-adv-x="1021" 
d="M139 0v1434h178v-1270h654v-164h-832z" />
    <glyph glyph-name="M" unicode="M" horiz-adv-x="1734" 
d="M139 1434h226l507 -1190l502 1190h221v-1434h-174v1130l-475 -1130h-158l-475 1130v-1130h-174v1434z" />
    <glyph glyph-name="N" unicode="N" horiz-adv-x="1386" 
d="M139 0v1434h164l770 -1106v1106h174v-1434h-164l-770 1106v-1106h-174z" />
    <glyph glyph-name="O" unicode="O" horiz-adv-x="1540" 
d="M1367 342q-86 -165 -243 -260q-155 -94 -354 -94t-354 94q-157 95 -243 260q-87 166 -87 375t87 375q86 165 243 260q155 94 354 94t354 -94q157 -95 243 -260q87 -166 87 -375t-87 -375zM332 425q64 -130 177 -201q114 -72 261 -72t261 72q113 71 177 201t64 292
t-64 292q-63 128 -177 200q-116 73 -261 73t-261 -73q-114 -72 -177 -200q-64 -130 -64 -292t64 -292z" />
    <glyph glyph-name="P" unicode="P" horiz-adv-x="1216" 
d="M690 1434q140 0 250 -55q109 -54 167 -153q58 -98 58 -233q0 -134 -59 -233q-61 -102 -167 -155q-108 -54 -249 -54h-373v-551h-178v1434h551zM317 715h357q142 0 225 76q84 77 84 202q0 127 -83 202t-224 75h-359v-555z" />
    <glyph glyph-name="Q" unicode="Q" horiz-adv-x="1548" 
d="M1542 164v-164h-131q-78 0 -129 23q-49 22 -88 75l-14 21q-173 -131 -410 -131q-199 0 -354 94q-157 95 -243 260q-87 166 -87 375t87 375q86 165 243 260q155 94 354 94t354 -94q157 -95 243 -260q87 -166 87 -375q0 -139 -41 -264t-117 -220q28 -38 60 -54
q30 -15 76 -15h110zM1077 258l-39 53q-29 40 -57 56t-68 16h-120v164h149q70 0 115 -24q44 -24 84 -77l45 -61q86 140 86 332q0 162 -64 292q-63 128 -177 200q-116 73 -261 73t-261 -73q-114 -72 -177 -200q-64 -130 -64 -292t64 -292t177 -201q114 -72 261 -72
q179 0 307 106z" />
    <glyph glyph-name="R" unicode="R" horiz-adv-x="1251" 
d="M688 1434q140 0 250 -55q108 -54 168 -153q59 -97 59 -233q0 -149 -83 -259q-82 -109 -222 -148l322 -586h-201l-297 551h-367v-551h-178v1434h549zM317 715h357q142 0 225 76q84 77 84 202t-84 201q-83 76 -223 76h-359v-555z" />
    <glyph glyph-name="S" unicode="S" horiz-adv-x="1243" 
d="M262 469q10 -145 117 -232t270 -87q148 0 239 64t91 179q0 83 -50 133q-49 49 -129 73q-76 23 -214 46q-216 38 -342 121q-127 84 -127 272q0 122 61 214q62 94 173 145t255 51q152 0 268 -55q117 -56 185 -155q69 -101 76 -228h-177q-16 124 -112 200q-95 76 -240 76
q-144 0 -227 -62q-84 -63 -84 -175q0 -82 49 -128t127 -70q74 -23 213 -46q217 -38 344 -122q129 -85 129 -273q0 -125 -64 -220q-65 -96 -181 -149q-117 -53 -265 -53q-169 0 -293 60q-123 59 -193 170q-69 109 -75 251h176z" />
    <glyph glyph-name="T" unicode="T" horiz-adv-x="1210" 
d="M51 1434h1108v-164h-465v-1270h-178v1270h-465v164z" />
    <glyph glyph-name="U" unicode="U" horiz-adv-x="1355" 
d="M309 1434v-832q0 -450 367 -450q371 0 371 450v832h178v-822q0 -307 -141 -466q-140 -158 -408 -158q-270 0 -407 158q-138 159 -138 466v822h178z" />
    <glyph glyph-name="V" unicode="V" horiz-adv-x="1284" 
d="M18 1434h189l438 -1223l436 1223h185l-516 -1434h-215z" />
    <glyph glyph-name="W" unicode="W" horiz-adv-x="2031" 
d="M57 1434h187l336 -1205l352 1205h180l340 -1205l338 1205h184l-420 -1434h-213l-327 1137l-326 -1137h-213z" />
    <glyph glyph-name="X" unicode="X" horiz-adv-x="1310" 
d="M547 733l-457 701h209l363 -557l366 557h193l-457 -701l487 -733h-211l-393 590l-395 -590h-193z" />
    <glyph glyph-name="Y" unicode="Y" horiz-adv-x="1296" 
d="M18 1436h209l422 -713l428 713h201l-541 -906v-530h-178v530z" />
    <glyph glyph-name="Z" unicode="Z" horiz-adv-x="1245" 
d="M88 1434h1069v-129l-856 -1141h883v-164h-1123v129l857 1141h-830v164z" />
    <glyph glyph-name="bracketleft" unicode="[" horiz-adv-x="614" 
d="M129 1436h451v-150h-293v-1548h293v-148h-451v1846z" />
    <glyph glyph-name="backslash" unicode="\" horiz-adv-x="661" 
d="M711 -410h-160l-600 1844h160z" />
    <glyph glyph-name="bracketright" unicode="]" horiz-adv-x="614" 
d="M485 -412h-450v150h293v1548h-293v148h450v-1846z" />
    <glyph glyph-name="asciicircum" unicode="^" horiz-adv-x="1052" 
d="M88 795l371 639h135l373 -639h-156l-289 491l-286 -491h-148z" />
    <glyph glyph-name="underscore" unicode="_" horiz-adv-x="1030" 
d="M121 -180v168h788v-168h-788z" />
    <glyph glyph-name="grave" unicode="`" horiz-adv-x="819" 
d="M106 1434h197l170 -279h-133z" />
    <glyph glyph-name="a" unicode="a" horiz-adv-x="1105" 
d="M1092 154v-154h-93q-99 0 -143 41q-43 40 -45 121q-121 -174 -350 -174q-176 0 -280 82q-105 83 -105 223q0 159 107 242t313 83h307v72q0 103 -69 160t-191 57q-109 0 -179 -48q-72 -49 -88 -128h-167q18 155 136 240q119 86 306 86q200 0 310 -98t110 -279v-451
q0 -75 69 -75h52zM803 477h-324q-233 0 -233 -174q0 -79 61 -125q62 -47 166 -47q153 0 242 81q88 81 88 214v51z" />
    <glyph glyph-name="b" unicode="b" horiz-adv-x="1220" 
d="M900 993q114 -63 178 -184q65 -122 65 -287q0 -156 -65 -278q-64 -121 -179 -189q-113 -67 -258 -67q-128 0 -217 46q-90 46 -141 126l-23 -160h-145v1434h168v-557q131 180 358 180q143 0 259 -64zM876 245q95 109 95 277q0 169 -95 278q-94 107 -251 107
q-101 0 -180 -48q-77 -46 -121 -135q-43 -86 -43 -198q0 -114 43 -201q45 -92 121 -139q79 -49 180 -49q157 0 251 108z" />
    <glyph glyph-name="c" unicode="c" horiz-adv-x="1126" 
d="M893 87q-121 -99 -307 -99q-154 0 -267 67q-115 68 -178 190q-63 121 -63 279t64 279q64 120 182 187q119 67 268 67q184 0 304 -99q121 -100 151 -270h-170q-24 99 -103 160q-77 59 -188 59q-150 0 -243 -106q-93 -107 -93 -277q0 -171 93 -279t243 -108q114 0 192 60
q79 61 101 163h168q-33 -174 -154 -273z" />
    <glyph glyph-name="d" unicode="d" horiz-adv-x="1220" 
d="M1106 1434v-1434h-145l-23 168q-130 -180 -358 -180q-145 0 -259 63t-179 185q-64 121 -64 286q0 158 64 279q63 119 180 188q115 68 258 68q128 0 217 -46q90 -47 141 -126v549h168zM775 185q77 47 122 136q43 86 43 197q0 115 -43 202q-44 89 -122 138q-79 49 -179 49
q-157 0 -251 -107q-95 -109 -95 -278q0 -168 95 -277q94 -108 251 -108q100 0 179 48z" />
    <glyph glyph-name="e" unicode="e" horiz-adv-x="1146" 
d="M140 803q63 121 175 187q114 67 258 67q143 0 254 -60t174 -172q64 -113 68 -264q0 -28 -4 -72h-811v-14q5 -155 94 -246q90 -92 236 -92q112 0 191 57t106 156h170q-30 -158 -154 -261q-122 -101 -301 -101q-155 0 -272 66t-182 189q-64 121 -64 279q0 161 62 281z
M895 629q-12 133 -99 207q-86 73 -221 73q-118 0 -208 -78q-91 -79 -103 -202h631z" />
    <glyph glyph-name="f" unicode="f" horiz-adv-x="645" 
d="M184 1044v117q0 139 65 206t208 67h192v-154h-182q-61 0 -88 -27t-27 -88v-121h295v-153h-295v-891h-168v891h-188v153h188z" />
    <glyph glyph-name="g" unicode="g" horiz-adv-x="1220" 
d="M1106 1044v-993q0 -473 -518 -473q-203 0 -331 92q-127 91 -148 262h172q21 -99 104 -151q85 -53 215 -53q338 0 338 329v123q-112 -192 -358 -192q-145 0 -259 63t-179 185q-64 121 -64 286q0 158 64 279q63 119 180 188q115 68 258 68q126 0 217 -50q88 -49 141 -143
l23 180h145zM775 185q77 47 122 136q43 86 43 197q0 115 -43 202q-44 89 -122 138q-79 49 -179 49q-157 0 -251 -107q-95 -109 -95 -278q0 -168 95 -277q94 -108 251 -108q100 0 179 48z" />
    <glyph glyph-name="h" unicode="h" horiz-adv-x="1150" 
d="M934 942q117 -114 117 -360v-582h-168v571q0 161 -74 247q-73 85 -211 85q-144 0 -230 -102q-85 -101 -85 -279v-522h-168v1434h168v-562q52 84 136 134q85 51 208 51q189 0 307 -115z" />
    <glyph glyph-name="i" unicode="i" horiz-adv-x="397" 
d="M276 1417q31 -31 31 -78q0 -46 -31 -77t-77 -31q-47 0 -78 31t-31 77q0 47 31 78t78 31q46 0 77 -31zM115 1044h168v-1044h-168v1044z" />
    <glyph glyph-name="j" unicode="j" horiz-adv-x="409" 
d="M289 1417q30 -30 30 -78q0 -47 -30 -77q-31 -31 -78 -31t-78 31t-31 77q0 47 31 78t78 31t78 -31zM12 -256q61 0 88 27t27 88v1185h168v-1181q0 -139 -65 -206t-207 -67h-142v154h131z" />
    <glyph glyph-name="k" unicode="k" horiz-adv-x="1058" 
d="M115 1434h168v-951l530 561h201l-402 -428l430 -616h-202l-348 496l-209 -220v-276h-168v1434z" />
    <glyph glyph-name="l" unicode="l" horiz-adv-x="397" 
d="M115 1434h168v-1434h-168v1434z" />
    <glyph glyph-name="m" unicode="m" horiz-adv-x="1775" 
d="M1566 946q109 -110 109 -344v-602h-168v592q0 152 -64 231q-65 80 -183 80q-131 0 -206 -92q-75 -91 -75 -252v-559h-168v592q0 152 -66 231q-66 80 -186 80q-127 0 -202 -97q-74 -96 -74 -255v-551h-168v1044h145l23 -143q113 156 305 156q111 0 199 -50
q87 -50 131 -149q113 199 362 199q176 0 286 -111z" />
    <glyph glyph-name="n" unicode="n" horiz-adv-x="1148" 
d="M933 942q116 -114 116 -360v-582h-168v571q0 160 -73 247q-72 85 -210 85q-147 0 -231 -102t-84 -279v-522h-168v1044h145l23 -141q119 154 344 154q189 0 306 -115z" />
    <glyph glyph-name="o" unicode="o" horiz-adv-x="1191" 
d="M327 55q-118 67 -184 189q-65 120 -65 278q0 159 65 279t184 188t269 68t269 -68t184 -188t65 -279q0 -158 -65 -278q-66 -122 -184 -189t-269 -67t-269 67zM777 186q78 49 122 138q43 87 43 198q0 112 -43 199q-43 88 -122 137t-181 49t-181 -49t-122 -137
q-43 -87 -43 -199q0 -111 43 -198q44 -89 122 -138q79 -49 181 -49t181 49z" />
    <glyph glyph-name="p" unicode="p" horiz-adv-x="1220" 
d="M900 993q114 -63 178 -184q65 -122 65 -287q0 -156 -65 -278q-64 -121 -179 -189q-113 -67 -258 -67q-128 0 -217 46q-90 46 -141 126v-570h-168v1454h145l23 -167q131 180 358 180q143 0 259 -64zM876 245q95 109 95 277q0 169 -95 278q-94 107 -251 107
q-101 0 -180 -48q-77 -46 -121 -135q-43 -86 -43 -198q0 -114 43 -201q45 -92 121 -139q79 -49 180 -49q157 0 251 108z" />
    <glyph glyph-name="q" unicode="q" horiz-adv-x="1220" 
d="M1106 1044v-1454h-168v578q-130 -180 -358 -180q-145 0 -259 63t-179 185q-64 121 -64 286q0 158 64 279q63 119 180 188q115 68 258 68q128 0 217 -46q90 -47 141 -126l23 159h145zM775 185q77 47 122 136q43 86 43 197q0 115 -43 202q-44 89 -122 138q-79 49 -179 49
q-157 0 -251 -107q-95 -109 -95 -278q0 -168 95 -277q94 -108 251 -108q100 0 179 48z" />
    <glyph glyph-name="r" unicode="r" horiz-adv-x="684" 
d="M645 1044v-163h-84q-149 0 -214 -101q-64 -100 -64 -248v-532h-168v1044h145l23 -157q44 71 116 114q71 43 199 43h47z" />
    <glyph glyph-name="s" unicode="s" horiz-adv-x="1021" 
d="M246 344q5 -95 83 -154t203 -59q110 0 180 44q68 43 68 116q0 62 -32 94q-33 33 -85 45q-62 14 -149 25q-138 17 -221 43q-88 28 -139 85q-54 60 -54 160q0 91 53 164q52 72 142 112q89 40 203 40q184 0 300 -86t128 -246h-168q-10 82 -80 135t-174 53q-105 0 -172 -44
q-66 -43 -66 -115q0 -53 31 -82q30 -28 79 -39q54 -12 146 -23q140 -17 227 -45q89 -29 143 -92t54 -172q0 -95 -55 -166q-54 -71 -150 -110q-95 -39 -209 -39q-204 0 -328 94q-125 95 -126 262h168z" />
    <glyph glyph-name="t" unicode="t" horiz-adv-x="653" 
d="M184 891h-188v153h188v293h168v-293h264v-153h-264v-617q0 -65 26 -93q26 -27 89 -27h182v-154h-192q-147 0 -210 66t-63 206v619z" />
    <glyph glyph-name="u" unicode="u" horiz-adv-x="1128" 
d="M1014 1044v-1044h-146l-22 139q-118 -151 -334 -151q-186 0 -299 114q-113 115 -113 361v581h168v-571q0 -161 71 -247q70 -85 202 -85q142 0 224 103q81 102 81 278v522h168z" />
    <glyph glyph-name="v" unicode="v" horiz-adv-x="1005" 
d="M10 1044h180l316 -854l313 854h176l-391 -1044h-203z" />
    <glyph glyph-name="w" unicode="w" horiz-adv-x="1601" 
d="M16 1044h177l260 -849l274 849h156l260 -849l272 849h170l-348 -1044h-184l-252 776l-262 -776l-185 -2z" />
    <glyph glyph-name="x" unicode="x" horiz-adv-x="1034" 
d="M414 537l-371 507h201l278 -387l283 387h186l-373 -507l400 -537h-201l-307 420l-307 -420h-187z" />
    <glyph glyph-name="y" unicode="y" horiz-adv-x="1009" 
d="M188 1044l322 -851l311 851h178l-481 -1220q-39 -99 -65 -141q-29 -48 -72 -70q-44 -23 -115 -23h-200v154h149q51 0 74 10q26 11 40 34q17 27 38 79l53 125l-410 1052h178z" />
    <glyph glyph-name="z" unicode="z" horiz-adv-x="974" 
d="M72 1044h831v-126l-635 -764h662v-154h-885v127l633 764h-606v153z" />
    <glyph glyph-name="braceleft" unicode="{" horiz-adv-x="673" 
d="M422 1236q-53 -50 -53 -142q0 -18 8 -74l41 -193q10 -49 10 -84q0 -88 -51 -148t-146 -83q95 -17 147 -76t52 -147q0 -43 -12 -92l-41 -193q-8 -56 -8 -76q0 -90 53 -140t153 -50l64 -2v-146h-57q-175 0 -274 81t-99 225q0 47 8 90l39 200q8 42 8 82q0 79 -53 123
q-51 42 -154 47v148q105 5 156 47q53 44 53 123q0 33 -10 82l-39 200q-8 43 -8 90q0 144 99 225t274 81h57v-146l-64 -2q-100 0 -153 -50z" />
    <glyph glyph-name="bar" unicode="|" horiz-adv-x="446" 
d="M139 1434h168v-1844h-168v1844z" />
    <glyph glyph-name="braceright" unicode="}" horiz-adv-x="673" 
d="M463 391q-53 -44 -53 -123q0 -40 8 -82l39 -200q8 -43 8 -90q0 -144 -99 -225t-274 -81h-57v146l63 2q101 0 154 50t53 140q0 20 -8 76l-41 193q-12 49 -12 92q0 88 52 147q52 60 146 76q-93 22 -145 83q-51 60 -51 148q0 35 10 84l41 193q8 56 8 74q0 92 -53 142
t-154 50l-63 2v146h57q175 0 274 -81t99 -225q0 -47 -8 -90l-39 -200q-10 -49 -10 -82q0 -79 53 -123q51 -42 155 -47v-148q-102 -5 -153 -47z" />
    <glyph glyph-name="asciitilde" unicode="~" horiz-adv-x="1073" 
d="M125 418q0 140 63 216q63 77 174 77q69 0 118 -23q50 -24 100 -63q39 -29 63 -42q25 -14 55 -14q62 0 86 38q25 39 25 106h141q0 -139 -63 -215t-176 -76q-74 0 -119 22q-47 23 -100 62q-36 27 -62 42q-23 13 -55 13q-60 0 -84 -38q-25 -39 -25 -105h-141z" />
    <glyph glyph-name="exclamdown" unicode="&#xa1;" horiz-adv-x="512" 
d="M377 1414q33 -32 33 -83t-33 -83q-32 -31 -84 -31t-84 31q-33 32 -33 83t33 83q34 32 84 32t84 -32zM229 1006h129l25 -1006h-180z" />
    <glyph glyph-name="cent" unicode="&#xa2;" horiz-adv-x="1126" 
d="M778 385q79 61 101 164h168q-29 -152 -124 -247q-96 -96 -245 -120v-182h-156v180q-131 12 -234 83q-101 70 -156 187q-54 116 -54 263q0 221 121 363q122 143 323 165v193h156v-195q151 -21 245 -117q96 -97 124 -245h-170q-23 98 -103 159q-78 60 -188 60
q-150 0 -243 -107t-93 -276q0 -172 93 -280q92 -107 243 -107q115 0 192 59z" />
    <glyph glyph-name="sterling" unicode="&#xa3;" horiz-adv-x="1257" 
d="M256 743l-14 62q-20 84 -25 110q-8 46 -8 93q0 129 62 226q63 99 169 156q105 56 236 56q220 0 347 -118t148 -333h-170q-21 139 -100 215t-219 76q-132 0 -218 -81q-85 -81 -85 -210q0 -37 9 -81q6 -29 20 -87q10 -34 20 -84h436v-143h-420q7 -38 7 -70q0 -94 -39 -189
t-111 -173l866 -4v-164h-1054v156q161 177 161 391q0 29 -2 53h-186v143h170z" />
    <glyph glyph-name="currency" unicode="&#xa4;" horiz-adv-x="1275" 
d="M367 1106q121 88 272 88q149 0 270 -88l154 154l119 -117l-152 -152q98 -120 98 -291q0 -154 -84 -272l138 -137l-119 -117l-135 135q-60 -46 -134 -73q-75 -27 -155 -27q-82 0 -157 27q-74 27 -134 73l-135 -135l-119 119l137 137q-84 118 -84 270q0 170 99 291
l-152 152l119 117zM393 454q96 -96 246 -96q148 0 244 96q94 94 94 246q0 153 -94 248q-95 96 -244 96q-151 0 -246 -96q-94 -95 -94 -248q0 -152 94 -246z" />
    <glyph glyph-name="yen" unicode="&#xa5;" horiz-adv-x="1341" 
d="M1282 1436l-475 -803h328v-131h-390v-164h390v-131h-390v-207h-178v207h-389v131h389v164h-389v131h328l-483 803h213l421 -711l426 711h199z" />
    <glyph glyph-name="brokenbar" unicode="&#xa6;" horiz-adv-x="446" 
d="M139 1434h168v-816h-168v816zM139 401h168v-811h-168v811z" />
    <glyph glyph-name="section" unicode="&#xa7;" horiz-adv-x="1210" 
d="M1021 441q-59 -71 -163 -111q137 -83 137 -238q0 -139 -107 -224t-284 -85q-170 0 -279 82q-111 83 -118 223h168q6 -82 67 -125t162 -43q102 0 164 42q61 42 61 118q0 61 -31 98t-81 58q-51 22 -137 45q-149 41 -239 78q-88 36 -151 102q-59 62 -59 162t56 169
q56 70 159 109q-64 41 -98 97q-35 58 -35 139q0 138 110 224q109 85 289 85q167 0 274 -82q108 -82 115 -223h-167q-5 84 -64 126q-60 42 -158 42q-107 0 -170 -42t-63 -116q0 -60 32 -98t82 -59q55 -23 136 -46q138 -38 238 -79q92 -38 152 -101t60 -160t-58 -167zM905 598
q0 61 -36 97t-91 57q-57 21 -172 51q-71 18 -110 33q-191 -53 -191 -203q0 -60 35 -98q34 -37 91 -58t171 -51q43 -10 115 -35q188 52 188 207z" />
    <glyph glyph-name="dieresis" unicode="&#xa8;" horiz-adv-x="819" 
d="M147 1377q30 30 76 30q48 0 78 -30q31 -31 31 -77q0 -43 -31 -74q-30 -30 -78 -30q-46 0 -76 30t-30 74q0 47 30 77zM519 1376q33 31 77 31q47 0 77 -30q29 -29 29 -77q0 -44 -30 -74t-76 -30t-77 30q-32 30 -32 74q0 46 32 76z" />
    <glyph glyph-name="copyright" unicode="&#xa9;" horiz-adv-x="1667" 
d="M187 1086q98 168 268 264q169 96 376 96t378 -96q170 -95 270 -264q98 -165 98 -369q0 -205 -98 -370q-99 -167 -270 -263t-378 -96t-376 96q-171 97 -268 263t-97 370q0 203 97 369zM1370 1030q-83 141 -223 222q-141 81 -316 81q-172 0 -313 -81t-222 -222t-81 -313
q0 -173 81 -314t222 -222t313 -81q175 0 316 81q140 81 223 222q82 140 82 314q0 173 -82 313zM1080 378q-99 -81 -246 -81q-122 0 -214 57t-140 155q-48 97 -48 212t48 211t140 153q93 58 214 58q143 0 244 -82q102 -83 126 -223h-139q-21 81 -82 130q-62 50 -147 50
q-126 0 -195 -85q-70 -87 -70 -212q0 -126 71 -214q70 -87 194 -87q88 0 148 48q61 49 83 132h137q-24 -140 -124 -222z" />
    <glyph glyph-name="ordfeminine" unicode="&#xaa;" horiz-adv-x="874" 
d="M191 1114q73 53 208 53h174v43q0 62 -41 97q-40 34 -116 34q-62 0 -102 -30t-46 -80h-131q7 100 85 158q76 57 198 57q134 0 206 -63t72 -177v-262q0 -53 56 -53h26v-103h-67q-119 0 -119 113v14q-27 -62 -86 -99q-61 -38 -146 -38q-111 0 -177 48t-66 137q0 99 72 151z
M573 1079h-178q-67 0 -103 -29q-38 -30 -38 -79q0 -46 33 -70t90 -24q89 0 142 56q54 57 54 134v12zM111 616h669v-120h-669v120z" />
    <glyph glyph-name="guillemotleft" unicode="&#xab;" horiz-adv-x="1191" 
d="M604 1044l-321 -522l321 -522h-170l-325 522l325 522h170zM1083 1042l-321 -522l321 -522h-170l-325 522l325 522h170z" />
    <glyph glyph-name="logicalnot" unicode="&#xac;" horiz-adv-x="1073" 
d="M119 707h751v-482h-149v338h-602v144z" />
    <glyph glyph-name="registered" unicode="&#xae;" horiz-adv-x="1042" 
d="M151 1240q58 99 153 153q97 55 216 55q121 0 218 -55q96 -55 154 -152q56 -94 56 -215t-56 -214q-57 -95 -154 -150q-98 -56 -218 -56q-118 0 -216 56q-95 54 -153 150q-57 95 -57 212q0 118 57 216zM813 1200q-44 79 -120 122q-77 44 -173 44q-94 0 -171 -44
q-76 -43 -120 -122q-43 -77 -43 -176q0 -97 43 -173q43 -77 120 -120q76 -43 171 -43q96 0 173 44q76 43 120 121q43 76 43 173t-43 174zM539 1260q81 0 131 -41q49 -40 49 -107q0 -51 -29 -86q-28 -34 -80 -49l111 -184h-100l-99 165h-71v-165h-91v467h179zM451 1034h84
q39 0 64 21q26 21 26 57q0 34 -25 53t-65 19h-84v-150z" />
    <glyph glyph-name="macron" unicode="&#xaf;" horiz-adv-x="819" 
d="M129 1243v127h563v-127h-563z" />
    <glyph glyph-name="degree" unicode="&#xb0;" horiz-adv-x="876" 
d="M139 1282q44 75 124 119q79 43 175 43t175 -43q80 -44 124 -119q45 -77 45 -170q0 -92 -45 -167t-124 -118t-175 -43t-175 43t-124 118t-45 167q0 94 45 170zM584 1257q-58 58 -146 58q-87 0 -145 -58q-57 -57 -57 -145q0 -85 57 -142t145 -57q89 0 146 57t57 142
q0 88 -57 145z" />
    <glyph glyph-name="plusminus" unicode="&#xb1;" horiz-adv-x="1073" 
d="M119 0v141h835v-141h-835zM459 1053h153v-359h342v-141h-342v-360h-153v360h-340v141h340v359z" />
    <glyph glyph-name="uni00B2" unicode="&#xb2;" horiz-adv-x="645" 
d="M53 1393q0 117 76 187q77 71 190 71q123 0 197 -65t74 -169q0 -75 -38 -128q-36 -50 -110 -109l-217 -174h371v-113h-545v106l303 238q53 43 85 86q30 41 30 92q0 56 -41 91q-40 34 -106 34q-71 0 -112 -40q-42 -40 -42 -111v-11h-115v15z" />
    <glyph glyph-name="uni00B3" unicode="&#xb3;" horiz-adv-x="665" 
d="M136 1593q71 62 194 62q122 0 195 -58t73 -151q0 -58 -35 -99q-34 -39 -88 -55q65 -12 102 -57q37 -44 37 -115q0 -107 -77 -171t-209 -64q-136 0 -209 64q-74 65 -76 184h117q2 -68 47 -104t123 -36q69 0 115 34q47 35 47 89t-48 88q-47 33 -125 33h-45v84h48
q67 0 112 31q43 30 43 82t-40 82q-41 30 -103 30q-71 0 -111 -34q-42 -35 -43 -91h-117q1 110 73 172z" />
    <glyph glyph-name="acute" unicode="&#xb4;" horiz-adv-x="819" 
d="M348 1157l174 277h197l-240 -277h-131z" />
    <glyph glyph-name="uni00B5" unicode="&#xb5;" horiz-adv-x="1155" 
d="M285 -410h-170v1452h168v-553q0 -169 73 -258q74 -90 209 -90q139 0 223 108t84 290v503h168v-1042h-151l-17 162q-108 -174 -323 -174q-88 0 -163 34q-78 35 -101 78v-510z" />
    <glyph glyph-name="paragraph" unicode="&#xb6;" horiz-adv-x="1374" 
d="M770 473h-207q-152 0 -268 61q-115 61 -178 168q-64 110 -64 250t64 251q63 109 178 170q116 61 266 61h369v-1434h-160v473zM1077 1434h160v-1434h-160v1434z" />
    <glyph glyph-name="periodcentered" unicode="&#xb7;" horiz-adv-x="421" 
d="M127 683q34 32 84 32t84 -32q33 -31 33 -83t-33 -83q-34 -32 -84 -32t-84 32q-33 31 -33 83t33 83z" />
    <glyph glyph-name="cedilla" unicode="&#xb8;" horiz-adv-x="819" 
d="M467 37l-33 -123h23q82 0 133 -42t51 -110q0 -78 -52 -124q-54 -48 -136 -48h-185v101h158q86 0 86 67q0 27 -24 43q-25 17 -60 17h-102l53 219h88z" />
    <glyph glyph-name="uni00B9" unicode="&#xb9;" horiz-adv-x="368" 
d="M174 895v500q-15 -21 -41 -21h-133v113h133q19 0 31 16t12 41v96h113v-745h-115z" />
    <glyph glyph-name="ordmasculine" unicode="&#xba;" horiz-adv-x="858" 
d="M660 870q-89 -92 -232 -92t-232 92q-90 93 -90 242q0 148 90 243q89 93 232 93q144 0 232 -93q90 -95 90 -243q0 -149 -90 -242zM293 953q51 -60 135 -60t136 60q52 59 52 159q0 99 -52 160t-136 61t-135 -61q-51 -62 -51 -160q0 -99 51 -159zM104 616h650v-120h-650v120
z" />
    <glyph glyph-name="guillemotright" unicode="&#xbb;" horiz-adv-x="1191" 
d="M588 1044h170l325 -522l-325 -522h-170l321 522zM109 1042h170l325 -522l-325 -522h-170l321 522z" />
    <glyph glyph-name="onequarter" unicode="&#xbc;" horiz-adv-x="1259" 
d="M174 690v500q-15 -21 -41 -21h-133v113h133q19 0 31 16t12 41v97h113v-746h-115zM37 0l909 1434h135l-909 -1434h-135zM999 745h144v-452h121v-109h-121v-184h-115v184h-379v109zM1028 623l-254 -330h254v330z" />
    <glyph glyph-name="onehalf" unicode="&#xbd;" horiz-adv-x="1347" 
d="M174 690v500q-15 -21 -41 -21h-133v113h133q19 0 31 16t12 41v97h113v-746h-115zM37 0l909 1434h135l-909 -1434h-135zM768 500q0 117 76 187q77 71 190 71q123 0 197 -65t74 -169q0 -75 -38 -128q-36 -50 -110 -109l-217 -174h371v-113h-545v106l303 238q53 43 85 86
q30 40 30 92q0 56 -41 91q-40 34 -107 34q-70 0 -111 -40q-42 -41 -42 -111v-11h-115v15z" />
    <glyph glyph-name="threequarters" unicode="&#xbe;" horiz-adv-x="1556" 
d="M136 1389q70 61 194 61q123 0 195 -57q73 -58 73 -152q0 -58 -35 -99q-34 -39 -88 -55q65 -12 102 -57q37 -44 37 -115q0 -107 -77 -171t-209 -64q-136 0 -209 64q-74 65 -76 184h117q2 -68 47 -104t123 -36q69 0 115 34q47 35 47 89t-48 88q-47 33 -125 33h-45v84h48
q67 0 112 31q43 30 43 82t-40 82q-41 30 -103 30q-72 0 -111 -33q-42 -35 -43 -91h-117q1 110 73 172zM334 0l909 1434h135l-909 -1434h-135zM1296 745h144v-452h121v-109h-121v-184h-115v184h-379v109zM1325 623l-254 -330h254v330z" />
    <glyph glyph-name="questiondown" unicode="&#xbf;" horiz-adv-x="1044" 
d="M618 1248q-32 -31 -83 -31q-52 0 -84 31q-33 32 -33 83t33 83q34 32 84 32q49 0 83 -32q33 -32 33 -83t-33 -83zM919 218q-57 -107 -162 -169q-104 -61 -247 -61q-129 0 -231 47q-101 47 -155 129t-54 186q0 125 53 205q52 79 147 145q103 73 146 120t43 124v53h157v-71
q0 -76 -28 -131q-29 -56 -71 -92q-45 -38 -120 -89q-74 -51 -113 -110q-38 -58 -38 -137q0 -98 72 -161t190 -63q133 0 214 86q81 85 81 228h172q0 -133 -56 -239z" />
    <glyph glyph-name="Agrave" unicode="&#xc0;" horiz-adv-x="1347" 
d="M23 0l546 1434h211l545 -1434h-190l-152 387h-625l-151 -387h-184zM412 549h518l-260 690zM371 1835h196l170 -279h-133z" />
    <glyph glyph-name="Aacute" unicode="&#xc1;" horiz-adv-x="1347" 
d="M23 0l546 1434h211l545 -1434h-190l-152 387h-625l-151 -387h-184zM412 549h518l-260 690zM612 1559l174 276h197l-240 -276h-131z" />
    <glyph glyph-name="Acircumflex" unicode="&#xc2;" horiz-adv-x="1347" 
d="M23 0l546 1434h211l545 -1434h-190l-152 387h-625l-151 -387h-184zM412 549h518l-260 690zM674 1724l-178 -168h-160l258 279h160l258 -279h-162z" />
    <glyph glyph-name="Atilde" unicode="&#xc3;" horiz-adv-x="1347" 
d="M23 0l546 1434h211l545 -1434h-190l-152 387h-625l-151 -387h-184zM412 549h518l-260 690zM507 1686q-20 -29 -20 -72h-106v24q0 84 48 136q48 53 128 53q51 0 83 -18q33 -19 65 -48q25 -23 41 -34q17 -11 40 -11q36 0 54 29t18 72h107v-25q0 -81 -49 -135
q-48 -53 -125 -53q-53 0 -82 16q-35 19 -66 49q-22 22 -40 34q-17 11 -42 11q-35 0 -54 -28z" />
    <glyph glyph-name="Adieresis" unicode="&#xc4;" horiz-adv-x="1347" 
d="M23 0l546 1434h211l545 -1434h-190l-152 387h-625l-151 -387h-184zM412 549h518l-260 690zM411 1779q29 29 76 29q49 0 78 -29q31 -31 31 -77q0 -44 -31 -75q-30 -30 -78 -30q-45 0 -75 30q-31 31 -31 75q0 47 30 77zM783 1778q32 30 77 30q47 0 76 -29q31 -31 31 -77
q0 -44 -31 -75q-30 -30 -76 -30t-77 30t-31 75q0 46 31 76z" />
    <glyph glyph-name="Aring" unicode="&#xc5;" horiz-adv-x="1347" 
d="M1325 0h-190l-152 387h-625l-151 -387h-184l532 1397q-55 28 -87 82q-32 53 -32 116q0 95 69 161q70 67 169 67t169 -67q68 -65 68 -161q0 -62 -31 -114q-32 -54 -85 -84zM583 1690q-38 -38 -38 -95q0 -58 37 -95q38 -38 92 -38t92 38q37 37 37 95t-37 95q-36 36 -92 36
q-55 0 -91 -36zM412 549h518l-260 690z" />
    <glyph glyph-name="AE" unicode="&#xc6;" horiz-adv-x="1961" 
d="M1139 164h762v-164h-940v362h-545l-228 -362h-186l868 1434h1004v-164h-735v-459h612v-164h-612v-483zM498 518h463v764z" />
    <glyph glyph-name="Ccedilla" unicode="&#xc7;" horiz-adv-x="1454" 
d="M1038 234q111 83 152 235h178q-39 -210 -183 -338q-142 -126 -362 -141l-20 -76h22q82 0 133 -42q52 -43 52 -110q0 -77 -53 -124q-54 -48 -136 -48h-184v101h158q86 0 86 67q0 27 -24 43q-25 17 -60 17h-103l41 170q-194 7 -343 100q-146 91 -226 255q-80 165 -80 374
q0 215 84 381q83 165 240 257q155 91 360 91q238 0 398 -129q162 -130 202 -352h-178q-39 149 -153 233t-277 84q-148 0 -260 -72q-114 -73 -173 -199q-61 -130 -61 -294q0 -162 61 -293q60 -129 173 -201q111 -71 260 -71q166 0 276 82z" />
    <glyph glyph-name="Egrave" unicode="&#xc8;" horiz-adv-x="1140" 
d="M139 1434h914v-164h-736v-459h613v-164h-613v-483h762v-164h-940v1434zM279 1835h196l170 -279h-133z" />
    <glyph glyph-name="Eacute" unicode="&#xc9;" horiz-adv-x="1140" 
d="M139 1434h914v-164h-736v-459h613v-164h-613v-483h762v-164h-940v1434zM520 1559l174 276h197l-240 -276h-131z" />
    <glyph glyph-name="Ecircumflex" unicode="&#xca;" horiz-adv-x="1140" 
d="M139 1434h914v-164h-736v-459h613v-164h-613v-483h762v-164h-940v1434zM582 1724l-179 -168h-159l258 279h160l258 -279h-162z" />
    <glyph glyph-name="Edieresis" unicode="&#xcb;" horiz-adv-x="1140" 
d="M139 1434h914v-164h-736v-459h613v-164h-613v-483h762v-164h-940v1434zM318 1779q29 29 77 29q49 0 78 -29q31 -31 31 -77q0 -44 -31 -75q-30 -30 -78 -30q-46 0 -76 30t-30 75q0 48 29 77zM691 1778q31 30 77 30q47 0 76 -29q30 -30 30 -77q0 -45 -30 -75t-76 -30
t-77 30q-32 30 -32 75q0 46 32 76z" />
    <glyph glyph-name="Igrave" unicode="&#xcc;" horiz-adv-x="456" 
d="M139 1434h178v-1434h-178v1434zM-76 1835h197l170 -279h-133z" />
    <glyph glyph-name="Iacute" unicode="&#xcd;" horiz-adv-x="456" 
d="M139 1434h178v-1434h-178v1434zM166 1559l174 276h197l-240 -276h-131z" />
    <glyph glyph-name="Icircumflex" unicode="&#xce;" horiz-adv-x="456" 
d="M139 1434h178v-1434h-178v1434zM227 1724l-178 -168h-160l258 279h160l258 -279h-162z" />
    <glyph glyph-name="Idieresis" unicode="&#xcf;" horiz-adv-x="456" 
d="M139 1434h178v-1434h-178v1434zM-36 1779q29 29 77 29q49 0 78 -29q31 -31 31 -77q0 -44 -31 -75q-30 -30 -78 -30q-46 0 -76 30q-31 31 -31 75q0 47 30 77zM337 1778q32 30 77 30q46 0 75 -29q31 -31 31 -77q0 -44 -31 -75q-30 -30 -75 -30q-46 0 -77 30q-32 30 -32 75
q0 46 32 76z" />
    <glyph glyph-name="Eth" unicode="&#xd0;" horiz-adv-x="1398" 
d="M980 1345q162 -88 250 -251q87 -162 87 -377q0 -212 -87 -376t-250 -252q-164 -89 -384 -89h-424v653h-176v152h176v629h424q220 0 384 -89zM993 313q142 151 142 404q0 255 -141 404t-398 149h-246v-465h291v-152h-291v-489h246q257 0 397 149z" />
    <glyph glyph-name="Ntilde" unicode="&#xd1;" horiz-adv-x="1386" 
d="M139 0v1434h164l770 -1106v1106h174v-1434h-164l-770 1106v-1106h-174zM515 1686q-19 -28 -19 -72h-107v24q0 84 48 136q48 53 128 53q51 0 83 -18q33 -19 65 -48q22 -21 42 -34q17 -11 40 -11q35 0 53 29t18 72h107v-25q0 -82 -48 -135t-126 -53q-53 0 -82 16
q-35 19 -66 49q-22 22 -40 34q-16 11 -42 11q-35 0 -54 -28z" />
    <glyph glyph-name="Ograve" unicode="&#xd2;" horiz-adv-x="1540" 
d="M1367 342q-86 -165 -243 -260q-155 -94 -354 -94t-354 94q-157 95 -243 260q-87 166 -87 375t87 375q86 165 243 260q155 94 354 94t354 -94q157 -95 243 -260q87 -166 87 -375t-87 -375zM332 425q64 -130 177 -201q114 -72 261 -72t261 72q113 71 177 201t64 292
t-64 292q-63 128 -177 200q-116 73 -261 73t-261 -73q-114 -72 -177 -200q-64 -130 -64 -292t64 -292zM467 1835h197l170 -279h-134z" />
    <glyph glyph-name="Oacute" unicode="&#xd3;" horiz-adv-x="1540" 
d="M1367 342q-86 -165 -243 -260q-155 -94 -354 -94t-354 94q-157 95 -243 260q-87 166 -87 375t87 375q86 165 243 260q155 94 354 94t354 -94q157 -95 243 -260q87 -166 87 -375t-87 -375zM332 425q64 -130 177 -201q114 -72 261 -72t261 72q113 71 177 201t64 292
t-64 292q-63 128 -177 200q-116 73 -261 73t-261 -73q-114 -72 -177 -200q-64 -130 -64 -292t64 -292zM709 1559l174 276h196l-239 -276h-131z" />
    <glyph glyph-name="Ocircumflex" unicode="&#xd4;" horiz-adv-x="1540" 
d="M1367 342q-86 -165 -243 -260q-155 -94 -354 -94t-354 94q-157 95 -243 260q-87 166 -87 375t87 375q86 165 243 260q155 94 354 94t354 -94q157 -95 243 -260q87 -166 87 -375t-87 -375zM332 425q64 -130 177 -201q114 -72 261 -72t261 72q113 71 177 201t64 292
t-64 292q-63 128 -177 200q-116 73 -261 73t-261 -73q-114 -72 -177 -200q-64 -130 -64 -292t64 -292zM770 1724l-178 -168h-160l258 279h160l258 -279h-162z" />
    <glyph glyph-name="Otilde" unicode="&#xd5;" horiz-adv-x="1540" 
d="M1367 342q-86 -165 -243 -260q-155 -94 -354 -94t-354 94q-157 95 -243 260q-87 166 -87 375t87 375q86 165 243 260q155 94 354 94t354 -94q157 -95 243 -260q87 -166 87 -375t-87 -375zM332 425q64 -130 177 -201q114 -72 261 -72t261 72q113 71 177 201t64 292
t-64 292q-63 128 -177 200q-116 73 -261 73t-261 -73q-114 -72 -177 -200q-64 -130 -64 -292t64 -292zM603 1686q-19 -28 -19 -72h-107v24q0 84 48 136q48 53 128 53q51 0 83 -18q33 -19 65 -48q22 -21 42 -34q17 -11 40 -11q35 0 53 29t18 72h107v-25q0 -82 -48 -135
t-126 -53q-53 0 -82 16q-35 19 -66 49q-22 22 -40 34q-17 11 -42 11q-35 0 -54 -28z" />
    <glyph glyph-name="Odieresis" unicode="&#xd6;" horiz-adv-x="1540" 
d="M1367 342q-86 -165 -243 -260q-155 -94 -354 -94t-354 94q-157 95 -243 260q-87 166 -87 375t87 375q86 165 243 260q155 94 354 94t354 -94q157 -95 243 -260q87 -166 87 -375t-87 -375zM332 425q64 -130 177 -201q114 -72 261 -72t261 72q113 71 177 201t64 292
t-64 292q-63 128 -177 200q-116 73 -261 73t-261 -73q-114 -72 -177 -200q-64 -130 -64 -292t64 -292zM507 1779q29 29 77 29q49 0 78 -29q30 -30 30 -77q0 -45 -30 -75t-78 -30q-46 0 -76 30q-31 31 -31 75q0 47 30 77zM880 1778q32 30 76 30q47 0 76 -29q31 -31 31 -77
q0 -44 -31 -75q-30 -30 -76 -30q-44 0 -76 30t-32 75q0 46 32 76z" />
    <glyph glyph-name="multiply" unicode="&#xd7;" horiz-adv-x="1073" 
d="M240 985l301 -301l297 299l100 -100l-297 -297l301 -301l-108 -109l-302 301l-296 -297l-101 101l299 297l-301 301z" />
    <glyph glyph-name="Oslash" unicode="&#xd8;" horiz-adv-x="1540" 
d="M1303 1186q73 -94 112 -214t39 -255q0 -209 -87 -375q-86 -165 -243 -260q-155 -94 -354 -94q-127 0 -239 41t-199 116l-148 -157l-98 98l152 162q-74 96 -113 213q-39 119 -39 256q0 209 87 375q86 165 243 260q155 94 354 94q125 0 237 -41q110 -40 201 -119l148 160
l98 -98zM356 375l740 792q-132 115 -326 115q-145 0 -261 -73q-114 -72 -177 -200q-64 -130 -64 -292q0 -202 88 -342zM1186 1059l-740 -791q126 -116 324 -116q147 0 261 72q113 71 177 201t64 292q0 197 -86 342z" />
    <glyph glyph-name="Ugrave" unicode="&#xd9;" horiz-adv-x="1355" 
d="M309 1434v-832q0 -450 367 -450q371 0 371 450v832h178v-822q0 -307 -141 -466q-140 -158 -408 -158q-270 0 -407 158q-138 159 -138 466v822h178zM375 1835h196l170 -279h-133z" />
    <glyph glyph-name="Uacute" unicode="&#xda;" horiz-adv-x="1355" 
d="M309 1434v-832q0 -450 367 -450q371 0 371 450v832h178v-822q0 -307 -141 -466q-140 -158 -408 -158q-270 0 -407 158q-138 159 -138 466v822h178zM616 1559l175 276h196l-239 -276h-132z" />
    <glyph glyph-name="Ucircumflex" unicode="&#xdb;" horiz-adv-x="1355" 
d="M309 1434v-832q0 -450 367 -450q371 0 371 450v832h178v-822q0 -307 -141 -466q-140 -158 -408 -158q-270 0 -407 158q-138 159 -138 466v822h178zM678 1724l-178 -168h-160l258 279h160l258 -279h-162z" />
    <glyph glyph-name="Udieresis" unicode="&#xdc;" horiz-adv-x="1355" 
d="M309 1434v-832q0 -450 367 -450q371 0 371 450v832h178v-822q0 -307 -141 -466q-140 -158 -408 -158q-270 0 -407 158q-138 159 -138 466v822h178zM415 1779q29 29 77 29t77 -29q31 -31 31 -77q0 -44 -31 -75q-30 -30 -77 -30q-46 0 -76 30q-31 31 -31 75q0 47 30 77z
M787 1778q32 30 77 30q47 0 76 -29q31 -31 31 -77q0 -44 -31 -75q-30 -30 -76 -30t-77 30t-31 75q0 46 31 76z" />
    <glyph glyph-name="Yacute" unicode="&#xdd;" horiz-adv-x="1296" 
d="M18 1436h209l422 -713l428 713h201l-541 -906v-530h-178v530zM588 1559l174 276h196l-239 -276h-131z" />
    <glyph glyph-name="Thorn" unicode="&#xde;" horiz-adv-x="1216" 
d="M317 1434v-248h342q241 0 374 -115q132 -114 132 -328q0 -215 -135 -327q-136 -113 -373 -113h-340v-303h-178v1434h178zM317 467h338q157 0 244 70q86 69 86 206q0 140 -85 209q-87 70 -243 70h-340v-555z" />
    <glyph glyph-name="germandbls" unicode="&#xdf;" horiz-adv-x="1206" 
d="M477 25v147q91 -35 211 -35q125 0 205 71t80 187q0 135 -105 204t-278 69q-22 0 -58 -4v147q163 1 248 73q84 71 84 181q0 106 -73 169q-72 62 -197 62q-129 0 -208 -82t-79 -221v-993h-168v983q0 145 61 252q60 106 162 158q103 53 232 53q128 0 230 -45
q101 -44 157 -128q55 -82 55 -192q-2 -119 -69 -204q-68 -86 -170 -113q166 -27 257 -121t91 -252q0 -120 -58 -213q-57 -92 -159 -141q-101 -49 -232 -49q-112 0 -219 37z" />
    <glyph glyph-name="agrave" unicode="&#xe0;" horiz-adv-x="1105" 
d="M1092 154v-154h-93q-99 0 -143 41q-43 40 -45 121q-121 -174 -350 -174q-176 0 -280 82q-105 83 -105 223q0 159 107 242t313 83h307v72q0 103 -69 160t-191 57q-109 0 -179 -48q-72 -49 -88 -128h-167q18 155 136 240q119 86 306 86q200 0 310 -98t110 -279v-451
q0 -75 69 -75h52zM803 477h-324q-233 0 -233 -174q0 -79 61 -125q62 -47 166 -47q153 0 242 81q88 81 88 214v51zM240 1446h196l170 -279h-133z" />
    <glyph glyph-name="aacute" unicode="&#xe1;" horiz-adv-x="1105" 
d="M1092 154v-154h-93q-99 0 -143 41q-43 40 -45 121q-121 -174 -350 -174q-176 0 -280 82q-105 83 -105 223q0 159 107 242t313 83h307v72q0 103 -69 160t-191 57q-109 0 -179 -48q-72 -49 -88 -128h-167q18 155 136 240q119 86 306 86q200 0 310 -98t110 -279v-451
q0 -75 69 -75h52zM803 477h-324q-233 0 -233 -174q0 -79 61 -125q62 -47 166 -47q153 0 242 81q88 81 88 214v51zM481 1169l174 277h197l-240 -277h-131z" />
    <glyph glyph-name="acircumflex" unicode="&#xe2;" horiz-adv-x="1105" 
d="M1092 154v-154h-93q-99 0 -143 41q-43 40 -45 121q-121 -174 -350 -174q-176 0 -280 82q-105 83 -105 223q0 159 107 242t313 83h307v72q0 103 -69 160t-191 57q-109 0 -179 -48q-72 -49 -88 -128h-167q18 155 136 240q119 86 306 86q200 0 310 -98t110 -279v-451
q0 -75 69 -75h52zM803 477h-324q-233 0 -233 -174q0 -79 61 -125q62 -47 166 -47q153 0 242 81q88 81 88 214v51zM543 1335l-178 -168h-160l258 279h160l258 -279h-162z" />
    <glyph glyph-name="atilde" unicode="&#xe3;" horiz-adv-x="1105" 
d="M1092 154v-154h-93q-99 0 -143 41q-43 40 -45 121q-121 -174 -350 -174q-176 0 -280 82q-105 83 -105 223q0 159 107 242t313 83h307v72q0 103 -69 160t-191 57q-109 0 -179 -48q-72 -49 -88 -128h-167q18 155 136 240q119 86 306 86q200 0 310 -98t110 -279v-451
q0 -75 69 -75h52zM803 477h-324q-233 0 -233 -174q0 -79 61 -125q62 -47 166 -47q153 0 242 81q88 81 88 214v51zM376 1296q-20 -29 -20 -71h-106v24q0 83 48 135q49 54 128 54q52 0 83 -18q30 -17 64 -48q22 -21 42 -34q17 -11 40 -11q36 0 54 29q18 28 18 71h107v-24
q0 -81 -49 -135t-126 -54q-50 0 -81 17q-35 19 -66 49q-22 22 -40 34q-17 11 -42 11q-34 0 -54 -29z" />
    <glyph glyph-name="adieresis" unicode="&#xe4;" horiz-adv-x="1105" 
d="M1092 154v-154h-93q-99 0 -143 41q-43 40 -45 121q-121 -174 -350 -174q-176 0 -280 82q-105 83 -105 223q0 159 107 242t313 83h307v72q0 103 -69 160t-191 57q-109 0 -179 -48q-72 -49 -88 -128h-167q18 155 136 240q119 86 306 86q200 0 310 -98t110 -279v-451
q0 -75 69 -75h52zM803 477h-324q-233 0 -233 -174q0 -79 61 -125q62 -47 166 -47q153 0 242 81q88 81 88 214v51zM280 1390q29 29 76 29q49 0 78 -29q31 -31 31 -77q0 -44 -31 -75q-30 -30 -78 -30q-45 0 -75 30q-31 31 -31 75q0 47 30 77zM652 1389q32 30 77 30
q47 0 76 -29q31 -31 31 -77q0 -44 -31 -75q-30 -30 -76 -30q-45 0 -77 30q-31 30 -31 75q0 46 31 76z" />
    <glyph glyph-name="aring" unicode="&#xe5;" horiz-adv-x="1105" 
d="M1092 154v-154h-93q-99 0 -143 41q-43 40 -45 121q-121 -174 -350 -174q-176 0 -280 82q-105 83 -105 223q0 159 107 242t313 83h307v72q0 103 -69 160t-191 57q-109 0 -179 -48q-72 -49 -88 -128h-167q18 155 136 240q119 86 306 86q200 0 310 -98t110 -279v-451
q0 -75 69 -75h52zM803 477h-324q-233 0 -233 -174q0 -79 61 -125q62 -47 166 -47q153 0 242 81q88 81 88 214v51zM374 1531q69 66 169 66t169 -66q68 -65 68 -161q0 -98 -68 -163q-69 -66 -169 -66t-169 66t-69 163q0 95 69 161zM634 1464q-37 37 -91 37q-55 0 -92 -37
t-37 -94q0 -58 37 -95q38 -38 92 -38t92 38q37 37 37 95q0 56 -38 94z" />
    <glyph glyph-name="ae" unicode="&#xe6;" horiz-adv-x="1849" 
d="M956 489v-14q5 -154 95 -246t235 -92q112 0 192 57q78 56 105 156h170q-30 -158 -154 -261q-122 -101 -301 -101q-139 0 -242 59q-107 61 -169 168q-60 -105 -167 -166t-249 -61q-180 0 -287 82q-108 82 -108 223q0 159 107 242t313 83h307v72q0 103 -69 160t-191 57
q-109 0 -179 -48q-72 -49 -88 -128h-167q18 155 136 240q119 86 306 86q130 0 222 -47q90 -46 136 -138q62 89 156 137q95 48 211 48q143 0 254 -60t174 -172q64 -113 68 -264q0 -17 -5 -72h-811zM1069 831q-90 -78 -102 -202h630q-12 133 -99 207q-86 73 -220 73
q-119 0 -209 -78zM803 477h-324q-233 0 -233 -174q0 -79 61 -125q62 -47 166 -47q153 0 242 81q88 81 88 214v51z" />
    <glyph glyph-name="ccedilla" unicode="&#xe7;" horiz-adv-x="1126" 
d="M778 197q79 61 101 163h168q-29 -159 -140 -260q-107 -98 -276 -110l-21 -76h23q82 0 133 -42t51 -110q0 -78 -52 -124q-54 -48 -136 -48h-185v101h158q86 0 86 67q0 27 -23 43q-25 17 -61 17h-102l41 172q-138 7 -245 78q-107 70 -163 187q-57 119 -57 269q0 158 64 279
q64 120 182 187q119 67 268 67q184 0 304 -99q121 -100 151 -270h-170q-24 99 -103 160q-77 59 -188 59q-150 0 -243 -106q-93 -107 -93 -277q0 -171 93 -279t243 -108q114 0 192 60z" />
    <glyph glyph-name="egrave" unicode="&#xe8;" horiz-adv-x="1146" 
d="M140 803q63 121 175 187q114 67 258 67q143 0 254 -60t174 -172q64 -113 68 -264q0 -28 -4 -72h-811v-14q5 -155 94 -246q90 -92 236 -92q112 0 191 57t106 156h170q-30 -158 -154 -261q-122 -101 -301 -101q-155 0 -272 66t-182 189q-64 121 -64 279q0 161 62 281z
M895 629q-12 133 -99 207q-86 73 -221 73q-118 0 -208 -78q-91 -79 -103 -202h631zM264 1446h197l170 -279h-133z" />
    <glyph glyph-name="eacute" unicode="&#xe9;" horiz-adv-x="1146" 
d="M140 803q63 121 175 187q114 67 258 67q143 0 254 -60t174 -172q64 -113 68 -264q0 -28 -4 -72h-811v-14q5 -155 94 -246q90 -92 236 -92q112 0 191 57t106 156h170q-30 -158 -154 -261q-122 -101 -301 -101q-155 0 -272 66t-182 189q-64 121 -64 279q0 161 62 281z
M895 629q-12 133 -99 207q-86 73 -221 73q-118 0 -208 -78q-91 -79 -103 -202h631zM506 1169l174 277h197l-240 -277h-131z" />
    <glyph glyph-name="ecircumflex" unicode="&#xea;" horiz-adv-x="1146" 
d="M140 803q63 121 175 187q114 67 258 67q143 0 254 -60t174 -172q64 -113 68 -264q0 -28 -4 -72h-811v-14q5 -155 94 -246q90 -92 236 -92q112 0 191 57t106 156h170q-30 -158 -154 -261q-122 -101 -301 -101q-155 0 -272 66t-182 189q-64 121 -64 279q0 161 62 281z
M895 629q-12 133 -99 207q-86 73 -221 73q-118 0 -208 -78q-91 -79 -103 -202h631zM567 1335l-178 -168h-160l258 279h160l258 -279h-162z" />
    <glyph glyph-name="edieresis" unicode="&#xeb;" horiz-adv-x="1146" 
d="M140 803q63 121 175 187q114 67 258 67q143 0 254 -60t174 -172q64 -113 68 -264q0 -28 -4 -72h-811v-14q5 -155 94 -246q90 -92 236 -92q112 0 191 57t106 156h170q-30 -158 -154 -261q-122 -101 -301 -101q-155 0 -272 66t-182 189q-64 121 -64 279q0 161 62 281z
M895 629q-12 133 -99 207q-86 73 -221 73q-118 0 -208 -78q-91 -79 -103 -202h631zM304 1390q29 29 77 29q49 0 78 -29q30 -30 30 -77q0 -45 -30 -75t-78 -30q-46 0 -76 30q-31 31 -31 75q0 47 30 77zM677 1389q31 30 77 30t75 -29q31 -31 31 -77q0 -44 -31 -75
q-30 -30 -75 -30q-46 0 -77 30q-32 30 -32 75q0 46 32 76z" />
    <glyph glyph-name="igrave" unicode="&#xec;" horiz-adv-x="397" 
d="M115 1044h168v-1044h-168v1044zM-102 1446h196l170 -279h-133z" />
    <glyph glyph-name="iacute" unicode="&#xed;" horiz-adv-x="397" 
d="M115 1044h168v-1044h-168v1044zM139 1169l174 277h197l-240 -277h-131z" />
    <glyph glyph-name="icircumflex" unicode="&#xee;" horiz-adv-x="397" 
d="M115 1044h168v-1044h-168v1044zM201 1335l-178 -168h-160l258 279h160l258 -279h-162z" />
    <glyph glyph-name="idieresis" unicode="&#xef;" horiz-adv-x="397" 
d="M115 1044h168v-1044h-168v1044zM-62 1390q29 29 76 29q49 0 78 -29q31 -31 31 -77q0 -44 -31 -75q-30 -30 -78 -30q-45 0 -75 30q-31 31 -31 75q0 47 30 77zM310 1389q31 30 77 30q47 0 76 -29q31 -31 31 -77q0 -44 -31 -75q-30 -30 -76 -30q-45 0 -77 30q-31 30 -31 75
q0 46 31 76z" />
    <glyph glyph-name="eth" unicode="&#xf0;" horiz-adv-x="1208" 
d="M1022 912q88 -172 88 -373q0 -159 -60 -283q-60 -125 -179 -197q-117 -71 -281 -71q-152 0 -267 61q-117 62 -181 170q-64 107 -64 248q0 147 67 254t180 168q109 59 240 59q105 0 186 -33q82 -33 148 -98q-72 173 -252 324l-244 -152l-65 115l197 121q-106 69 -205 118
l94 103q145 -65 246 -137l237 147l66 -115l-193 -118q152 -136 242 -311zM843 233q95 100 95 259q0 98 -47 171t-126 110q-81 38 -175 38q-98 0 -176 -45q-77 -45 -121 -123q-43 -77 -43 -176q0 -150 94 -241t246 -91q159 0 253 98z" />
    <glyph glyph-name="ntilde" unicode="&#xf1;" horiz-adv-x="1148" 
d="M933 942q116 -114 116 -360v-582h-168v571q0 160 -73 247q-72 85 -210 85q-147 0 -231 -102t-84 -279v-522h-168v1044h145l23 -141q119 154 344 154q189 0 306 -115zM445 1296q-19 -28 -19 -71h-107v24q0 81 49 135t128 54q52 0 83 -18q30 -17 64 -48q22 -21 42 -34
q16 -11 40 -11q35 0 53 29q19 30 19 71h106v-24q0 -83 -48 -135q-49 -54 -126 -54q-51 0 -82 17q-32 18 -65 49q-22 22 -40 34q-17 11 -42 11q-35 0 -55 -29z" />
    <glyph glyph-name="ograve" unicode="&#xf2;" horiz-adv-x="1191" 
d="M327 55q-118 67 -184 189q-65 120 -65 278q0 159 65 279t184 188t269 68t269 -68t184 -188t65 -279q0 -158 -65 -278q-66 -122 -184 -189t-269 -67t-269 67zM777 186q78 49 122 138q43 87 43 198q0 112 -43 199q-43 88 -122 137t-181 49t-181 -49t-122 -137
q-43 -87 -43 -199q0 -111 43 -198q44 -89 122 -138q79 -49 181 -49t181 49zM293 1446h196l170 -279h-133z" />
    <glyph glyph-name="oacute" unicode="&#xf3;" horiz-adv-x="1191" 
d="M327 55q-118 67 -184 189q-65 120 -65 278q0 159 65 279t184 188t269 68t269 -68t184 -188t65 -279q0 -158 -65 -278q-66 -122 -184 -189t-269 -67t-269 67zM777 186q78 49 122 138q43 87 43 198q0 112 -43 199q-43 88 -122 137t-181 49t-181 -49t-122 -137
q-43 -87 -43 -199q0 -111 43 -198q44 -89 122 -138q79 -49 181 -49t181 49zM535 1169l174 277h196l-239 -277h-131z" />
    <glyph glyph-name="ocircumflex" unicode="&#xf4;" horiz-adv-x="1191" 
d="M327 55q-118 67 -184 189q-65 120 -65 278q0 159 65 279t184 188t269 68t269 -68t184 -188t65 -279q0 -158 -65 -278q-66 -122 -184 -189t-269 -67t-269 67zM777 186q78 49 122 138q43 87 43 198q0 112 -43 199q-43 88 -122 137t-181 49t-181 -49t-122 -137
q-43 -87 -43 -199q0 -111 43 -198q44 -89 122 -138q79 -49 181 -49t181 49zM596 1335l-178 -168h-160l258 279h160l258 -279h-162z" />
    <glyph glyph-name="otilde" unicode="&#xf5;" horiz-adv-x="1191" 
d="M327 55q-118 67 -184 189q-65 120 -65 278q0 159 65 279t184 188t269 68t269 -68t184 -188t65 -279q0 -158 -65 -278q-66 -122 -184 -189t-269 -67t-269 67zM777 186q78 49 122 138q43 87 43 198q0 112 -43 199q-43 88 -122 137t-181 49t-181 -49t-122 -137
q-43 -87 -43 -199q0 -111 43 -198q44 -89 122 -138q79 -49 181 -49t181 49zM429 1296q-19 -28 -19 -71h-107v24q0 83 48 135q49 54 128 54q51 0 83 -18q33 -19 65 -48q22 -21 42 -34q17 -11 40 -11q35 0 53 29q18 28 18 71h107v-24q0 -83 -48 -135q-49 -54 -126 -54
q-51 0 -82 17q-35 19 -66 49q-22 22 -40 34q-17 11 -42 11q-34 0 -54 -29z" />
    <glyph glyph-name="odieresis" unicode="&#xf6;" horiz-adv-x="1191" 
d="M327 55q-118 67 -184 189q-65 120 -65 278q0 159 65 279t184 188t269 68t269 -68t184 -188t65 -279q0 -158 -65 -278q-66 -122 -184 -189t-269 -67t-269 67zM777 186q78 49 122 138q43 87 43 198q0 112 -43 199q-43 88 -122 137t-181 49t-181 -49t-122 -137
q-43 -87 -43 -199q0 -111 43 -198q44 -89 122 -138q79 -49 181 -49t181 49zM333 1390q29 29 77 29t77 -29q31 -31 31 -77q0 -44 -31 -75q-30 -30 -77 -30q-46 0 -76 30q-31 31 -31 75q0 47 30 77zM706 1389q32 30 76 30q47 0 76 -29q31 -31 31 -77q0 -44 -31 -75
q-30 -30 -76 -30q-44 0 -76 30t-32 75q0 46 32 76z" />
    <glyph glyph-name="divide" unicode="&#xf7;" horiz-adv-x="1073" 
d="M456 1051q31 30 83 30q49 0 81 -30q31 -30 31 -82t-31 -82q-33 -31 -81 -31q-50 0 -83 31q-32 30 -32 82t32 82zM119 516v141h835v-141h-835zM456 313q33 31 83 31q48 0 81 -31q31 -30 31 -82q0 -51 -31 -81q-33 -31 -81 -31q-50 0 -83 31q-32 30 -32 81q0 52 32 82z" />
    <glyph glyph-name="oslash" unicode="&#xf8;" horiz-adv-x="1191" 
d="M1010 862q104 -143 104 -340q0 -158 -65 -278q-66 -122 -184 -189t-269 -67q-192 0 -326 106l-102 -106l-90 86l104 108q-104 143 -104 340q0 159 65 279t184 188t269 68q190 0 326 -107l102 107l90 -86zM301 305l510 531q-90 71 -215 71q-102 0 -181 -49t-122 -137
q-43 -87 -43 -199q0 -121 51 -217zM891 739l-510 -530q91 -72 215 -72q102 0 181 49q78 49 122 138q43 87 43 198q0 121 -51 217z" />
    <glyph glyph-name="ugrave" unicode="&#xf9;" horiz-adv-x="1128" 
d="M1014 1044v-1044h-146l-22 139q-118 -151 -334 -151q-186 0 -299 114q-113 115 -113 361v581h168v-571q0 -161 71 -247q70 -85 202 -85q142 0 224 103q81 102 81 278v522h168zM254 1446h197l170 -279h-134z" />
    <glyph glyph-name="uacute" unicode="&#xfa;" horiz-adv-x="1128" 
d="M1014 1044v-1044h-146l-22 139q-118 -151 -334 -151q-186 0 -299 114q-113 115 -113 361v581h168v-571q0 -161 71 -247q70 -85 202 -85q142 0 224 103q81 102 81 278v522h168zM496 1169l174 277h196l-239 -277h-131z" />
    <glyph glyph-name="ucircumflex" unicode="&#xfb;" horiz-adv-x="1128" 
d="M1014 1044v-1044h-146l-22 139q-118 -151 -334 -151q-186 0 -299 114q-113 115 -113 361v581h168v-571q0 -161 71 -247q70 -85 202 -85q142 0 224 103q81 102 81 278v522h168zM557 1335l-178 -168h-160l258 279h160l258 -279h-162z" />
    <glyph glyph-name="udieresis" unicode="&#xfc;" horiz-adv-x="1128" 
d="M1014 1044v-1044h-146l-22 139q-118 -151 -334 -151q-186 0 -299 114q-113 115 -113 361v581h168v-571q0 -161 71 -247q70 -85 202 -85q142 0 224 103q81 102 81 278v522h168zM294 1390q29 29 77 29q49 0 78 -29q30 -30 30 -77q0 -45 -30 -75t-78 -30q-46 0 -76 30
q-31 31 -31 75q0 47 30 77zM667 1389q31 30 76 30q47 0 76 -29q31 -31 31 -77q0 -44 -31 -75q-30 -30 -76 -30q-45 0 -76 30q-32 30 -32 75q0 46 32 76z" />
    <glyph glyph-name="yacute" unicode="&#xfd;" horiz-adv-x="1009" 
d="M188 1044l322 -851l311 851h178l-481 -1220q-39 -99 -65 -141q-29 -48 -72 -70q-44 -23 -115 -23h-200v154h149q51 0 74 10q26 11 40 34q17 27 38 79l53 125l-410 1052h178zM440 1169l174 277h197l-240 -277h-131z" />
    <glyph glyph-name="thorn" unicode="&#xfe;" horiz-adv-x="1220" 
d="M283 1434v-557q131 180 358 180q143 0 259 -64q114 -63 178 -184q65 -122 65 -287q0 -156 -65 -278q-64 -121 -179 -189q-113 -67 -258 -67q-128 0 -217 46q-90 46 -141 126v-570h-168v1844h168zM876 800q-94 107 -251 107q-101 0 -180 -48q-77 -46 -121 -135
q-43 -86 -43 -198q0 -114 43 -201q45 -92 121 -139q79 -49 180 -49q157 0 251 108q95 109 95 277q0 169 -95 278z" />
    <glyph glyph-name="ydieresis" unicode="&#xff;" horiz-adv-x="1009" 
d="M188 1044l322 -851l311 851h178l-481 -1220q-39 -99 -65 -141q-29 -48 -72 -70q-44 -23 -115 -23h-200v154h149q51 0 74 10q26 11 40 34q17 27 38 79l53 125l-410 1052h178zM239 1390q29 29 76 29q49 0 78 -29q31 -31 31 -77q0 -44 -31 -75q-30 -30 -78 -30q-45 0 -75 30
q-31 31 -31 75q0 47 30 77zM611 1389q32 30 77 30q47 0 76 -29q31 -31 31 -77q0 -44 -31 -75q-30 -30 -76 -30q-45 0 -77 30q-31 30 -31 75q0 46 31 76z" />
    <glyph glyph-name="Amacron" unicode="&#x100;" horiz-adv-x="1347" 
d="M23 0l546 1434h211l545 -1434h-190l-152 387h-625l-151 -387h-184zM412 549h518l-260 690zM393 1645v127h563v-127h-563z" />
    <glyph glyph-name="amacron" unicode="&#x101;" horiz-adv-x="1105" 
d="M1092 154v-154h-93q-99 0 -143 41q-43 40 -45 121q-121 -174 -350 -174q-176 0 -280 82q-105 83 -105 223q0 159 107 242t313 83h307v72q0 103 -69 160t-191 57q-109 0 -179 -48q-72 -49 -88 -128h-167q18 155 136 240q119 86 306 86q200 0 310 -98t110 -279v-451
q0 -75 69 -75h52zM803 477h-324q-233 0 -233 -174q0 -79 61 -125q62 -47 166 -47q153 0 242 81q88 81 88 214v51zM262 1255v127h563v-127h-563z" />
    <glyph glyph-name="Abreve" unicode="&#x102;" horiz-adv-x="1347" 
d="M23 0l546 1434h211l545 -1434h-190l-152 387h-625l-151 -387h-184zM412 549h518l-260 690zM524 1835q0 -67 41 -110q41 -42 107 -42q64 0 108 42q43 42 43 110h133q-1 -127 -82 -204q-80 -77 -204 -77t-200 76q-78 78 -79 205h133z" />
    <glyph glyph-name="abreve" unicode="&#x103;" horiz-adv-x="1105" 
d="M1092 154v-154h-93q-99 0 -143 41q-43 40 -45 121q-121 -174 -350 -174q-176 0 -280 82q-105 83 -105 223q0 159 107 242t313 83h307v72q0 103 -69 160t-191 57q-109 0 -179 -48q-72 -49 -88 -128h-167q18 155 136 240q119 86 306 86q200 0 310 -98t110 -279v-451
q0 -75 69 -75h52zM803 477h-324q-233 0 -233 -174q0 -79 61 -125q62 -47 166 -47q153 0 242 81q88 81 88 214v51zM393 1446q0 -67 41 -110q41 -42 107 -42q65 0 108 42t43 110h133q-1 -127 -82 -204q-80 -77 -204 -77t-200 76q-78 78 -79 205h133z" />
    <glyph glyph-name="Aogonek" unicode="&#x104;" horiz-adv-x="1347" 
d="M1337 -287v-123h-159q-92 0 -151 48q-56 46 -56 126q0 68 42 125q44 59 120 115l-150 383h-625l-151 -387h-184l546 1434h211l545 -1434q-103 -56 -158 -105t-55 -106q0 -76 94 -76h131zM412 549h518l-260 690z" />
    <glyph glyph-name="aogonek" unicode="&#x105;" horiz-adv-x="1105" 
d="M1104 -287v-123h-160q-91 0 -150 48q-57 46 -57 126q0 70 45 128q46 59 127 120q-98 28 -98 150q-121 -174 -350 -174q-176 0 -280 82q-105 83 -105 223q0 159 107 242t313 83h307v72q0 103 -69 160t-191 57q-109 0 -179 -48q-72 -49 -88 -128h-167q18 155 136 240
q119 86 306 86q200 0 310 -98t110 -279v-451q0 -75 69 -75h52v-154q-103 -56 -158 -105t-55 -106q0 -76 94 -76h131zM803 477h-324q-233 0 -233 -174q0 -79 61 -125q62 -47 166 -47q153 0 242 81q88 81 88 214v51z" />
    <glyph glyph-name="Cacute" unicode="&#x106;" horiz-adv-x="1454" 
d="M170 1098q83 165 240 257q155 91 360 91q238 0 398 -129q162 -130 202 -352h-178q-39 149 -153 233t-277 84q-148 0 -260 -72q-114 -73 -173 -199q-61 -130 -61 -294q0 -162 61 -293q60 -129 173 -201q111 -71 260 -71q166 0 276 82q111 83 152 235h178
q-40 -222 -200 -352q-159 -129 -398 -129q-205 0 -360 91q-156 92 -240 256q-84 165 -84 382q0 215 84 381zM709 1559l174 276h196l-239 -276h-131z" />
    <glyph glyph-name="cacute" unicode="&#x107;" horiz-adv-x="1126" 
d="M893 87q-121 -99 -307 -99q-154 0 -267 67q-115 68 -178 190q-63 121 -63 279t64 279q64 120 182 187q119 67 268 67q184 0 304 -99q121 -100 151 -270h-170q-24 99 -103 160q-77 59 -188 59q-150 0 -243 -106q-93 -107 -93 -277q0 -171 93 -279t243 -108q114 0 192 60
q79 61 101 163h168q-33 -174 -154 -273zM530 1169l175 277h196l-239 -277h-132z" />
    <glyph glyph-name="Ccircumflex" unicode="&#x108;" horiz-adv-x="1454" 
d="M170 1098q83 165 240 257q155 91 360 91q238 0 398 -129q162 -130 202 -352h-178q-39 149 -153 233t-277 84q-148 0 -260 -72q-114 -73 -173 -199q-61 -130 -61 -294q0 -162 61 -293q60 -129 173 -201q111 -71 260 -71q166 0 276 82q111 83 152 235h178
q-40 -222 -200 -352q-159 -129 -398 -129q-205 0 -360 91q-156 92 -240 256q-84 165 -84 382q0 215 84 381zM770 1724l-178 -168h-160l258 279h160l258 -279h-162z" />
    <glyph glyph-name="ccircumflex" unicode="&#x109;" horiz-adv-x="1126" 
d="M893 87q-121 -99 -307 -99q-154 0 -267 67q-115 68 -178 190q-63 121 -63 279t64 279q64 120 182 187q119 67 268 67q184 0 304 -99q121 -100 151 -270h-170q-24 99 -103 160q-77 59 -188 59q-150 0 -243 -106q-93 -107 -93 -277q0 -171 93 -279t243 -108q114 0 192 60
q79 61 101 163h168q-33 -174 -154 -273zM592 1335l-178 -168h-160l258 279h160l258 -279h-162z" />
    <glyph glyph-name="Cdotaccent" unicode="&#x10a;" horiz-adv-x="1454" 
d="M170 1098q83 165 240 257q155 91 360 91q238 0 398 -129q162 -130 202 -352h-178q-39 149 -153 233t-277 84q-148 0 -260 -72q-114 -73 -173 -199q-61 -130 -61 -294q0 -162 61 -293q60 -129 173 -201q111 -71 260 -71q166 0 276 82q111 83 152 235h178
q-40 -222 -200 -352q-159 -129 -398 -129q-205 0 -360 91q-156 92 -240 256q-84 165 -84 382q0 215 84 381zM693 1810q31 29 77 29t77 -29q30 -28 30 -73t-30 -75t-77 -30t-77 30q-29 29 -29 75q0 45 29 73z" />
    <glyph glyph-name="cdotaccent" unicode="&#x10b;" horiz-adv-x="1126" 
d="M893 87q-121 -99 -307 -99q-154 0 -267 67q-115 68 -178 190q-63 121 -63 279t64 279q64 120 182 187q119 67 268 67q184 0 304 -99q121 -100 151 -270h-170q-24 99 -103 160q-77 59 -188 59q-150 0 -243 -106q-93 -107 -93 -277q0 -171 93 -279t243 -108q114 0 192 60
q79 61 101 163h168q-33 -174 -154 -273zM515 1421q31 29 77 29t77 -29q29 -28 29 -73q0 -46 -29 -75q-30 -30 -77 -30t-77 30t-30 75q0 44 30 73z" />
    <glyph glyph-name="Ccaron" unicode="&#x10c;" horiz-adv-x="1454" 
d="M170 1098q83 165 240 257q155 91 360 91q238 0 398 -129q162 -130 202 -352h-178q-39 149 -153 233t-277 84q-148 0 -260 -72q-114 -73 -173 -199q-61 -130 -61 -294q0 -162 61 -293q60 -129 173 -201q111 -71 260 -71q166 0 276 82q111 83 152 235h178
q-40 -222 -200 -352q-159 -129 -398 -129q-205 0 -360 91q-156 92 -240 256q-84 165 -84 382q0 215 84 381zM770 1667l178 168h160l-258 -279h-160l-258 279h162z" />
    <glyph glyph-name="ccaron" unicode="&#x10d;" horiz-adv-x="1126" 
d="M893 87q-121 -99 -307 -99q-154 0 -267 67q-115 68 -178 190q-63 121 -63 279t64 279q64 120 182 187q119 67 268 67q184 0 304 -99q121 -100 151 -270h-170q-24 99 -103 160q-77 59 -188 59q-150 0 -243 -106q-93 -107 -93 -277q0 -171 93 -279t243 -108q114 0 192 60
q79 61 101 163h168q-33 -174 -154 -273zM592 1278l178 168h160l-258 -279h-160l-258 279h162z" />
    <glyph glyph-name="Dcaron" unicode="&#x10e;" horiz-adv-x="1370" 
d="M139 1434h424q220 0 384 -89q162 -88 250 -251q87 -162 87 -377q0 -212 -87 -376t-250 -252q-164 -89 -384 -89h-424v1434zM563 164q258 0 398 149q141 150 141 404q0 257 -140 404q-141 149 -399 149h-246v-1106h246zM629 1667l178 168h160l-258 -279h-160l-258 279h162
z" />
    <glyph glyph-name="dcaron" unicode="&#x10f;" horiz-adv-x="1343" 
d="M1106 1434v-1434h-145l-23 168q-130 -180 -358 -180q-145 0 -259 63t-179 185q-64 121 -64 286q0 158 64 279q63 119 180 188q115 68 258 68q128 0 217 -46q90 -47 141 -126v549h168zM775 185q77 47 122 136q43 86 43 197q0 115 -43 202q-44 89 -122 138q-79 49 -179 49
q-157 0 -251 -107q-95 -109 -95 -278q0 -168 95 -277q94 -108 251 -108q100 0 179 48zM1274 1434h158l-119 -299h-121z" />
    <glyph glyph-name="Dcroat" unicode="&#x110;" horiz-adv-x="1402" 
d="M980 1345q162 -88 250 -251q87 -162 87 -377q0 -212 -87 -376t-250 -252q-164 -89 -384 -89h-424v653h-176v152h176v629h424q220 0 384 -89zM993 313q142 151 142 404q0 255 -141 404t-398 149h-246v-465h291v-152h-291v-489h246q257 0 397 149z" />
    <glyph glyph-name="dcroat" unicode="&#x111;" horiz-adv-x="1239" 
d="M1280 1159h-174v-1159h-145l-23 168q-130 -180 -358 -180q-145 0 -259 63t-179 185q-64 121 -64 286q0 158 64 279q63 119 180 188q115 68 258 68q128 0 217 -46q90 -47 141 -126v274h-299v144h299v131h168v-131h174v-144zM775 185q77 47 122 136q43 86 43 197
q0 115 -43 202q-44 89 -122 138q-79 49 -179 49q-157 0 -251 -107q-95 -109 -95 -278q0 -168 95 -277q94 -108 251 -108q100 0 179 48z" />
    <glyph glyph-name="Emacron" unicode="&#x112;" horiz-adv-x="1140" 
d="M139 1434h914v-164h-736v-459h613v-164h-613v-483h762v-164h-940v1434zM301 1645v127h563v-127h-563z" />
    <glyph glyph-name="emacron" unicode="&#x113;" horiz-adv-x="1146" 
d="M140 803q63 121 175 187q114 67 258 67q143 0 254 -60t174 -172q64 -113 68 -264q0 -28 -4 -72h-811v-14q5 -155 94 -246q90 -92 236 -92q112 0 191 57t106 156h170q-30 -158 -154 -261q-122 -101 -301 -101q-155 0 -272 66t-182 189q-64 121 -64 279q0 161 62 281z
M895 629q-12 133 -99 207q-86 73 -221 73q-118 0 -208 -78q-91 -79 -103 -202h631zM287 1255v127h563v-127h-563z" />
    <glyph glyph-name="Ebreve" unicode="&#x114;" horiz-adv-x="1140" 
d="M139 1434h914v-164h-736v-459h613v-164h-613v-483h762v-164h-940v1434zM432 1835q0 -67 41 -110q40 -42 107 -42q64 0 108 42q43 42 43 110h133q-1 -127 -82 -204q-80 -77 -204 -77t-200 76q-78 78 -79 205h133z" />
    <glyph glyph-name="ebreve" unicode="&#x115;" horiz-adv-x="1146" 
d="M140 803q63 121 175 187q114 67 258 67q143 0 254 -60t174 -172q64 -113 68 -264q0 -28 -4 -72h-811v-14q5 -155 94 -246q90 -92 236 -92q112 0 191 57t106 156h170q-30 -158 -154 -261q-122 -101 -301 -101q-155 0 -272 66t-182 189q-64 121 -64 279q0 161 62 281z
M895 629q-12 133 -99 207q-86 73 -221 73q-118 0 -208 -78q-91 -79 -103 -202h631zM418 1446q0 -67 41 -110q41 -42 106 -42t109 42q43 42 43 110h133q-1 -127 -82 -204q-80 -77 -205 -77q-123 0 -199 76q-78 78 -79 205h133z" />
    <glyph glyph-name="Edotaccent" unicode="&#x116;" horiz-adv-x="1140" 
d="M139 1434h914v-164h-736v-459h613v-164h-613v-483h762v-164h-940v1434zM505 1810q31 29 77 29q45 0 76 -29q30 -28 30 -73t-30 -75t-76 -30q-47 0 -77 30t-30 75t30 73z" />
    <glyph glyph-name="edotaccent" unicode="&#x117;" horiz-adv-x="1146" 
d="M140 803q63 121 175 187q114 67 258 67q143 0 254 -60t174 -172q64 -113 68 -264q0 -28 -4 -72h-811v-14q5 -155 94 -246q90 -92 236 -92q112 0 191 57t106 156h170q-30 -158 -154 -261q-122 -101 -301 -101q-155 0 -272 66t-182 189q-64 121 -64 279q0 161 62 281z
M895 629q-12 133 -99 207q-86 73 -221 73q-118 0 -208 -78q-91 -79 -103 -202h631zM490 1421q31 29 77 29t77 -29q30 -29 30 -73q0 -45 -30 -75t-77 -30t-77 30q-29 29 -29 75q0 45 29 73z" />
    <glyph glyph-name="Eogonek" unicode="&#x118;" horiz-adv-x="1140" 
d="M1092 -287v-123h-160q-92 0 -151 48q-56 46 -56 126q0 67 41 123q41 57 117 113h-744v1434h914v-164h-736v-459h613v-164h-613v-483h762v-164q-101 -55 -157 -105t-56 -106q0 -76 95 -76h131z" />
    <glyph glyph-name="eogonek" unicode="&#x119;" horiz-adv-x="1146" 
d="M254 489v-14q5 -155 94 -246q90 -92 236 -92q112 0 191 57t106 156h170q-27 -133 -118 -227q-92 -95 -226 -123q-104 -57 -157 -105q-54 -49 -54 -106q0 -76 94 -76h131v-123h-160q-91 0 -150 48q-57 46 -57 126q0 64 39 119t111 111q-194 28 -310 171t-116 357
q0 161 62 281q63 121 175 187q114 67 258 67q143 0 254 -60t174 -172q64 -113 68 -264q0 -28 -4 -72h-811zM367 831q-91 -79 -103 -202h631q-12 133 -99 207q-86 73 -221 73q-118 0 -208 -78z" />
    <glyph glyph-name="Ecaron" unicode="&#x11a;" horiz-adv-x="1140" 
d="M139 1434h914v-164h-736v-459h613v-164h-613v-483h762v-164h-940v1434zM582 1667l178 168h160l-258 -279h-160l-258 279h162z" />
    <glyph glyph-name="ecaron" unicode="&#x11b;" horiz-adv-x="1146" 
d="M140 803q63 121 175 187q114 67 258 67q143 0 254 -60t174 -172q64 -113 68 -264q0 -28 -4 -72h-811v-14q5 -155 94 -246q90 -92 236 -92q112 0 191 57t106 156h170q-30 -158 -154 -261q-122 -101 -301 -101q-155 0 -272 66t-182 189q-64 121 -64 279q0 161 62 281z
M895 629q-12 133 -99 207q-86 73 -221 73q-118 0 -208 -78q-91 -79 -103 -202h631zM567 1278l178 168h160l-258 -279h-160l-258 279h162z" />
    <glyph glyph-name="Gcircumflex" unicode="&#x11c;" horiz-adv-x="1529" 
d="M170 1098q83 165 240 257q155 91 360 91q238 0 398 -129q162 -130 202 -350h-176q-40 148 -154 232q-113 83 -274 83q-147 0 -261 -72t-175 -200q-62 -130 -62 -293t62 -293q62 -129 174 -201q111 -71 258 -71q129 0 234 50q103 49 162 143t59 218v49h-431v164h605v-776
h-148l-18 227q-60 -96 -178 -168q-117 -71 -287 -71q-196 0 -350 92q-153 92 -239 257q-85 164 -85 380q0 215 84 381zM770 1724l-178 -168h-160l258 279h160l258 -279h-162z" />
    <glyph glyph-name="gcircumflex" unicode="&#x11d;" horiz-adv-x="1220" 
d="M1106 1044v-993q0 -473 -518 -473q-203 0 -331 92q-127 91 -148 262h172q21 -99 104 -151q85 -53 215 -53q338 0 338 329v123q-112 -192 -358 -192q-145 0 -259 63t-179 185q-64 121 -64 286q0 158 64 279q63 119 180 188q115 68 258 68q126 0 217 -50q88 -49 141 -143
l23 180h145zM775 185q77 47 122 136q43 86 43 197q0 115 -43 202q-44 89 -122 138q-79 49 -179 49q-157 0 -251 -107q-95 -109 -95 -278q0 -168 95 -277q94 -108 251 -108q100 0 179 48zM592 1335l-178 -168h-160l258 279h160l258 -279h-162z" />
    <glyph glyph-name="Gbreve" unicode="&#x11e;" horiz-adv-x="1529" 
d="M170 1098q83 165 240 257q155 91 360 91q238 0 398 -129q162 -130 202 -350h-176q-40 148 -154 232q-113 83 -274 83q-147 0 -261 -72t-175 -200q-62 -130 -62 -293t62 -293q62 -129 174 -201q111 -71 258 -71q129 0 234 50q103 49 162 143t59 218v49h-431v164h605v-776
h-148l-18 227q-60 -96 -178 -168q-117 -71 -287 -71q-196 0 -350 92q-153 92 -239 257q-85 164 -85 380q0 215 84 381zM621 1835q0 -67 41 -110q40 -42 106 -42t109 42t43 110h133q-1 -127 -82 -204q-80 -77 -205 -77q-124 0 -200 76q-78 78 -79 205h134z" />
    <glyph glyph-name="gbreve" unicode="&#x11f;" horiz-adv-x="1220" 
d="M1106 1044v-993q0 -473 -518 -473q-203 0 -331 92q-127 91 -148 262h172q21 -99 104 -151q85 -53 215 -53q338 0 338 329v123q-112 -192 -358 -192q-145 0 -259 63t-179 185q-64 121 -64 286q0 158 64 279q63 119 180 188q115 68 258 68q126 0 217 -50q88 -49 141 -143
l23 180h145zM775 185q77 47 122 136q43 86 43 197q0 115 -43 202q-44 89 -122 138q-79 49 -179 49q-157 0 -251 -107q-95 -109 -95 -278q0 -168 95 -277q94 -108 251 -108q100 0 179 48zM442 1446q0 -67 41 -110q41 -42 107 -42q64 0 108 42q43 42 43 110h133
q-2 -128 -81 -204q-80 -77 -205 -77q-124 0 -200 76q-78 78 -79 205h133z" />
    <glyph glyph-name="Gdotaccent" unicode="&#x120;" horiz-adv-x="1529" 
d="M170 1098q83 165 240 257q155 91 360 91q238 0 398 -129q162 -130 202 -350h-176q-40 148 -154 232q-113 83 -274 83q-147 0 -261 -72t-175 -200q-62 -130 -62 -293t62 -293q62 -129 174 -201q111 -71 258 -71q129 0 234 50q103 49 162 143t59 218v49h-431v164h605v-776
h-148l-18 227q-60 -96 -178 -168q-117 -71 -287 -71q-196 0 -350 92q-153 92 -239 257q-85 164 -85 380q0 215 84 381zM693 1810q31 29 77 29t77 -29q30 -28 30 -73t-30 -75t-77 -30t-77 30q-29 29 -29 75q0 45 29 73z" />
    <glyph glyph-name="gdotaccent" unicode="&#x121;" horiz-adv-x="1220" 
d="M1106 1044v-993q0 -473 -518 -473q-203 0 -331 92q-127 91 -148 262h172q21 -99 104 -151q85 -53 215 -53q338 0 338 329v123q-112 -192 -358 -192q-145 0 -259 63t-179 185q-64 121 -64 286q0 158 64 279q63 119 180 188q115 68 258 68q126 0 217 -50q88 -49 141 -143
l23 180h145zM775 185q77 47 122 136q43 86 43 197q0 115 -43 202q-44 89 -122 138q-79 49 -179 49q-157 0 -251 -107q-95 -109 -95 -278q0 -168 95 -277q94 -108 251 -108q100 0 179 48zM515 1421q31 29 77 29t77 -29q29 -28 29 -73q0 -46 -29 -75q-30 -30 -77 -30t-77 30
t-30 75q0 44 30 73z" />
    <glyph glyph-name="Gcommaaccent" unicode="&#x122;" horiz-adv-x="1529" 
d="M170 1098q83 165 240 257q155 91 360 91q238 0 398 -129q162 -130 202 -350h-176q-40 148 -154 232q-113 83 -274 83q-147 0 -261 -72t-175 -200q-62 -130 -62 -293t62 -293q62 -129 174 -201q111 -71 258 -71q129 0 234 50q103 49 162 143t59 218v49h-431v164h605v-776
h-148l-18 227q-60 -96 -178 -168q-117 -71 -287 -71q-196 0 -350 92q-153 92 -239 257q-85 164 -85 380q0 215 84 381zM674 -104h164l-144 -293h-121z" />
    <glyph glyph-name="gcommaaccent" unicode="&#x123;" horiz-adv-x="1220" 
d="M1106 1044v-993q0 -473 -518 -473q-203 0 -331 92q-127 91 -148 262h172q21 -99 104 -151q85 -53 215 -53q338 0 338 329v123q-112 -192 -358 -192q-145 0 -259 63t-179 185q-64 121 -64 286q0 158 64 279q63 119 180 188q115 68 258 68q126 0 217 -50q88 -49 141 -143
l23 180h145zM775 185q77 47 122 136q43 86 43 197q0 115 -43 202q-44 89 -122 138q-79 49 -179 49q-157 0 -251 -107q-95 -109 -95 -278q0 -168 95 -277q94 -108 251 -108q100 0 179 48zM657 1153h-163l135 293h129z" />
    <glyph glyph-name="Hcircumflex" unicode="&#x124;" horiz-adv-x="1376" 
d="M139 1436h178v-625h742v625h178v-1436h-178v647h-742v-647h-178v1436zM688 1724l-178 -168h-160l258 279h160l258 -279h-162z" />
    <glyph glyph-name="hcircumflex" unicode="&#x125;" horiz-adv-x="1150" 
d="M934 942q117 -114 117 -360v-582h-168v571q0 161 -74 247q-73 85 -211 85q-144 0 -230 -102q-85 -101 -85 -279v-522h-168v1434h168v-562q52 84 136 134q85 51 208 51q189 0 307 -115zM199 1704l-179 -168h-159l258 279h160l258 -279h-162z" />
    <glyph glyph-name="Hbar" unicode="&#x126;" horiz-adv-x="1392" 
d="M1397 1184v-152h-152v-1032h-178v627h-741v-627h-179v1032h-151v152h151v252h179v-252h741v252h178v-252h152zM1067 791v241h-741v-241h741z" />
    <glyph glyph-name="hbar" unicode="&#x127;" horiz-adv-x="1169" 
d="M952 942q117 -114 117 -360v-582h-168v571q0 161 -74 247q-73 85 -211 85q-145 0 -230 -102q-85 -101 -85 -279v-522h-168v1159h-174v144h174v131h168v-131h299v-144h-299v-287q52 84 136 134q85 51 208 51q189 0 307 -115z" />
    <glyph glyph-name="Itilde" unicode="&#x128;" horiz-adv-x="456" 
d="M139 1434h178v-1434h-178v1434zM60 1686q-19 -28 -19 -72h-107v24q0 82 49 136q48 53 128 53q51 0 83 -18q30 -17 64 -48q22 -21 42 -34q16 -11 40 -11q35 0 53 29q19 30 19 72h106v-25q0 -82 -48 -135t-126 -53q-53 0 -82 16q-32 18 -65 49q-22 22 -40 34q-16 11 -42 11
q-36 0 -55 -28z" />
    <glyph glyph-name="itilde" unicode="&#x129;" horiz-adv-x="397" 
d="M115 1044h168v-1044h-168v1044zM34 1296q-20 -29 -20 -71h-106v24q0 83 48 135q49 54 128 54q52 0 83 -18q30 -17 64 -48q22 -21 42 -34q17 -11 40 -11q36 0 54 29q18 28 18 71h107v-24q0 -81 -49 -135t-126 -54q-50 0 -81 17q-35 19 -66 49q-22 22 -40 34q-16 11 -42 11
q-34 0 -54 -29z" />
    <glyph glyph-name="Imacron" unicode="&#x12a;" horiz-adv-x="456" 
d="M139 1434h178v-1434h-178v1434zM-53 1645v127h563v-127h-563z" />
    <glyph glyph-name="imacron" unicode="&#x12b;" horiz-adv-x="397" 
d="M115 1044h168v-1044h-168v1044zM-80 1255v127h563v-127h-563z" />
    <glyph glyph-name="Ibreve" unicode="&#x12c;" horiz-adv-x="456" 
d="M139 1434h178v-1434h-178v1434zM78 1835q0 -67 41 -110q41 -42 106 -42t109 42q43 42 43 110h133q-1 -127 -82 -204q-80 -77 -205 -77q-123 0 -199 76q-78 78 -79 205h133z" />
    <glyph glyph-name="ibreve" unicode="&#x12d;" horiz-adv-x="397" 
d="M115 1044h168v-1044h-168v1044zM51 1446q0 -67 41 -110q40 -42 107 -42q65 0 108 42t43 110h133q-1 -127 -82 -204q-80 -77 -204 -77t-200 76q-78 78 -79 205h133z" />
    <glyph glyph-name="Iogonek" unicode="&#x12e;" horiz-adv-x="456" 
d="M330 -287v-123h-160q-92 0 -151 48q-56 46 -56 126q0 73 46 131q45 57 130 119v1420h178v-1434q-101 -55 -157 -105t-56 -106q0 -76 95 -76h131z" />
    <glyph glyph-name="iogonek" unicode="&#x12f;" horiz-adv-x="397" 
d="M121 1262q-31 31 -31 77q0 47 31 78t78 31q46 0 77 -31t31 -78q0 -46 -31 -77t-77 -31q-47 0 -78 31zM164 -287h131v-123h-160q-91 0 -150 48q-57 46 -57 126q0 75 48 135q49 61 139 124v1021h168v-1044q-103 -56 -158 -105t-55 -106q0 -76 94 -76z" />
    <glyph glyph-name="Idotaccent" unicode="&#x130;" horiz-adv-x="456" 
d="M139 1434h178v-1434h-178v1434zM151 1810q31 29 76 29q46 0 77 -29q30 -28 30 -73t-30 -75t-77 -30q-46 0 -76 30t-30 75t30 73z" />
    <glyph glyph-name="dotlessi" unicode="&#x131;" horiz-adv-x="397" 
d="M115 1044h168v-1044h-168v1044z" />
    <glyph glyph-name="IJ" unicode="&#x132;" horiz-adv-x="1261" 
d="M309 528q0 -179 82 -277q83 -99 238 -99q161 0 242 92t81 291v899h178v-895q0 -551 -501 -551q-240 0 -370 139q-130 138 -128 401h178zM133 1434h178v-629h-178v629z" />
    <glyph glyph-name="ij" unicode="&#x133;" horiz-adv-x="806" 
d="M276 1417q31 -31 31 -78q0 -46 -31 -77t-77 -31q-47 0 -78 31t-31 77q0 47 31 78t78 31q46 0 77 -31zM115 1044h168v-1044h-168v1044zM686 1417q31 -31 31 -78q0 -46 -31 -77t-78 -31t-78 31q-30 30 -30 77q0 48 30 78q31 31 78 31t78 -31zM410 -256q61 0 88 27
q26 26 26 88v1185h168v-1181q0 -141 -64 -206q-65 -67 -208 -67h-141v154h131z" />
    <glyph glyph-name="Jcircumflex" unicode="&#x134;" horiz-adv-x="716" 
d="M578 1434v-1096q0 -166 -86 -252t-252 -86h-187v168h164q95 0 139 44q43 43 43 140v1082h179zM489 1724l-178 -168h-159l258 279h159l258 -279h-161z" />
    <glyph glyph-name="jcircumflex" unicode="&#x135;" horiz-adv-x="409" 
d="M12 -256q61 0 88 27t27 88v1185h168v-1181q0 -139 -65 -206t-207 -67h-142v154h131zM211 1335l-178 -168h-160l258 279h160l258 -279h-162z" />
    <glyph glyph-name="Kcommaaccent" unicode="&#x136;" horiz-adv-x="1306" 
d="M139 1434h178v-813l723 813h217l-524 -605l565 -829h-213l-483 694l-285 -321v-373h-178v1434zM575 -104h164l-143 -293h-121z" />
    <glyph glyph-name="kcommaaccent" unicode="&#x137;" horiz-adv-x="1058" 
d="M115 1434h168v-951l530 561h201l-402 -428l430 -616h-202l-348 496l-209 -220v-276h-168v1434zM477 -104h164l-143 -293h-121z" />
    <glyph glyph-name="Lacute" unicode="&#x139;" horiz-adv-x="1021" 
d="M139 0v1434h178v-1270h654v-164h-832zM166 1559l174 276h197l-240 -276h-131z" />
    <glyph glyph-name="lacute" unicode="&#x13a;" horiz-adv-x="397" 
d="M115 1434h168v-1434h-168v1434zM137 1538l174 277h197l-240 -277h-131z" />
    <glyph glyph-name="Lcommaaccent" unicode="&#x13b;" horiz-adv-x="1021" 
d="M139 0v1434h178v-1270h654v-164h-832zM459 -104h164l-144 -293h-121z" />
    <glyph glyph-name="lcommaaccent" unicode="&#x13c;" horiz-adv-x="397" 
d="M115 1434h168v-1434h-168v1434zM113 -104h163l-143 -293h-121z" />
    <glyph glyph-name="Lcaron" unicode="&#x13d;" horiz-adv-x="1021" 
d="M139 0v1434h178v-1270h654v-164h-832zM526 1434h158l-119 -299h-121z" />
    <glyph glyph-name="lcaron" unicode="&#x13e;" horiz-adv-x="520" 
d="M115 1434h168v-1434h-168v1434zM451 1434h157l-119 -299h-120z" />
    <glyph glyph-name="Ldot" unicode="&#x13f;" horiz-adv-x="1021" 
d="M139 0v1434h178v-1270h654v-164h-832zM658 829q31 29 77 29t77 -29q30 -29 30 -73q0 -45 -30 -75t-77 -30t-77 30q-29 29 -29 75q0 45 29 73z" />
    <glyph glyph-name="ldot" unicode="&#x140;" horiz-adv-x="598" 
d="M115 1434h168v-1434h-168v1434zM423 817q31 29 77 29t77 -29q29 -28 29 -74q0 -45 -29 -74q-30 -30 -77 -30t-77 30t-30 74q0 45 30 74z" />
    <glyph glyph-name="Lslash" unicode="&#x141;" horiz-adv-x="1054" 
d="M350 164h654v-164h-832v598l-176 -94v160l176 94v676h178v-580l320 170v-160l-320 -170v-530z" />
    <glyph glyph-name="lslash" unicode="&#x142;" horiz-adv-x="577" 
d="M571 995v-157l-198 -97v-741h-168v659l-199 -96v158l199 96v617h168v-535z" />
    <glyph glyph-name="Nacute" unicode="&#x143;" horiz-adv-x="1386" 
d="M139 0v1434h164l770 -1106v1106h174v-1434h-164l-770 1106v-1106h-174zM621 1559l174 276h196l-239 -276h-131z" />
    <glyph glyph-name="nacute" unicode="&#x144;" horiz-adv-x="1148" 
d="M933 942q116 -114 116 -360v-582h-168v571q0 160 -73 247q-72 85 -210 85q-147 0 -231 -102t-84 -279v-522h-168v1044h145l23 -141q119 154 344 154q189 0 306 -115zM551 1169l174 277h197l-240 -277h-131z" />
    <glyph glyph-name="Ncommaaccent" unicode="&#x145;" horiz-adv-x="1386" 
d="M139 0v1434h164l770 -1106v1106h174v-1434h-164l-770 1106v-1106h-174zM604 -104h164l-143 -293h-121z" />
    <glyph glyph-name="ncommaaccent" unicode="&#x146;" horiz-adv-x="1148" 
d="M933 942q116 -114 116 -360v-582h-168v571q0 160 -73 247q-72 85 -210 85q-147 0 -231 -102t-84 -279v-522h-168v1044h145l23 -141q119 154 344 154q189 0 306 -115zM498 -104h164l-144 -293h-121z" />
    <glyph glyph-name="Ncaron" unicode="&#x147;" horiz-adv-x="1386" 
d="M139 0v1434h164l770 -1106v1106h174v-1434h-164l-770 1106v-1106h-174zM682 1667l178 168h160l-258 -279h-160l-258 279h162z" />
    <glyph glyph-name="ncaron" unicode="&#x148;" horiz-adv-x="1148" 
d="M933 942q116 -114 116 -360v-582h-168v571q0 160 -73 247q-72 85 -210 85q-147 0 -231 -102t-84 -279v-522h-168v1044h145l23 -141q119 154 344 154q189 0 306 -115zM612 1278l179 168h159l-258 -279h-160l-258 279h162z" />
    <glyph glyph-name="napostrophe" unicode="&#x149;" horiz-adv-x="1509" 
d="M308 1385q44 -61 44 -148q0 -131 -77 -205q-76 -73 -212 -78v97q92 2 132 51q41 50 41 112q0 12 -3 27q-24 -24 -69 -24q-50 0 -79 28q-30 29 -30 82q0 51 36 85q35 34 99 34q74 0 118 -61zM1293 942q116 -114 116 -360v-582h-168v571q0 160 -73 247q-72 85 -210 85
q-147 0 -231 -102t-84 -279v-522h-168v1044h146l22 -141q119 154 344 154q189 0 306 -115z" />
    <glyph glyph-name="Eng" unicode="&#x14a;" horiz-adv-x="1386" 
d="M1247 1434v-1565q0 -145 -65 -211q-66 -68 -213 -68h-146v160h135q62 0 89 27q26 26 26 88v149l-760 1092v-1106h-174v1434h164l770 -1106v1106h174z" />
    <glyph glyph-name="eng" unicode="&#x14b;" horiz-adv-x="1148" 
d="M933 942q116 -114 116 -360v-719q0 -139 -65 -206t-208 -67h-151v154h141q61 0 88 27t27 88v712q0 160 -73 247q-72 85 -210 85q-147 0 -231 -102t-84 -279v-522h-168v1044h145l23 -141q119 154 344 154q189 0 306 -115z" />
    <glyph glyph-name="Omacron" unicode="&#x14c;" horiz-adv-x="1540" 
d="M1367 342q-86 -165 -243 -260q-155 -94 -354 -94t-354 94q-157 95 -243 260q-87 166 -87 375t87 375q86 165 243 260q155 94 354 94t354 -94q157 -95 243 -260q87 -166 87 -375t-87 -375zM332 425q64 -130 177 -201q114 -72 261 -72t261 72q113 71 177 201t64 292
t-64 292q-63 128 -177 200q-116 73 -261 73t-261 -73q-114 -72 -177 -200q-64 -130 -64 -292t64 -292zM489 1645v127h564v-127h-564z" />
    <glyph glyph-name="omacron" unicode="&#x14d;" horiz-adv-x="1191" 
d="M327 55q-118 67 -184 189q-65 120 -65 278q0 159 65 279t184 188t269 68t269 -68t184 -188t65 -279q0 -158 -65 -278q-66 -122 -184 -189t-269 -67t-269 67zM777 186q78 49 122 138q43 87 43 198q0 112 -43 199q-43 88 -122 137t-181 49t-181 -49t-122 -137
q-43 -87 -43 -199q0 -111 43 -198q44 -89 122 -138q79 -49 181 -49t181 49zM315 1255v127h564v-127h-564z" />
    <glyph glyph-name="Obreve" unicode="&#x14e;" horiz-adv-x="1540" 
d="M1367 342q-86 -165 -243 -260q-155 -94 -354 -94t-354 94q-157 95 -243 260q-87 166 -87 375t87 375q86 165 243 260q155 94 354 94t354 -94q157 -95 243 -260q87 -166 87 -375t-87 -375zM332 425q64 -130 177 -201q114 -72 261 -72t261 72q113 71 177 201t64 292
t-64 292q-63 128 -177 200q-116 73 -261 73t-261 -73q-114 -72 -177 -200q-64 -130 -64 -292t64 -292zM621 1835q0 -67 41 -110q40 -42 106 -42t109 42t43 110h133q-1 -127 -82 -204q-80 -77 -205 -77q-124 0 -200 76q-78 78 -79 205h134z" />
    <glyph glyph-name="obreve" unicode="&#x14f;" horiz-adv-x="1191" 
d="M327 55q-118 67 -184 189q-65 120 -65 278q0 159 65 279t184 188t269 68t269 -68t184 -188t65 -279q0 -158 -65 -278q-66 -122 -184 -189t-269 -67t-269 67zM777 186q78 49 122 138q43 87 43 198q0 112 -43 199q-43 88 -122 137t-181 49t-181 -49t-122 -137
q-43 -87 -43 -199q0 -111 43 -198q44 -89 122 -138q79 -49 181 -49t181 49zM446 1446q0 -67 41 -110q41 -42 107 -42q64 0 108 42q43 42 43 110h134q-1 -127 -82 -204q-80 -77 -205 -77q-124 0 -200 76q-78 78 -79 205h133z" />
    <glyph glyph-name="Ohungarumlaut" unicode="&#x150;" horiz-adv-x="1540" 
d="M1367 342q-86 -165 -243 -260q-155 -94 -354 -94t-354 94q-157 95 -243 260q-87 166 -87 375t87 375q86 165 243 260q155 94 354 94t354 -94q157 -95 243 -260q87 -166 87 -375t-87 -375zM332 425q64 -130 177 -201q114 -72 261 -72t261 72q113 71 177 201t64 292
t-64 292q-63 128 -177 200q-116 73 -261 73t-261 -73q-114 -72 -177 -200q-64 -130 -64 -292t64 -292zM508 1554l174 281h190l-235 -281h-129zM868 1554l174 281h191l-236 -281h-129z" />
    <glyph glyph-name="ohungarumlaut" unicode="&#x151;" horiz-adv-x="1191" 
d="M327 55q-118 67 -184 189q-65 120 -65 278q0 159 65 279t184 188t269 68t269 -68t184 -188t65 -279q0 -158 -65 -278q-66 -122 -184 -189t-269 -67t-269 67zM777 186q78 49 122 138q43 87 43 198q0 112 -43 199q-43 88 -122 137t-181 49t-181 -49t-122 -137
q-43 -87 -43 -199q0 -111 43 -198q44 -89 122 -138q79 -49 181 -49t181 49zM334 1165l174 281h190l-235 -281h-129zM694 1165l174 281h191l-236 -281h-129z" />
    <glyph glyph-name="OE" unicode="&#x152;" horiz-adv-x="2306" 
d="M2245 164v-164h-940v268q-79 -134 -210 -207q-130 -73 -309 -73q-206 0 -364 94q-161 95 -248 260q-88 166 -88 375t88 375q87 165 248 260q158 94 364 94q178 0 309 -74t210 -207v269h913v-164h-735v-459h612v-164h-612v-483h762zM1046 216q113 64 181 180
q67 115 78 266v110q-10 149 -78 265q-69 117 -181 181q-113 64 -258 64q-152 0 -272 -73q-118 -72 -183 -200t-65 -292t65 -292q66 -130 183 -201q118 -72 272 -72q145 0 258 64z" />
    <glyph glyph-name="oe" unicode="&#x153;" horiz-adv-x="1992" 
d="M1100 489v-14q5 -155 94 -246q90 -92 235 -92q113 0 192 57q78 56 105 156h170q-30 -159 -153 -261q-122 -101 -301 -101q-145 0 -256 60q-110 60 -172 171q-66 -109 -174 -170q-107 -61 -244 -61q-151 0 -269 67q-117 67 -184 191q-65 121 -65 280q0 157 65 277
q66 121 184 187q120 67 269 67q137 0 250 -61q111 -60 174 -171q62 111 165 171q105 61 234 61q143 0 254 -60t174 -172q64 -113 68 -264q0 -28 -4 -72h-811zM1212 831q-90 -78 -102 -202h631q-12 133 -100 207q-86 73 -220 73q-119 0 -209 -78zM777 186q77 48 122 136
q43 85 43 196q0 172 -95 281q-95 108 -251 108q-102 0 -181 -49q-78 -49 -122 -135q-43 -85 -43 -197q0 -171 95 -280t251 -109q102 0 181 49z" />
    <glyph glyph-name="Racute" unicode="&#x154;" horiz-adv-x="1251" 
d="M688 1434q140 0 250 -55q108 -54 168 -153q59 -97 59 -233q0 -149 -83 -259q-82 -109 -222 -148l322 -586h-201l-297 551h-367v-551h-178v1434h549zM317 715h357q142 0 225 76q84 77 84 202t-84 201q-83 76 -223 76h-359v-555zM530 1559l175 276h196l-239 -276h-132z" />
    <glyph glyph-name="racute" unicode="&#x155;" horiz-adv-x="684" 
d="M645 1044v-163h-84q-149 0 -214 -101q-64 -100 -64 -248v-532h-168v1044h145l23 -157q44 71 116 114q71 43 199 43h47zM313 1169l174 277h197l-240 -277h-131z" />
    <glyph glyph-name="Rcommaaccent" unicode="&#x156;" horiz-adv-x="1251" 
d="M688 1434q140 0 250 -55q108 -54 168 -153q59 -97 59 -233q0 -149 -83 -259q-82 -109 -222 -148l322 -586h-201l-297 551h-367v-551h-178v1434h549zM317 715h357q142 0 225 76q84 77 84 202t-84 201q-83 76 -223 76h-359v-555zM539 -104h163l-143 -293h-121z" />
    <glyph glyph-name="rcommaaccent" unicode="&#x157;" horiz-adv-x="684" 
d="M645 1044v-163h-84q-149 0 -214 -101q-64 -100 -64 -248v-532h-168v1044h145l23 -157q44 71 116 114q71 43 199 43h47zM113 -104h163l-143 -293h-121z" />
    <glyph glyph-name="Rcaron" unicode="&#x158;" horiz-adv-x="1251" 
d="M688 1434q140 0 250 -55q108 -54 168 -153q59 -97 59 -233q0 -149 -83 -259q-82 -109 -222 -148l322 -586h-201l-297 551h-367v-551h-178v1434h549zM317 715h357q142 0 225 76q84 77 84 202t-84 201q-83 76 -223 76h-359v-555zM592 1667l178 168h160l-258 -279h-160
l-258 279h162z" />
    <glyph glyph-name="rcaron" unicode="&#x159;" horiz-adv-x="684" 
d="M645 1044v-163h-84q-149 0 -214 -101q-64 -100 -64 -248v-532h-168v1044h145l23 -157q44 71 116 114q71 43 199 43h47zM375 1278l178 168h160l-258 -279h-160l-258 279h162z" />
    <glyph glyph-name="Sacute" unicode="&#x15a;" horiz-adv-x="1243" 
d="M262 469q10 -145 117 -232t270 -87q148 0 239 64t91 179q0 83 -50 133q-49 49 -129 73q-76 23 -214 46q-216 38 -342 121q-127 84 -127 272q0 122 61 214q62 94 173 145t255 51q152 0 268 -55q117 -56 185 -155q69 -101 76 -228h-177q-16 124 -112 200q-95 76 -240 76
q-144 0 -227 -62q-84 -63 -84 -175q0 -82 49 -128t127 -70q74 -23 213 -46q217 -38 344 -122q129 -85 129 -273q0 -125 -64 -220q-65 -96 -181 -149q-117 -53 -265 -53q-169 0 -293 60q-123 59 -193 170q-69 109 -75 251h176zM563 1559l174 276h197l-240 -276h-131z" />
    <glyph glyph-name="sacute" unicode="&#x15b;" horiz-adv-x="1021" 
d="M246 344q5 -95 83 -154t203 -59q110 0 180 44q68 43 68 116q0 62 -32 94q-33 33 -85 45q-62 14 -149 25q-138 17 -221 43q-88 28 -139 85q-54 60 -54 160q0 91 53 164q52 72 142 112q89 40 203 40q184 0 300 -86t128 -246h-168q-10 82 -80 135t-174 53q-105 0 -172 -44
q-66 -43 -66 -115q0 -53 31 -82q30 -28 79 -39q54 -12 146 -23q140 -17 227 -45q89 -29 143 -92t54 -172q0 -95 -55 -166q-54 -71 -150 -110q-95 -39 -209 -39q-204 0 -328 94q-125 95 -126 262h168zM442 1169l174 277h197l-240 -277h-131z" />
    <glyph glyph-name="Scircumflex" unicode="&#x15c;" horiz-adv-x="1243" 
d="M262 469q10 -145 117 -232t270 -87q148 0 239 64t91 179q0 83 -50 133q-49 49 -129 73q-76 23 -214 46q-216 38 -342 121q-127 84 -127 272q0 122 61 214q62 94 173 145t255 51q152 0 268 -55q117 -56 185 -155q69 -101 76 -228h-177q-16 124 -112 200q-95 76 -240 76
q-144 0 -227 -62q-84 -63 -84 -175q0 -82 49 -128t127 -70q74 -23 213 -46q217 -38 344 -122q129 -85 129 -273q0 -125 -64 -220q-65 -96 -181 -149q-117 -53 -265 -53q-169 0 -293 60q-123 59 -193 170q-69 109 -75 251h176zM625 1724l-179 -168h-159l258 279h160l258 -279
h-162z" />
    <glyph glyph-name="scircumflex" unicode="&#x15d;" horiz-adv-x="1021" 
d="M246 344q5 -95 83 -154t203 -59q110 0 180 44q68 43 68 116q0 62 -32 94q-33 33 -85 45q-62 14 -149 25q-138 17 -221 43q-88 28 -139 85q-54 60 -54 160q0 91 53 164q52 72 142 112q89 40 203 40q184 0 300 -86t128 -246h-168q-10 82 -80 135t-174 53q-105 0 -172 -44
q-66 -43 -66 -115q0 -53 31 -82q30 -28 79 -39q54 -12 146 -23q140 -17 227 -45q89 -29 143 -92t54 -172q0 -95 -55 -166q-54 -71 -150 -110q-95 -39 -209 -39q-204 0 -328 94q-125 95 -126 262h168zM504 1335l-178 -168h-160l258 279h160l258 -279h-162z" />
    <glyph glyph-name="Scedilla" unicode="&#x15e;" horiz-adv-x="1243" 
d="M1097 198q-60 -93 -169 -149q-107 -55 -250 -61l-21 -74h23q82 0 133 -42t51 -110q0 -78 -52 -124q-54 -48 -136 -48h-184v101h157q86 0 86 67q0 27 -23 43q-25 17 -61 17h-102l41 172q-229 15 -362 145q-134 131 -142 334h176q10 -145 117 -232t270 -87q148 0 239 64
t91 179q0 83 -50 133q-49 49 -129 73q-76 23 -214 46q-216 38 -342 121q-127 84 -127 272q0 122 61 214q62 94 173 145t255 51q152 0 268 -55q117 -56 185 -155q69 -101 76 -228h-177q-16 124 -112 200q-95 76 -240 76q-144 0 -227 -62q-84 -63 -84 -175q0 -82 49 -128
t127 -70q74 -23 213 -46q217 -38 344 -122q129 -85 129 -273q0 -119 -60 -212z" />
    <glyph glyph-name="scedilla" unicode="&#x15f;" horiz-adv-x="1021" 
d="M842 85q-104 -84 -264 -95l-21 -76h23q82 0 133 -42t51 -110q0 -79 -52 -125q-53 -47 -137 -47h-184v101h158q86 0 86 67q0 27 -24 43q-25 17 -60 17h-102l40 172q-183 10 -296 102t-115 252h168q5 -95 83 -154t203 -59q110 0 180 44q68 43 68 116q0 62 -32 94
q-33 33 -85 45q-62 14 -149 25q-138 17 -221 43q-88 28 -139 85q-54 60 -54 160q0 91 53 164q52 72 142 112q89 40 203 40q184 0 300 -86t128 -246h-168q-10 82 -80 135t-174 53q-105 0 -172 -44q-66 -43 -66 -115q0 -53 31 -82q30 -28 79 -39q54 -12 146 -23
q140 -17 227 -45q89 -29 143 -92t54 -172q0 -133 -104 -218z" />
    <glyph glyph-name="Scaron" unicode="&#x160;" horiz-adv-x="1243" 
d="M262 469q10 -145 117 -232t270 -87q148 0 239 64t91 179q0 83 -50 133q-49 49 -129 73q-76 23 -214 46q-216 38 -342 121q-127 84 -127 272q0 122 61 214q62 94 173 145t255 51q152 0 268 -55q117 -56 185 -155q69 -101 76 -228h-177q-16 124 -112 200q-95 76 -240 76
q-144 0 -227 -62q-84 -63 -84 -175q0 -82 49 -128t127 -70q74 -23 213 -46q217 -38 344 -122q129 -85 129 -273q0 -125 -64 -220q-65 -96 -181 -149q-117 -53 -265 -53q-169 0 -293 60q-123 59 -193 170q-69 109 -75 251h176zM625 1667l178 168h160l-258 -279h-160l-258 279
h162z" />
    <glyph glyph-name="scaron" unicode="&#x161;" horiz-adv-x="1021" 
d="M246 344q5 -95 83 -154t203 -59q110 0 180 44q68 43 68 116q0 62 -32 94q-33 33 -85 45q-62 14 -149 25q-138 17 -221 43q-88 28 -139 85q-54 60 -54 160q0 91 53 164q52 72 142 112q89 40 203 40q184 0 300 -86t128 -246h-168q-10 82 -80 135t-174 53q-105 0 -172 -44
q-66 -43 -66 -115q0 -53 31 -82q30 -28 79 -39q54 -12 146 -23q140 -17 227 -45q89 -29 143 -92t54 -172q0 -95 -55 -166q-54 -71 -150 -110q-95 -39 -209 -39q-204 0 -328 94q-125 95 -126 262h168zM504 1278l178 168h160l-258 -279h-160l-258 279h162z" />
    <glyph glyph-name="uni0162" unicode="&#x162;" horiz-adv-x="1210" 
d="M51 1434h1108v-164h-465v-1270h-178v1270h-465v164zM520 -104h164l-143 -293h-121z" />
    <glyph glyph-name="uni0163" unicode="&#x163;" horiz-adv-x="653" 
d="M184 891h-188v153h188v293h168v-293h264v-153h-264v-617q0 -65 26 -93q26 -27 89 -27h182v-154h-192q-147 0 -210 66t-63 206v619zM328 -104h164l-144 -293h-121z" />
    <glyph glyph-name="Tcaron" unicode="&#x164;" horiz-adv-x="1210" 
d="M51 1434h1108v-164h-465v-1270h-178v1270h-465v164zM610 1667l178 168h160l-258 -279h-160l-258 279h162z" />
    <glyph glyph-name="tcaron" unicode="&#x165;" horiz-adv-x="653" 
d="M184 891h-188v153h188v293h168v-293h264v-153h-264v-617q0 -65 26 -93q26 -27 89 -27h182v-154h-192q-147 0 -210 66t-63 206v619zM535 1460h157l-119 -299h-120z" />
    <glyph glyph-name="Tbar" unicode="&#x166;" horiz-adv-x="1210" 
d="M1159 1270h-465v-500h242v-152h-242v-618h-178v618h-242v152h242v500h-465v164h1108v-164z" />
    <glyph glyph-name="tbar" unicode="&#x167;" horiz-adv-x="700" 
d="M657 154v-154h-192q-147 0 -210 66q-62 65 -62 206v230h-189v143h189v246h-189v153h189v293h167v-293h265v-153h-265v-246h265v-143h-265v-228q0 -65 26 -93q26 -27 89 -27h182z" />
    <glyph glyph-name="Utilde" unicode="&#x168;" horiz-adv-x="1355" 
d="M309 1434v-832q0 -450 367 -450q371 0 371 450v832h178v-822q0 -307 -141 -466q-140 -158 -408 -158q-270 0 -407 158q-138 159 -138 466v822h178zM511 1686q-19 -28 -19 -72h-107v24q0 84 48 136q48 53 128 53q51 0 83 -18q33 -19 65 -48q22 -21 42 -34q16 -11 40 -11
q35 0 53 29t18 72h107v-25q0 -82 -48 -135t-126 -53q-53 0 -82 16q-35 19 -66 49q-22 22 -40 34q-17 11 -42 11q-35 0 -54 -28z" />
    <glyph glyph-name="utilde" unicode="&#x169;" horiz-adv-x="1128" 
d="M1014 1044v-1044h-146l-22 139q-118 -151 -334 -151q-186 0 -299 114q-113 115 -113 361v581h168v-571q0 -161 71 -247q70 -85 202 -85q142 0 224 103q81 102 81 278v522h168zM390 1296q-19 -28 -19 -71h-107v24q0 83 48 135q49 54 128 54q52 0 83 -18q33 -19 65 -48
q22 -21 42 -34q16 -11 40 -11q35 0 53 29q18 28 18 71h107v-24q0 -83 -48 -135q-49 -54 -126 -54q-51 0 -82 17q-35 19 -66 49q-22 22 -40 34q-16 11 -42 11q-34 0 -54 -29z" />
    <glyph glyph-name="Umacron" unicode="&#x16a;" horiz-adv-x="1355" 
d="M309 1434v-832q0 -450 367 -450q371 0 371 450v832h178v-822q0 -307 -141 -466q-140 -158 -408 -158q-270 0 -407 158q-138 159 -138 466v822h178zM397 1645v127h564v-127h-564z" />
    <glyph glyph-name="umacron" unicode="&#x16b;" horiz-adv-x="1128" 
d="M1014 1044v-1044h-146l-22 139q-118 -151 -334 -151q-186 0 -299 114q-113 115 -113 361v581h168v-571q0 -161 71 -247q70 -85 202 -85q142 0 224 103q81 102 81 278v522h168zM276 1255v127h564v-127h-564z" />
    <glyph glyph-name="Ubreve" unicode="&#x16c;" horiz-adv-x="1355" 
d="M309 1434v-832q0 -450 367 -450q371 0 371 450v832h178v-822q0 -307 -141 -466q-140 -158 -408 -158q-270 0 -407 158q-138 159 -138 466v822h178zM528 1835q0 -67 41 -110q40 -42 107 -42q64 0 108 42q43 42 43 110h134q-1 -127 -82 -204q-80 -77 -205 -77
q-124 0 -200 76q-78 78 -79 205h133z" />
    <glyph glyph-name="ubreve" unicode="&#x16d;" horiz-adv-x="1128" 
d="M1014 1044v-1044h-146l-22 139q-118 -151 -334 -151q-186 0 -299 114q-113 115 -113 361v581h168v-571q0 -161 71 -247q70 -85 202 -85q142 0 224 103q81 102 81 278v522h168zM408 1446q0 -67 41 -110q40 -42 106 -42q65 0 109 42q43 42 43 110h133q-1 -127 -82 -204
q-80 -77 -205 -77q-124 0 -200 76q-78 78 -79 205h134z" />
    <glyph glyph-name="Uring" unicode="&#x16e;" horiz-adv-x="1355" 
d="M309 1434v-832q0 -450 367 -450q371 0 371 450v832h178v-822q0 -307 -141 -466q-140 -158 -408 -158q-270 0 -407 158q-138 159 -138 466v822h178zM509 1756q70 67 169 67t169 -67q68 -65 68 -161q0 -97 -68 -162q-70 -67 -169 -67t-169 67q-69 66 -69 162q0 95 69 161z
M769 1690q-36 36 -91 36q-56 0 -92 -36q-37 -37 -37 -95t37 -95q38 -38 92 -38t92 38q37 37 37 95q0 57 -38 95z" />
    <glyph glyph-name="uring" unicode="&#x16f;" horiz-adv-x="1128" 
d="M1014 1044v-1044h-146l-22 139q-118 -151 -334 -151q-186 0 -299 114q-113 115 -113 361v581h168v-571q0 -161 71 -247q70 -85 202 -85q142 0 224 103q81 102 81 278v522h168zM388 1531q69 66 169 66t169 -66t69 -161q0 -97 -69 -163t-169 -66t-169 66t-69 163
q0 95 69 161zM648 1464q-37 37 -91 37q-55 0 -92 -37t-37 -94q0 -58 37 -95q38 -38 92 -38t92 38q37 37 37 95q0 56 -38 94z" />
    <glyph glyph-name="Uhungarumlaut" unicode="&#x170;" horiz-adv-x="1355" 
d="M309 1434v-832q0 -450 367 -450q371 0 371 450v832h178v-822q0 -307 -141 -466q-140 -158 -408 -158q-270 0 -407 158q-138 159 -138 466v822h178zM416 1554l174 281h190l-235 -281h-129zM776 1554l174 281h191l-236 -281h-129z" />
    <glyph glyph-name="uhungarumlaut" unicode="&#x171;" horiz-adv-x="1128" 
d="M1014 1044v-1044h-146l-22 139q-118 -151 -334 -151q-186 0 -299 114q-113 115 -113 361v581h168v-571q0 -161 71 -247q70 -85 202 -85q142 0 224 103q81 102 81 278v522h168zM295 1165l174 281h190l-235 -281h-129zM655 1165l174 281h191l-236 -281h-129z" />
    <glyph glyph-name="Uogonek" unicode="&#x172;" horiz-adv-x="1355" 
d="M1225 1434v-822q0 -267 -109 -424q-108 -155 -315 -190q-99 -55 -155 -106q-54 -49 -54 -103q0 -76 94 -76h131v-123h-160q-91 0 -150 48q-56 46 -56 126q0 65 37 118q36 52 108 110q-228 22 -347 179q-118 155 -118 441v822h178v-832q0 -450 367 -450q371 0 371 450v832
h178z" />
    <glyph glyph-name="uogonek" unicode="&#x173;" horiz-adv-x="1128" 
d="M1026 -287v-123h-160q-91 0 -150 48q-57 46 -57 126q0 78 53 140q55 64 150 129l-16 106q-118 -151 -334 -151q-186 0 -299 114q-113 115 -113 361v581h168v-571q0 -161 71 -247q70 -85 202 -85q142 0 224 103q81 102 81 278v522h168v-1044q-103 -56 -158 -105t-55 -106
q0 -76 94 -76h131z" />
    <glyph glyph-name="Wcircumflex" unicode="&#x174;" horiz-adv-x="2031" 
d="M57 1434h187l336 -1205l352 1205h180l340 -1205l338 1205h184l-420 -1434h-213l-327 1137l-326 -1137h-213zM1018 1724l-178 -168h-160l258 279h160l258 -279h-162z" />
    <glyph glyph-name="wcircumflex" unicode="&#x175;" horiz-adv-x="1601" 
d="M16 1044h177l260 -849l274 849h156l260 -849l272 849h170l-348 -1044h-184l-252 776l-262 -776l-185 -2zM805 1335l-178 -168h-160l258 279h160l258 -279h-162z" />
    <glyph glyph-name="Ycircumflex" unicode="&#x176;" horiz-adv-x="1296" 
d="M18 1436h209l422 -713l428 713h201l-541 -906v-530h-178v530zM649 1724l-178 -168h-160l258 279h160l258 -279h-162z" />
    <glyph glyph-name="ycircumflex" unicode="&#x177;" horiz-adv-x="1009" 
d="M188 1044l322 -851l311 851h178l-481 -1220q-39 -99 -65 -141q-29 -48 -72 -70q-44 -23 -115 -23h-200v154h149q51 0 74 10q26 11 40 34q17 27 38 79l53 125l-410 1052h178zM502 1335l-178 -168h-160l258 279h160l258 -279h-162z" />
    <glyph glyph-name="Ydieresis" unicode="&#x178;" horiz-adv-x="1296" 
d="M18 1436h209l422 -713l428 713h201l-541 -906v-530h-178v530zM386 1779q29 29 77 29q49 0 78 -29q30 -30 30 -77q0 -45 -30 -75t-78 -30q-46 0 -76 30q-31 31 -31 75q0 47 30 77zM759 1778q31 30 77 30t75 -29q31 -31 31 -77q0 -44 -31 -75q-30 -30 -75 -30q-46 0 -77 30
q-32 30 -32 75q0 46 32 76z" />
    <glyph glyph-name="Zacute" unicode="&#x179;" horiz-adv-x="1245" 
d="M88 1434h1069v-129l-856 -1141h883v-164h-1123v129l857 1141h-830v164zM571 1559l174 276h197l-240 -276h-131z" />
    <glyph glyph-name="zacute" unicode="&#x17a;" horiz-adv-x="974" 
d="M72 1044h831v-126l-635 -764h662v-154h-885v127l633 764h-606v153zM430 1169l174 277h197l-240 -277h-131z" />
    <glyph glyph-name="Zdotaccent" unicode="&#x17b;" horiz-adv-x="1245" 
d="M88 1434h1069v-129l-856 -1141h883v-164h-1123v129l857 1141h-830v164zM556 1810q31 29 77 29t77 -29q29 -28 29 -73q0 -46 -29 -75q-30 -30 -77 -30t-77 30t-30 75t30 73z" />
    <glyph glyph-name="zdotaccent" unicode="&#x17c;" horiz-adv-x="974" 
d="M72 1044h831v-126l-635 -764h662v-154h-885v127l633 764h-606v153zM415 1421q31 29 77 29q45 0 76 -29q30 -29 30 -73q0 -45 -30 -75t-76 -30q-47 0 -77 30t-30 75q0 44 30 73z" />
    <glyph glyph-name="Zcaron" unicode="&#x17d;" horiz-adv-x="1245" 
d="M88 1434h1069v-129l-856 -1141h883v-164h-1123v129l857 1141h-830v164zM633 1667l178 168h160l-258 -279h-160l-258 279h162z" />
    <glyph glyph-name="zcaron" unicode="&#x17e;" horiz-adv-x="974" 
d="M72 1044h831v-126l-635 -764h662v-154h-885v127l633 764h-606v153zM492 1278l178 168h159l-258 -279h-159l-258 279h161z" />
    <glyph glyph-name="florin" unicode="&#x192;" horiz-adv-x="989" 
d="M665 1248q-34 -31 -40 -101l-33 -383h248v-154h-262l-50 -583q-23 -244 -282 -244h-203v154h178q70 0 104 31t40 102l47 540h-238v154h250l37 426q23 244 280 244h205v-154h-178q-68 0 -103 -32z" />
    <glyph glyph-name="AEacute" unicode="&#x1fc;" horiz-adv-x="1961" 
d="M1712 1835l-239 -276h-132l175 276h196zM1139 164h762v-164h-940v362h-545l-228 -362h-186l868 1434h1004v-164h-735v-459h612v-164h-612v-483zM498 518h463v764z" />
    <glyph glyph-name="aeacute" unicode="&#x1fd;" horiz-adv-x="1849" 
d="M1237 1434l-240 -277h-131l174 277h197zM956 489v-14q5 -154 95 -246t235 -92q112 0 192 57q78 56 105 156h170q-30 -158 -154 -261q-122 -101 -301 -101q-139 0 -242 59q-107 61 -169 168q-60 -105 -167 -166t-249 -61q-180 0 -287 82q-108 82 -108 223q0 159 107 242
t313 83h307v72q0 103 -69 160t-191 57q-109 0 -179 -48q-72 -49 -88 -128h-167q18 155 136 240q119 86 306 86q130 0 222 -47q90 -46 136 -138q62 89 156 137q95 48 211 48q143 0 254 -60t174 -172q64 -113 68 -264q0 -17 -5 -72h-811zM1069 831q-90 -78 -102 -202h630
q-12 133 -99 207q-86 73 -220 73q-119 0 -209 -78zM803 477h-324q-233 0 -233 -174q0 -79 61 -125q62 -47 166 -47q153 0 242 81q88 81 88 214v51z" />
    <glyph glyph-name="Scommaaccent" unicode="&#x218;" horiz-adv-x="1243" 
d="M262 469q10 -145 117 -232t270 -87q148 0 239 64t91 179q0 83 -50 133q-49 49 -129 73q-76 23 -214 46q-216 38 -342 121q-127 84 -127 272q0 122 61 214q62 94 173 145t255 51q152 0 268 -55q117 -56 185 -155q69 -101 76 -228h-177q-16 124 -112 200q-95 76 -240 76
q-144 0 -227 -62q-84 -63 -84 -175q0 -82 49 -128t127 -70q74 -23 213 -46q217 -38 344 -122q129 -85 129 -273q0 -125 -64 -220q-65 -96 -181 -149q-117 -53 -265 -53q-169 0 -293 60q-123 59 -193 170q-69 109 -75 251h176zM547 -104h164l-144 -293h-121z" />
    <glyph glyph-name="scommaaccent" unicode="&#x219;" horiz-adv-x="1021" 
d="M246 344q5 -95 83 -154t203 -59q110 0 180 44q68 43 68 116q0 62 -32 94q-33 33 -85 45q-62 14 -149 25q-138 17 -221 43q-88 28 -139 85q-54 60 -54 160q0 91 53 164q52 72 142 112q89 40 203 40q184 0 300 -86t128 -246h-168q-10 82 -80 135t-174 53q-105 0 -172 -44
q-66 -43 -66 -115q0 -53 31 -82q30 -28 79 -39q54 -12 146 -23q140 -17 227 -45q89 -29 143 -92t54 -172q0 -95 -55 -166q-54 -71 -150 -110q-95 -39 -209 -39q-204 0 -328 94q-125 95 -126 262h168zM446 -104h164l-143 -293h-121z" />
    <glyph glyph-name="uni021A" unicode="&#x21a;" horiz-adv-x="1210" 
d="M51 1434h1108v-164h-465v-1270h-178v1270h-465v164zM520 -104h164l-143 -293h-121z" />
    <glyph glyph-name="uni021B" unicode="&#x21b;" horiz-adv-x="653" 
d="M184 891h-188v153h188v293h168v-293h264v-153h-264v-617q0 -65 26 -93q26 -27 89 -27h182v-154h-192q-147 0 -210 66t-63 206v619zM328 -104h164l-144 -293h-121z" />
    <glyph glyph-name="uni0237" unicode="&#x237;" horiz-adv-x="409" 
d="M12 -256q61 0 88 27t27 88v1185h168v-1181q0 -139 -65 -206t-207 -67h-142v154h131z" />
    <glyph glyph-name="uni02BC" unicode="&#x2bc;" horiz-adv-x="692" 
d="M309 1434h158l-119 -299h-121z" />
    <glyph glyph-name="circumflex" unicode="&#x2c6;" horiz-adv-x="819" 
d="M410 1323l-179 -168h-159l258 279h159l259 -279h-162z" />
    <glyph glyph-name="caron" unicode="&#x2c7;" horiz-adv-x="819" 
d="M410 1266l178 168h160l-259 -279h-159l-258 279h161z" />
    <glyph glyph-name="breve" unicode="&#x2d8;" horiz-adv-x="819" 
d="M260 1434q0 -67 41 -110q41 -42 107 -42q64 0 108 42q43 42 43 110h133q-1 -127 -82 -204q-80 -77 -204 -77t-200 76q-78 78 -79 205h133z" />
    <glyph glyph-name="dotaccent" unicode="&#x2d9;" horiz-adv-x="819" 
d="M333 1409q31 29 77 29q45 0 76 -29q30 -29 30 -74q0 -44 -30 -74t-76 -30q-47 0 -77 30t-30 74q0 45 30 74z" />
    <glyph glyph-name="ring" unicode="&#x2da;" horiz-adv-x="819" 
d="M241 1519q69 66 169 66t169 -66q68 -65 68 -161q0 -98 -68 -163q-70 -67 -169 -67t-169 67q-69 66 -69 163q0 95 69 161zM502 1452q-37 37 -92 37t-92 -37t-37 -94q0 -59 36 -95q38 -38 93 -38q54 0 92 38q37 37 37 95q0 57 -37 94z" />
    <glyph glyph-name="ogonek" unicode="&#x2db;" horiz-adv-x="819" 
d="M110 -94q56 65 156 133l144 -39q-103 -56 -158 -105t-55 -106q0 -76 94 -76h131v-123h-160q-91 0 -150 48q-57 46 -57 126q0 78 55 142z" />
    <glyph glyph-name="tilde" unicode="&#x2dc;" horiz-adv-x="819" 
d="M243 1284q-20 -29 -20 -72h-106v25q0 83 48 135q48 53 128 53q53 0 83 -17t64 -48q22 -21 42 -34q16 -11 40 -11q35 0 53 28q19 30 19 72h106v-24q0 -83 -48 -136t-126 -53q-51 0 -82 17q-32 18 -65 49q-22 22 -40 34q-17 11 -42 11q-34 0 -54 -29z" />
    <glyph glyph-name="hungarumlaut" unicode="&#x2dd;" horiz-adv-x="827" 
d="M147 1153l175 281h190l-236 -281h-129zM508 1153l174 281h190l-235 -281h-129z" />
    <glyph glyph-name="gravecomb" unicode="&#x300;" horiz-adv-x="0" 
d="M-713 1434h197l170 -279h-133z" />
    <glyph glyph-name="acutecomb" unicode="&#x301;" horiz-adv-x="0" 
d="M-471 1157l174 277h197l-240 -277h-131z" />
    <glyph glyph-name="uni0302" unicode="&#x302;" horiz-adv-x="0" 
d="M-410 1323l-178 -168h-160l259 279h159l258 -279h-161z" />
    <glyph glyph-name="tildecomb" unicode="&#x303;" horiz-adv-x="0" 
d="M-577 1284q-19 -28 -19 -72h-106v25q0 83 48 135q48 53 128 53q53 0 83 -17t64 -48q22 -21 42 -34q16 -11 40 -11q35 0 53 28q19 30 19 72h106v-24q0 -83 -48 -136t-126 -53q-51 0 -82 17q-32 18 -65 49q-22 22 -40 34q-16 11 -42 11q-35 0 -55 -29z" />
    <glyph glyph-name="uni0304" unicode="&#x304;" horiz-adv-x="0" 
d="M-690 1243v127h563v-127h-563z" />
    <glyph glyph-name="uni0306" unicode="&#x306;" horiz-adv-x="0" 
d="M-559 1434q0 -67 41 -110q41 -42 106 -42q66 0 109 42t43 110h133q-1 -127 -82 -204q-80 -77 -205 -77q-123 0 -199 76q-78 78 -79 205h133z" />
    <glyph glyph-name="uni0307" unicode="&#x307;" horiz-adv-x="0" 
d="M-486 1409q31 29 76 29q46 0 77 -29q30 -29 30 -74q0 -44 -30 -74t-77 -30q-46 0 -76 30t-30 74q0 45 30 74z" />
    <glyph glyph-name="uni0308" unicode="&#x308;" horiz-adv-x="0" 
d="M-673 1377q30 30 77 30q48 0 78 -30q31 -31 31 -77q0 -43 -31 -74q-30 -30 -78 -30q-46 0 -76 30t-30 74q0 48 29 77zM-300 1376q33 31 77 31q46 0 76 -30t30 -77q0 -44 -30 -74t-76 -30q-45 0 -77 30t-32 74q0 46 32 76z" />
    <glyph glyph-name="uni030A" unicode="&#x30a;" horiz-adv-x="0" 
d="M-579 1519q69 66 169 66t169 -66t69 -161q0 -97 -69 -163q-70 -67 -169 -67t-169 67q-68 65 -68 163q0 96 68 161zM-318 1452q-37 37 -92 37t-92 -37t-37 -94q0 -58 37 -95q38 -38 92 -38q55 0 93 38q36 36 36 95q0 57 -37 94z" />
    <glyph glyph-name="uni030B" unicode="&#x30b;" horiz-adv-x="0" 
d="M-672 1153l174 281h191l-236 -281h-129zM-311 1153l174 281h190l-235 -281h-129z" />
    <glyph glyph-name="uni030C" unicode="&#x30c;" horiz-adv-x="0" 
d="M-410 1266l179 168h159l-258 -279h-159l-259 279h162z" />
    <glyph glyph-name="uni0312" unicode="&#x312;" horiz-adv-x="0" 
d="M-344 1141h-164l135 293h129z" />
    <glyph glyph-name="uni0326" unicode="&#x326;" horiz-adv-x="0" 
d="M-496 -104h164l-143 -293h-121z" />
    <glyph glyph-name="uni0327" unicode="&#x327;" horiz-adv-x="0" 
d="M-352 37l-33 -123h23q82 0 133 -42t51 -110q0 -78 -52 -124q-54 -48 -137 -48h-184v101h158q86 0 86 67q0 27 -24 43q-25 17 -60 17h-103l54 219h88z" />
    <glyph glyph-name="uni0328" unicode="&#x328;" horiz-adv-x="0" 
d="M-710 -94q55 64 157 133l143 -39q-101 -55 -157 -105t-56 -106q0 -76 95 -76h131v-123h-160q-92 0 -151 48q-56 46 -56 126q0 79 54 142z" />
    <glyph glyph-name="pi" unicode="&#x3c0;" horiz-adv-x="1247" 
d="M1214 1042v-153h-167v-889h-168v889h-512v-889h-168v889h-166v153h1181z" />
    <glyph glyph-name="uni0E3F" unicode="&#xe3f;" horiz-adv-x="1306" 
d="M1212 395q0 -185 -134 -290t-386 -105h-22v-203h-119v203h-412v1434h412v208h119v-208h8q226 0 351 -99q124 -99 124 -272q0 -127 -66 -210q-67 -83 -190 -116q315 -60 315 -342zM317 1272v-461h234v461h-234zM670 1272v-461h16q137 0 213 61t76 170t-75 169
q-76 61 -214 61h-16zM317 162h234v489h-234v-489zM943 225q87 63 87 176q0 122 -88 186t-250 64h-22v-489h22q164 0 251 63z" />
    <glyph glyph-name="Wgrave" unicode="&#x1e80;" horiz-adv-x="2031" 
d="M57 1434h187l336 -1205l352 1205h180l340 -1205l338 1205h184l-420 -1434h-213l-327 1137l-326 -1137h-213zM715 1835h196l170 -279h-133z" />
    <glyph glyph-name="wgrave" unicode="&#x1e81;" horiz-adv-x="1601" 
d="M16 1044h177l260 -849l274 849h156l260 -849l272 849h170l-348 -1044h-184l-252 776l-262 -776l-185 -2zM502 1446h196l170 -279h-133z" />
    <glyph glyph-name="Wacute" unicode="&#x1e82;" horiz-adv-x="2031" 
d="M57 1434h187l336 -1205l352 1205h180l340 -1205l338 1205h184l-420 -1434h-213l-327 1137l-326 -1137h-213zM956 1559l174 276h197l-240 -276h-131z" />
    <glyph glyph-name="wacute" unicode="&#x1e83;" horiz-adv-x="1601" 
d="M16 1044h177l260 -849l274 849h156l260 -849l272 849h170l-348 -1044h-184l-252 776l-262 -776l-185 -2zM743 1169l175 277h196l-240 -277h-131z" />
    <glyph glyph-name="Wdieresis" unicode="&#x1e84;" horiz-adv-x="2031" 
d="M57 1434h187l336 -1205l352 1205h180l340 -1205l338 1205h184l-420 -1434h-213l-327 1137l-326 -1137h-213zM755 1779q29 29 76 29q49 0 78 -29q31 -31 31 -77q0 -44 -31 -75q-30 -30 -78 -30q-45 0 -75 30q-31 31 -31 75q0 47 30 77zM1127 1778q31 30 77 30q47 0 76 -29
q31 -31 31 -77q0 -44 -31 -75q-30 -30 -76 -30t-77 30t-31 75q0 46 31 76z" />
    <glyph glyph-name="wdieresis" unicode="&#x1e85;" horiz-adv-x="1601" 
d="M16 1044h177l260 -849l274 849h156l260 -849l272 849h170l-348 -1044h-184l-252 776l-262 -776l-185 -2zM542 1390q29 29 76 29q49 0 78 -29q31 -31 31 -77q0 -44 -31 -75q-30 -30 -78 -30q-45 0 -75 30q-31 31 -31 75q0 47 30 77zM914 1389q32 30 77 30q47 0 76 -29
q31 -31 31 -77q0 -44 -31 -75q-30 -30 -76 -30q-45 0 -77 30q-31 30 -31 75q0 46 31 76z" />
    <glyph glyph-name="Ygrave" unicode="&#x1ef2;" horiz-adv-x="1296" 
d="M18 1436h209l422 -713l428 713h201l-541 -906v-530h-178v530zM346 1835h197l170 -279h-133z" />
    <glyph glyph-name="ygrave" unicode="&#x1ef3;" horiz-adv-x="1009" 
d="M188 1044l322 -851l311 851h178l-481 -1220q-39 -99 -65 -141q-29 -48 -72 -70q-44 -23 -115 -23h-200v154h149q51 0 74 10q26 11 40 34q17 27 38 79l53 125l-410 1052h178zM199 1446h196l170 -279h-133z" />
    <glyph glyph-name="endash" unicode="&#x2013;" horiz-adv-x="1206" 
d="M106 512v139h994v-139h-994z" />
    <glyph glyph-name="emdash" unicode="&#x2014;" horiz-adv-x="1886" 
d="M106 653h1674v-139h-1674v139z" />
    <glyph glyph-name="quoteleft" unicode="&#x2018;" horiz-adv-x="421" 
d="M114 1015q-44 61 -44 148q0 132 76 205t212 78v-96q-90 -1 -131 -52q-41 -50 -41 -112q0 -17 2 -27q25 25 70 25q48 0 79 -29q30 -29 30 -82q0 -50 -36 -85q-35 -34 -100 -34q-73 0 -117 61z" />
    <glyph glyph-name="quoteright" unicode="&#x2019;" horiz-adv-x="421" 
d="M308 1385q44 -61 44 -148q0 -131 -77 -205q-76 -73 -212 -78v97q92 2 132 51q41 50 41 112q0 12 -3 27q-24 -24 -69 -24q-50 0 -79 28q-30 29 -30 82q0 51 36 85q35 34 99 34q74 0 118 -61z" />
    <glyph glyph-name="quotesinglbase" unicode="&#x201a;" horiz-adv-x="421" 
d="M308 155q44 -61 44 -149q0 -131 -77 -205q-75 -72 -212 -77v96q92 2 132 51q41 50 41 113q0 11 -3 26q-24 -24 -69 -24q-49 0 -78 28q-31 29 -31 82q0 50 36 85q35 34 99 34q74 0 118 -60z" />
    <glyph glyph-name="quotedblleft" unicode="&#x201c;" horiz-adv-x="776" 
d="M114 1015q-44 61 -44 148q0 132 76 205t212 78v-96q-90 -1 -131 -52q-41 -50 -41 -112q0 -17 2 -27q25 25 70 25q48 0 79 -29q30 -29 30 -82q0 -50 -36 -85q-35 -34 -100 -34q-73 0 -117 61zM468 1015q-44 61 -44 148q0 131 77 205q76 73 212 78v-96q-90 -1 -131 -52
q-41 -50 -41 -112q0 -17 2 -27q25 25 69 25q48 0 79 -29q30 -29 30 -82q0 -50 -36 -85q-35 -34 -99 -34q-74 0 -118 61z" />
    <glyph glyph-name="quotedblright" unicode="&#x201d;" horiz-adv-x="776" 
d="M308 1385q44 -61 44 -148q0 -131 -77 -205q-76 -73 -212 -78v97q92 2 132 51q41 50 41 112q0 12 -3 27q-24 -24 -69 -24q-50 0 -79 28q-30 29 -30 82q0 51 36 85q35 34 99 34q74 0 118 -61zM663 1385q44 -61 44 -148q0 -131 -77 -205q-76 -73 -212 -78v97q91 2 131 51
q41 50 41 112q0 17 -2 27q-24 -24 -70 -24q-50 0 -79 28t-29 82q0 51 35 85t100 34q74 0 118 -61z" />
    <glyph glyph-name="quotedblbase" unicode="&#x201e;" horiz-adv-x="776" 
d="M308 155q44 -61 44 -149q0 -131 -77 -205q-75 -72 -212 -77v96q92 2 132 51q41 50 41 113q0 11 -3 26q-24 -24 -69 -24q-49 0 -78 28q-31 29 -31 82q0 50 36 85q35 34 99 34q74 0 118 -60zM663 155q44 -61 44 -149q0 -131 -77 -205q-75 -72 -212 -77v96q91 2 131 51
q41 50 41 113q0 16 -2 26q-24 -24 -70 -24q-49 0 -78 28q-30 29 -30 82q0 51 35 85t100 34q75 0 118 -60z" />
    <glyph glyph-name="dagger" unicode="&#x2020;" horiz-adv-x="1058" 
d="M989 1001v-143h-385v-858h-149v858h-385v143h385v433h149v-433h385z" />
    <glyph glyph-name="daggerdbl" unicode="&#x2021;" horiz-adv-x="1114" 
d="M1026 932h-393v-430h393v-144h-393v-358h-152v358h-393v144h393v430h-393v143h393v359h152v-359h393v-143z" />
    <glyph glyph-name="bullet" unicode="&#x2022;" horiz-adv-x="845" 
d="M215 902q79 75 207 75q127 0 208 -75t81 -200q0 -124 -81 -199t-208 -75q-128 0 -207 75q-80 75 -80 199q0 125 80 200z" />
    <glyph glyph-name="ellipsis" unicode="&#x2026;" horiz-adv-x="1208" 
d="M127 185q34 32 84 32t84 -32q33 -31 33 -83t-33 -83q-32 -31 -84 -31t-84 31q-33 31 -33 83t33 83zM520 185q34 32 84 32t84 -32q33 -31 33 -83t-33 -83q-32 -31 -84 -31t-84 31q-33 32 -33 83q0 52 33 83zM913 185q34 32 84 32t84 -32q33 -31 33 -83t-33 -83
q-32 -31 -84 -31t-84 31t-32 83t32 83z" />
    <glyph glyph-name="perthousand" unicode="&#x2030;" horiz-adv-x="2650" 
d="M158 1277q46 79 129 124q82 45 184 45q101 0 184 -45t129 -124q47 -80 47 -179q0 -97 -47 -177q-46 -79 -129 -123t-184 -44t-184 44t-129 123q-47 80 -47 177q0 99 47 179zM352 0l977 1434h166l-977 -1434h-166zM621 1250q-61 61 -150 61q-88 0 -149 -61
q-60 -60 -60 -152q0 -90 60 -150q59 -59 149 -59q91 0 150 59t59 150q0 93 -59 152zM1059 511q46 79 129 124q82 45 184 45t184 -45q84 -46 130 -124q47 -80 47 -179q0 -97 -47 -177q-46 -79 -130 -123q-83 -44 -184 -44t-184 44q-82 44 -129 123q-47 80 -47 177
q0 99 47 179zM1866 511q46 79 129 124t184 45t184 -45t129 -124q48 -82 48 -179q0 -95 -48 -177q-46 -79 -129 -123t-184 -44t-184 44t-129 123q-47 80 -47 177q0 99 47 179zM1522 484q-61 61 -150 61q-88 0 -149 -61q-60 -60 -60 -152q0 -90 60 -150q59 -59 149 -59
q91 0 150 59t59 150q0 93 -59 152zM2329 484q-61 61 -150 61q-88 0 -149 -61q-60 -60 -60 -152q0 -90 60 -150q59 -59 149 -59q91 0 150 59t59 150q0 93 -59 152z" />
    <glyph glyph-name="guilsinglleft" unicode="&#x2039;" horiz-adv-x="712" 
d="M604 1044l-321 -522l321 -522h-170l-325 522l325 522h170z" />
    <glyph glyph-name="guilsinglright" unicode="&#x203a;" horiz-adv-x="712" 
d="M109 1044h170l325 -522l-325 -522h-170l321 522z" />
    <glyph glyph-name="uni2042" unicode="&#x2042;" horiz-adv-x="1959" 
d="M1309 1247l-250 -92l170 -201l-90 -82l-172 215l-170 -215l-88 82l172 203l-250 92l47 115l237 -109l-4 263h117l-6 -265l240 111zM817 279l-250 -93l170 -200l-90 -82l-172 215l-170 -215l-88 82l172 202l-250 93l47 114l238 -108l-4 262h117l-7 -264l240 110zM1821 279
l-250 -93l170 -200l-90 -82l-172 215l-170 -215l-88 82l172 202l-250 93l47 114l237 -108l-4 262h117l-6 -264l240 110z" />
    <glyph glyph-name="fraction" unicode="&#x2044;" horiz-adv-x="380" 
d="M-332 0l910 1434h135l-910 -1434h-135z" />
    <glyph glyph-name="uni2051" unicode="&#x2051;" horiz-adv-x="956" 
d="M817 1247l-250 -92l170 -201l-90 -82l-172 215l-170 -215l-88 82l172 203l-250 92l47 115l238 -109l-4 263h117l-7 -265l240 111zM817 276l-250 -92l170 -200l-90 -82l-172 215l-170 -215l-88 82l172 202l-250 93l47 114l238 -108l-4 262h117l-7 -264l240 110z" />
    <glyph glyph-name="uni2070" unicode="&#x2070;" horiz-adv-x="698" 
d="M131 1547q83 106 219 106q134 0 217 -107q82 -106 82 -278q0 -173 -82 -279t-217 -106q-136 0 -219 105q-82 104 -82 280q0 175 82 279zM480 1465q-48 77 -130 77q-84 0 -132 -76t-48 -198q0 -120 48 -197q48 -76 132 -76q82 0 130 76q48 77 48 197t-48 197z" />
    <glyph glyph-name="uni2074" unicode="&#x2074;" horiz-adv-x="696" 
d="M391 1638h144v-452h120v-109h-120v-184h-115v184h-379v109zM420 1516l-254 -330h254v330z" />
    <glyph glyph-name="uni2075" unicode="&#x2075;" horiz-adv-x="643" 
d="M551 1532h-375l-14 -217q28 36 78 59q47 21 104 21q112 0 181 -71q69 -70 69 -183q0 -117 -75 -189q-74 -71 -195 -71q-112 0 -186 62q-75 63 -85 163h117q11 -54 52 -85q43 -32 104 -32q63 0 105 43q42 44 42 109q0 67 -43 107t-113 40q-47 0 -84 -21q-35 -20 -59 -61
h-108l20 432h465v-106z" />
    <glyph glyph-name="uni2076" unicode="&#x2076;" horiz-adv-x="661" 
d="M128 1544q83 109 224 109q99 0 172 -59q71 -58 86 -160h-112q-12 57 -53 90q-39 32 -95 32q-87 0 -139 -73q-53 -74 -53 -193v-59q12 59 64 102t138 43q119 0 187 -67q69 -67 69 -179q0 -113 -73 -180t-199 -67q-147 0 -223 100t-76 270q0 182 83 291zM456 1240
q-42 42 -112 42q-69 0 -113 -41q-43 -40 -43 -108t43 -110t113 -42q69 0 112 41q42 40 42 108t-42 110z" />
    <glyph glyph-name="uni2077" unicode="&#x2077;" horiz-adv-x="614" 
d="M43 1638h535v-100l-334 -647h-127l334 641l-408 -2v108z" />
    <glyph glyph-name="uni2078" unicode="&#x2078;" horiz-adv-x="669" 
d="M87 1213q42 52 106 69q-56 18 -90 61q-33 42 -33 107q0 89 74 145q76 58 192 58q112 0 190 -58q76 -57 76 -145q0 -63 -33 -105t-88 -63q63 -18 103 -69q39 -50 39 -119q0 -92 -78 -152q-77 -59 -209 -59t-210 59q-79 60 -79 152q0 70 40 119zM441 1523q-40 33 -105 33
q-66 0 -106 -33q-42 -35 -42 -85q0 -54 42 -85q43 -32 106 -32q65 0 106 32t41 85q0 50 -42 85zM456 1194q-47 37 -120 37t-120 -37q-48 -38 -48 -90q0 -54 48 -88q49 -35 120 -35t120 35q48 34 48 88q0 52 -48 90z" />
    <glyph glyph-name="uni2079" unicode="&#x2079;" horiz-adv-x="661" 
d="M534 991q-83 -108 -225 -108q-101 0 -172 58t-86 161h113q12 -57 52 -90t95 -33q87 0 140 74t53 192v60q-12 -59 -65 -103q-52 -43 -138 -43q-116 0 -186 68t-70 178q0 112 74 180t198 68q147 0 224 -101q75 -99 75 -270q0 -184 -82 -291zM206 1295q42 -42 111 -42
t113 41q43 40 43 109q0 67 -43 109q-44 42 -113 42q-68 0 -111 -41q-42 -41 -42 -108q0 -68 42 -110z" />
    <glyph glyph-name="uni2080" unicode="&#x2080;" horiz-adv-x="696" 
d="M129 447q83 106 219 106q134 0 217 -107q82 -106 82 -278q0 -173 -82 -279t-217 -106q-136 0 -219 105q-82 104 -82 280q0 175 82 279zM478 366q-48 76 -130 76q-85 0 -132 -75q-48 -77 -48 -199q0 -120 48 -197q47 -75 132 -75q83 0 130 75q48 77 48 197q0 122 -48 198z
" />
    <glyph glyph-name="uni2081" unicode="&#x2081;" horiz-adv-x="368" 
d="M174 -205v500q-15 -21 -41 -21h-133v113h133q19 0 31 16q12 17 12 41v97h113v-746h-115z" />
    <glyph glyph-name="uni2082" unicode="&#x2082;" horiz-adv-x="645" 
d="M53 295q0 117 76 187q77 71 190 71q123 0 197 -65t74 -169q0 -75 -38 -128q-36 -50 -110 -109l-217 -174h371v-113h-545v107l303 237q53 43 85 86q30 40 30 92q0 57 -41 92q-39 33 -106 33q-71 0 -112 -40q-42 -40 -42 -111v-10h-115v14z" />
    <glyph glyph-name="uni2083" unicode="&#x2083;" horiz-adv-x="665" 
d="M136 492q70 61 194 61q123 0 195 -57q73 -58 73 -152q0 -58 -35 -99q-34 -39 -88 -55q65 -12 102 -57q37 -44 37 -115q0 -107 -77 -171t-209 -64q-136 0 -209 64q-74 65 -76 184h117q2 -68 47 -104t123 -36q69 0 115 34q47 35 47 89t-48 88q-46 33 -125 33h-45v84h48
q67 0 112 31q43 30 43 82t-40 82q-41 30 -103 30q-72 0 -111 -33q-42 -35 -43 -92h-117q1 111 73 173z" />
    <glyph glyph-name="uni2084" unicode="&#x2084;" horiz-adv-x="696" 
d="M391 541h144v-453h120v-108h-120v-185h-115v185h-379v108zM420 418l-254 -330h254v330z" />
    <glyph glyph-name="uni2085" unicode="&#x2085;" horiz-adv-x="643" 
d="M551 434h-375l-14 -217q28 36 78 59q46 21 104 21q112 0 181 -71q69 -70 69 -183q0 -116 -75 -188t-195 -72q-112 0 -186 62q-75 63 -85 163h117q11 -54 52 -85q43 -32 104 -32q63 0 105 43q42 44 42 109q0 68 -43 108q-42 39 -113 39q-47 0 -84 -21q-36 -20 -59 -60
h-108l20 432h465v-107z" />
    <glyph glyph-name="uni2086" unicode="&#x2086;" horiz-adv-x="661" 
d="M128 444q83 109 224 109q101 0 172 -58t86 -161h-112q-12 57 -53 90q-40 33 -95 33q-86 0 -139 -74t-53 -193v-59q12 59 64 102t138 43q119 0 187 -67q69 -68 69 -178q0 -114 -73 -181t-199 -67q-147 0 -223 100t-76 271q0 181 83 290zM456 140q-42 42 -112 42
q-69 0 -113 -41q-43 -40 -43 -108t43 -110t113 -42q69 0 112 41q42 40 42 109q0 67 -42 109z" />
    <glyph glyph-name="uni2087" unicode="&#x2087;" horiz-adv-x="614" 
d="M43 543h535v-101l-334 -647h-127l334 641l-408 -2v109z" />
    <glyph glyph-name="uni2088" unicode="&#x2088;" horiz-adv-x="669" 
d="M87 114q41 50 106 68q-55 18 -90 62q-33 42 -33 106q0 90 74 146q75 57 192 57q114 0 190 -57t76 -146q0 -63 -33 -105t-88 -63q64 -18 103 -68t39 -120q0 -92 -78 -152q-77 -59 -209 -59t-210 59q-79 60 -79 152q0 71 40 120zM441 423q-41 34 -105 34q-65 0 -106 -34
q-42 -35 -42 -85q0 -54 42 -85q43 -32 106 -32q65 0 106 32t41 85q0 50 -42 85zM456 94q-47 37 -120 37t-120 -37q-48 -38 -48 -90q0 -54 48 -88q49 -35 120 -35t120 35q48 35 48 88q0 52 -48 90z" />
    <glyph glyph-name="uni2089" unicode="&#x2089;" horiz-adv-x="661" 
d="M534 -109q-83 -108 -225 -108q-101 0 -172 58t-86 161h113q12 -57 52 -90t95 -33q87 0 140 74t53 192v60q-12 -59 -65 -103q-52 -43 -138 -43q-116 0 -186 68t-70 178q0 112 74 180t198 68q148 0 224 -100q75 -99 75 -271q0 -184 -82 -291zM206 196q42 -42 111 -42
t113 41q43 40 43 108t-43 110q-44 42 -113 42q-68 0 -111 -41q-42 -40 -42 -109q0 -67 42 -109z" />
    <glyph glyph-name="franc" unicode="&#x20a3;" horiz-adv-x="1118" 
d="M1067 1270h-713v-479h590v-164h-590v-244h303v-143h-303v-240h-178v240h-180v143h180v1051h891v-164z" />
    <glyph glyph-name="uni20A8" unicode="&#x20a8;" horiz-adv-x="1265" 
d="M1196 1434l-20 -131h-308q97 -97 115 -246h195l-21 -131h-174q-18 -124 -98 -215q-80 -90 -203 -125l322 -586h-201l-297 551h-367v164h357q122 0 200 56q81 58 103 155h-660v131h660q-21 97 -101 155q-81 58 -200 58h-359v164h1057z" />
    <glyph glyph-name="Euro" unicode="&#x20ac;" horiz-adv-x="1351" 
d="M47 502v131h133q-2 32 -2 84q0 29 2 65h-133v131h141q30 250 178 392q147 141 373 141q224 0 366 -128q140 -127 163 -345h-176q-21 143 -112 228t-235 85q-154 0 -253 -98q-100 -98 -121 -275h395l-21 -131h-387q-2 -32 -2 -63q0 -42 4 -86h351l-21 -131h-319
q30 -167 130 -261t247 -94q142 0 230 84q90 86 114 230h174q-24 -216 -163 -345q-139 -128 -362 -128q-222 0 -368 136q-148 137 -185 378h-141z" />
    <glyph glyph-name="uni20BF" unicode="&#x20bf;" horiz-adv-x="1275" 
d="M336 1434v215h147v-215h146v215h147v-226q164 -23 255 -115t91 -245q0 -129 -65 -210q-66 -83 -191 -116q316 -60 316 -342q0 -163 -107 -265q-105 -101 -299 -122v-205h-147v197h-146v-197h-149v197h-195v1434h197zM317 811h338q137 0 213 61t76 170t-75 169
q-76 61 -214 61h-338v-461zM317 162h345q163 0 250 63t87 176q0 122 -88 186t-249 64h-345v-489z" />
    <glyph glyph-name="trademark" unicode="&#x2122;" horiz-adv-x="1452" 
d="M80 1434h487v-111h-182v-440h-123v440h-182v111zM631 1434h168l180 -402l178 402h168v-551h-115v415l-184 -415h-100l-181 415v-415h-114v551z" />
    <glyph glyph-name="uni2126" unicode="&#x2126;" horiz-adv-x="1517" 
d="M891 291q176 96 260 222t84 294q0 140 -61 249t-172 171q-109 61 -244 61q-137 0 -244 -61q-109 -62 -170 -171t-61 -249q0 -168 84 -294t260 -222v-291h-512v164h358v67q-373 173 -373 584q0 188 84 332q83 143 234 221q150 78 340 78t340 -78q149 -77 234 -221
q85 -143 85 -330q0 -204 -93 -354q-92 -149 -280 -232v-67h361v-164h-514v291z" />
    <glyph glyph-name="uni2153" unicode="&#x2153;" horiz-adv-x="1392" 
d="M174 690v500q-15 -21 -41 -21h-133v113h133q19 0 31 16t12 41v97h113v-746h-115zM37 0l909 1434h135l-909 -1434h-135zM878 696q71 62 193 62q123 0 196 -58q72 -57 72 -151q0 -59 -34 -99q-34 -39 -88 -55q64 -12 101 -57q38 -46 38 -115q0 -107 -78 -171
q-77 -64 -209 -64q-136 0 -209 64q-74 65 -76 184h117q2 -68 47 -104t123 -36q70 0 116 34t46 89t-47 88q-46 33 -125 33h-45v84h47q68 0 113 31q43 30 43 82q0 51 -40 81q-42 31 -104 31q-70 0 -110 -34q-42 -35 -43 -91h-117q1 110 73 172z" />
    <glyph glyph-name="uni2155" unicode="&#x2155;" horiz-adv-x="1357" 
d="M174 690v500q-15 -21 -41 -21h-133v113h133q19 0 31 16t12 41v97h113v-746h-115zM37 0l909 1434h135l-909 -1434h-135zM1278 639h-375l-14 -217q28 36 78 59q47 21 104 21q112 0 181 -71t69 -183q0 -117 -75 -189q-74 -71 -195 -71q-112 0 -186 62q-75 63 -85 163h117
q11 -54 52 -85q43 -32 104 -32q63 0 105 43q42 44 42 109q0 67 -43 107t-113 40q-46 0 -83 -21t-60 -61h-108l20 432h465v-106z" />
    <glyph glyph-name="uni2156" unicode="&#x2156;" horiz-adv-x="1634" 
d="M53 1188q0 117 76 187q77 71 190 71q123 0 197 -65t74 -169q0 -75 -38 -128q-36 -50 -110 -109l-217 -174h371v-113h-545v107l303 237q53 43 85 86q30 40 30 92q0 57 -41 92q-39 33 -106 33q-71 0 -112 -40q-42 -41 -42 -111v-10h-115v14zM313 0l910 1434h135l-909 -1434
h-136zM1554 639h-374l-15 -217q28 36 78 59q47 21 105 21q112 0 181 -71q68 -69 68 -183q0 -118 -74 -189t-196 -71q-111 0 -185 62q-75 63 -85 163h117q11 -54 52 -85q43 -32 103 -32q64 0 106 43q42 44 42 109q0 67 -43 107t-113 40q-47 0 -84 -21q-35 -20 -59 -61h-109
l21 432h464v-106z" />
    <glyph glyph-name="uni2157" unicode="&#x2157;" horiz-adv-x="1654" 
d="M136 1389q70 61 194 61q123 0 195 -57q73 -58 73 -152q0 -58 -35 -99q-34 -39 -88 -55q65 -12 102 -57q37 -44 37 -115q0 -107 -77 -171t-209 -64q-136 0 -209 64q-74 65 -76 184h117q2 -68 47 -104t123 -36q69 0 115 34q47 35 47 89t-48 88q-47 33 -125 33h-45v84h48
q67 0 112 31q43 30 43 82t-40 82q-41 30 -103 30q-72 0 -111 -33q-42 -35 -43 -91h-117q1 110 73 172zM334 0l909 1434h135l-909 -1434h-135zM1575 639h-375l-14 -217q28 36 78 59q46 21 104 21q112 0 181 -71t69 -183q0 -117 -75 -189q-74 -71 -195 -71q-112 0 -186 62
q-75 63 -85 163h117q11 -54 52 -85q43 -32 104 -32q63 0 105 43q42 44 42 109q0 67 -43 107t-113 40q-47 0 -84 -21q-35 -20 -59 -61h-108l20 432h465v-106z" />
    <glyph glyph-name="uni2158" unicode="&#x2158;" horiz-adv-x="1685" 
d="M391 1434h144v-453h120v-109h-120v-184h-115v184h-379v109zM420 1311l-254 -330h254v330zM365 0l909 1434h135l-909 -1434h-135zM1606 639h-375l-14 -217q29 37 77 59q46 21 105 21q112 0 181 -71t69 -183q0 -117 -75 -189q-74 -71 -196 -71q-111 0 -185 62
q-75 63 -85 163h117q11 -54 52 -85q43 -32 103 -32q64 0 106 43q42 44 42 109q0 67 -43 107t-113 40q-46 0 -84 -21q-35 -20 -59 -61h-109l21 432h465v-106z" />
    <glyph glyph-name="uni2159" unicode="&#x2159;" horiz-adv-x="1343" 
d="M174 690v500q-15 -21 -41 -21h-133v113h133q19 0 31 16t12 41v97h113v-746h-115zM37 0l909 1434h135l-909 -1434h-135zM818 649q83 109 224 109q99 0 172 -59q71 -58 86 -160h-112q-12 57 -52 90t-96 33q-86 0 -139 -74t-53 -193v-59q12 59 64 102t139 43q118 0 186 -67
q70 -68 70 -178q0 -113 -74 -181q-73 -67 -199 -67q-147 0 -223 100t-76 270q0 182 83 291zM1146 345q-42 42 -112 42q-68 0 -112 -41q-43 -40 -43 -108t43 -110q44 -42 112 -42q69 0 112 41q42 41 42 109q0 67 -42 109z" />
    <glyph glyph-name="oneeighth" unicode="&#x215b;" horiz-adv-x="1370" 
d="M174 690v500q-15 -21 -41 -21h-133v113h133q19 0 31 16t12 41v97h113v-746h-115zM37 0l909 1434h135l-909 -1434h-135zM798 318q43 52 105 69q-54 17 -89 62q-34 43 -34 106q0 88 75 145q76 58 192 58q112 0 190 -58q76 -57 76 -145q0 -63 -33 -105t-88 -63
q61 -18 102 -69q39 -50 39 -119q0 -92 -78 -152q-77 -59 -208 -59q-132 0 -210 59q-79 60 -79 152q0 70 40 119zM1152 628q-41 34 -105 34q-65 0 -106 -34q-42 -34 -42 -85q0 -53 42 -85q43 -32 106 -32q65 0 106 32t41 85q0 51 -42 85zM1166 299q-47 37 -119 37
q-73 0 -120 -37q-48 -37 -48 -90t48 -88q49 -35 120 -35q70 0 119 35q48 35 48 88t-48 90z" />
    <glyph glyph-name="threeeighths" unicode="&#x215c;" horiz-adv-x="1667" 
d="M136 1389q70 61 194 61q123 0 195 -57q73 -58 73 -152q0 -58 -35 -99q-34 -39 -88 -55q65 -12 102 -57q37 -44 37 -115q0 -107 -77 -171t-209 -64q-136 0 -209 64q-74 65 -76 184h117q2 -68 47 -104t123 -36q69 0 115 34q47 35 47 89t-48 88q-47 33 -125 33h-45v84h48
q67 0 112 31q43 30 43 82t-40 82q-41 30 -103 30q-72 0 -111 -33q-42 -35 -43 -91h-117q1 110 73 172zM334 0l909 1434h135l-909 -1434h-135zM1095 318q43 52 105 69q-54 17 -89 62q-34 43 -34 106q0 88 75 145q76 58 191 58q113 0 191 -58q76 -57 76 -145q0 -63 -33 -105
t-88 -63q61 -18 102 -69q39 -50 39 -119q0 -92 -78 -152q-77 -59 -209 -59q-131 0 -209 59q-79 60 -79 152q0 70 40 119zM1449 628q-41 34 -106 34q-64 0 -105 -34q-42 -34 -42 -85q0 -53 42 -85q43 -32 105 -32q66 0 107 32t41 85q0 51 -42 85zM1463 299q-47 37 -120 37
q-72 0 -119 -37q-48 -37 -48 -90t48 -88q49 -35 119 -35q71 0 120 35q48 35 48 88t-48 90z" />
    <glyph glyph-name="fiveeighths" unicode="&#x215d;" horiz-adv-x="1644" 
d="M551 1327h-375l-14 -217q28 36 78 59q47 21 104 21q112 0 181 -71t69 -183q0 -116 -75 -188t-195 -72q-112 0 -186 62q-75 63 -85 163h117q11 -54 52 -85q43 -32 104 -32q63 0 105 43t42 109q0 67 -43 107t-113 40q-47 0 -84 -21q-35 -20 -59 -61h-108l20 433h465v-107z
M311 0l910 1434h135l-910 -1434h-135zM1072 318q42 52 106 69q-54 17 -89 62q-34 43 -34 106q0 89 74 145q76 58 192 58q112 0 190 -58q76 -57 76 -145q0 -63 -33 -105t-88 -63q63 -18 103 -69q39 -50 39 -119q0 -92 -78 -152q-77 -59 -209 -59t-210 59q-79 60 -79 152
q0 70 40 119zM1426 628q-41 34 -105 34q-65 0 -106 -34q-42 -34 -42 -85q0 -53 42 -85q43 -32 106 -32q65 0 106 32t41 85q0 51 -42 85zM1441 299q-47 37 -120 37t-120 -37q-48 -37 -48 -90t48 -88q49 -35 120 -35t120 35q48 35 48 88t-48 90z" />
    <glyph glyph-name="seveneighths" unicode="&#x215e;" horiz-adv-x="1615" 
d="M43 1434h535v-101l-334 -647h-127l334 641l-408 -2v109zM283 0l909 1434h135l-909 -1434h-135zM1043 318q42 52 106 69q-54 17 -89 62q-34 43 -34 106q0 88 75 145q76 58 191 58q113 0 191 -58q76 -57 76 -145q0 -63 -33 -105t-88 -63q61 -18 102 -69q39 -50 39 -119
q0 -92 -78 -152q-77 -59 -209 -59t-210 59t-78 152q0 71 39 119zM1398 628q-41 34 -106 34q-64 0 -105 -34q-42 -34 -42 -85q0 -53 42 -85q43 -32 105 -32q66 0 107 32t41 85q0 51 -42 85zM1412 299q-47 37 -120 37t-120 -37q-48 -37 -48 -90t48 -88q49 -35 120 -35t120 35
q48 35 48 88t-48 90z" />
    <glyph glyph-name="arrowleft" unicode="&#x2190;" horiz-adv-x="1185" 
d="M14 549l547 549l105 -105l-375 -366h780v-156h-780l375 -367l-105 -104z" />
    <glyph glyph-name="arrowup" unicode="&#x2191;" horiz-adv-x="1314" 
d="M1206 510l-104 -104l-367 374v-780h-155v780l-367 -374l-104 104l548 547z" />
    <glyph glyph-name="arrowright" unicode="&#x2192;" horiz-adv-x="1185" 
d="M1171 551l-546 -549l-105 104l375 367h-780v156h780l-375 366l105 105z" />
    <glyph glyph-name="arrowdown" unicode="&#x2193;" horiz-adv-x="1314" 
d="M1206 532l-549 -546l-548 546l104 105l367 -375v780h155v-780l367 375z" />
    <glyph glyph-name="arrowboth" unicode="&#x2194;" horiz-adv-x="1761" 
d="M1161 1057l506 -508l-506 -508l-104 104l334 326h-1020l334 -326l-105 -104l-506 508l506 508l105 -105l-334 -325h1020l-334 325z" />
    <glyph glyph-name="arrowupdn" unicode="&#x2195;" horiz-adv-x="1204" 
d="M94 971l508 506l508 -506l-104 -105l-326 334v-979l326 334l104 -104l-508 -506l-508 506l105 104l325 -334v979l-325 -334z" />
    <glyph glyph-name="uni2196" unicode="&#x2196;" horiz-adv-x="1019" 
d="M109 1044h776v-147l-531 6l557 -551l-110 -110l-551 557l6 -531h-147v776z" />
    <glyph glyph-name="uni2197" unicode="&#x2197;" horiz-adv-x="1019" 
d="M911 1044v-776h-147l6 531l-551 -557l-110 110l557 551l-531 -6v147h776z" />
    <glyph glyph-name="uni2198" unicode="&#x2198;" horiz-adv-x="1019" 
d="M135 145l531 -6l-557 551l110 111l551 -557l-6 530h147v-776h-776v147z" />
    <glyph glyph-name="uni2199" unicode="&#x2199;" horiz-adv-x="1019" 
d="M256 774l-6 -530l551 557l110 -111l-557 -551l531 6v-147h-776v776h147z" />
    <glyph glyph-name="partialdiff" unicode="&#x2202;" horiz-adv-x="1210" 
d="M150 725q67 110 176 167q110 58 241 58q111 0 200 -32q91 -33 144 -93q-130 424 -673 475v146q298 -15 496 -147q199 -132 290 -333q92 -202 92 -427q0 -160 -60 -285q-61 -126 -178 -196q-118 -70 -282 -70q-153 0 -267 62q-117 64 -181 174t-64 251q0 142 66 250z
M848 233q94 98 94 261q0 96 -47 169q-47 72 -126 111q-80 39 -173 39q-150 0 -245 -95t-95 -243q0 -150 95 -245t245 -95q158 0 252 98z" />
    <glyph glyph-name="emptyset" unicode="&#x2205;" horiz-adv-x="1261" 
d="M1140 927q36 -93 36 -200q0 -150 -71 -274q-71 -123 -195 -192q-123 -68 -279 -68q-201 0 -346 112l-97 -98l-90 86l99 102q-111 139 -111 332q0 151 71 273q72 124 195 192q126 70 279 70q172 0 313 -91l100 105l91 -86l-97 -98q66 -72 102 -165zM313 516l518 539
q-90 57 -200 57q-105 0 -191 -51t-135 -139t-49 -195q0 -115 57 -211zM821 393q86 51 135 139q50 89 50 195q0 140 -82 244l-527 -547q101 -82 234 -82q105 0 190 51z" />
    <glyph glyph-name="uni2206" unicode="&#x2206;" horiz-adv-x="1372" 
d="M51 0v143l524 1291h220l524 -1291v-143h-1268zM242 162h876l-440 1089z" />
    <glyph glyph-name="product" unicode="&#x220f;" horiz-adv-x="1515" 
d="M1450 1434v-164h-186v-1487h-179v1487h-655v-1487h-178v1487h-186v164h1384z" />
    <glyph glyph-name="summation" unicode="&#x2211;" horiz-adv-x="1263" 
d="M80 -70l586 701l-545 655v148h1044v-160h-809l486 -584v-115l-537 -636h877v-156h-1102v147z" />
    <glyph glyph-name="minus" unicode="&#x2212;" horiz-adv-x="1073" 
d="M119 516v141h835v-141h-835z" />
    <glyph glyph-name="radical" unicode="&#x221a;" horiz-adv-x="1189" 
d="M203 748l-119 -58l-57 133l266 125l305 -741l373 1227h170l-443 -1434h-180z" />
    <glyph glyph-name="infinity" unicode="&#x221e;" horiz-adv-x="1640" 
d="M1005 252q-86 57 -188 209q-103 -152 -186 -209q-84 -57 -195 -57t-193 52q-83 53 -126 142t-43 199t43 197q44 90 126 142t193 52q112 0 197 -57t186 -207q101 149 187 207q84 57 194 57q112 0 194 -52q83 -53 127 -142q44 -90 44 -197q0 -108 -44 -199
q-43 -88 -127 -142q-82 -52 -194 -52q-110 0 -195 57zM585 397q60 49 148 189q-90 138 -149 189q-61 52 -140 52q-98 0 -156 -65q-59 -67 -59 -174q0 -111 58 -177q57 -65 157 -65q78 0 141 51zM1052 398q62 -52 140 -52q101 0 158 65t57 177q0 109 -58 174t-157 65
q-78 0 -141 -51q-64 -52 -148 -188q86 -138 149 -190z" />
    <glyph glyph-name="integral" unicode="&#x222b;" horiz-adv-x="802" 
d="M203 -63q62 0 88 26t26 88v1110q0 139 65 206t208 67h151v-154h-141q-61 0 -88 -27t-27 -88v-1110q0 -141 -64 -206q-64 -66 -208 -66h-152v154h142z" />
    <glyph glyph-name="approxequal" unicode="&#x2248;" horiz-adv-x="1073" 
d="M125 168q0 140 63 216q63 77 174 77q69 0 118 -23q50 -24 100 -63q39 -29 63 -42q25 -14 55 -14q62 0 86 38q25 39 25 106h141q0 -138 -63 -215q-63 -76 -176 -76q-71 0 -119 23q-51 25 -100 61q-36 27 -62 42q-23 13 -55 13q-60 0 -84 -38q-25 -39 -25 -105h-141z
M125 614q0 140 63 216q63 77 174 77q71 0 118 -22t100 -64q39 -29 63 -42q23 -13 55 -13q62 0 86 38q25 39 25 105h141q0 -139 -63 -215t-176 -76q-71 0 -119 23q-51 25 -100 61q-36 27 -62 42q-25 14 -55 14q-60 0 -84 -38q-25 -39 -25 -106h-141z" />
    <glyph glyph-name="notequal" unicode="&#x2260;" horiz-adv-x="1073" 
d="M934 707h-277l-96 -285h373v-141h-422l-68 -203h-147l68 203h-226v141h275l96 285h-371v143h418l66 192h147l-65 -192h229v-143z" />
    <glyph glyph-name="lessequal" unicode="&#x2264;" horiz-adv-x="1073" 
d="M147 600v160l779 348v-164l-590 -264l590 -264v-164zM147 0v143h779v-143h-779z" />
    <glyph glyph-name="greaterequal" unicode="&#x2265;" horiz-adv-x="1073" 
d="M926 760v-160l-779 -348v164l590 264l-590 264v164zM147 0v143h779v-143h-779z" />
    <glyph glyph-name="dotmath" unicode="&#x22c5;" horiz-adv-x="421" 
d="M127 683q34 32 84 32t84 -32q33 -31 33 -83t-33 -83q-34 -32 -84 -32t-84 32q-33 31 -33 83t33 83z" />
    <glyph glyph-name="filledbox" unicode="&#x25a0;" horiz-adv-x="1720" 
d="M139 1434h1442v-1434h-1442v1434z" />
    <glyph glyph-name="uni25A1" unicode="&#x25a1;" horiz-adv-x="1714" 
d="M139 1434h1436v-1434h-1436v1434zM309 1278v-1122h1096v1122h-1096z" />
    <glyph glyph-name="uni25AF" unicode="&#x25af;" horiz-adv-x="1239" 
d="M139 1434h961v-1434h-961v1434zM309 1278v-1122h619v1122h-619z" />
    <glyph glyph-name="triagup" unicode="&#x25b2;" horiz-adv-x="1798" 
d="M901 1458l838 -1458h-1680z" />
    <glyph glyph-name="uni25B3" unicode="&#x25b3;" horiz-adv-x="1798" 
d="M901 1458l838 -1458h-1680zM901 1143l-573 -989h1142z" />
    <glyph glyph-name="uni25B6" unicode="&#x25b6;" horiz-adv-x="1050" 
d="M115 1036l913 -524l-913 -524v1048z" />
    <glyph glyph-name="uni25B7" unicode="&#x25b7;" horiz-adv-x="1064" 
d="M115 1055l927 -533l-927 -532v1065zM242 205l557 317l-557 320v-637z" />
    <glyph glyph-name="uni25C0" unicode="&#x25c0;" horiz-adv-x="1050" 
d="M936 1036v-1048l-913 524z" />
    <glyph glyph-name="uni25C1" unicode="&#x25c1;" horiz-adv-x="1064" 
d="M950 1055v-1065l-927 532zM823 205v637l-557 -320z" />
    <glyph glyph-name="lozenge" unicode="&#x25ca;" horiz-adv-x="1224" 
d="M717 1434l413 -717l-413 -719h-209l-414 719l414 717h209zM612 137l324 580l-324 579l-323 -579z" />
    <glyph glyph-name="circle" unicode="&#x25cb;" horiz-adv-x="1642" 
d="M1196 1351q167 -94 264 -262q96 -167 96 -372t-96 -372q-97 -168 -264 -262q-169 -95 -375 -95t-376 95q-169 94 -264 262q-95 167 -95 372t95 372q95 168 264 262q170 95 376 95t375 -95zM508 1258q-140 -81 -219 -223q-80 -143 -80 -318q0 -176 80 -319
q79 -142 219 -223t313 -81q175 0 314 81q140 81 219 223q80 143 80 319q0 175 -80 318q-79 142 -219 223t-314 81q-173 0 -313 -81z" />
    <glyph glyph-name="uni25CF" unicode="&#x25cf;" horiz-adv-x="1630" 
d="M443 1351q-167 -95 -262 -262t-95 -372t95 -372t262 -262t372 -95t372 95t262 262t95 372t-95 372t-262 262t-372 95t-372 -95z" />
    <glyph glyph-name="uni25FD" unicode="&#x25fd;" horiz-adv-x="1273" 
d="M115 1042h1044v-1044h-1044v1044zM248 915v-788h776v788h-776z" />
    <glyph glyph-name="uni25FE" unicode="&#x25fe;" horiz-adv-x="1273" 
d="M115 1044h1044v-1044h-1044v1044z" />
    <glyph glyph-name="uni262E" unicode="&#x262e;" horiz-adv-x="1636" 
d="M180 1092q94 165 261 260q166 94 376 94t377 -94q168 -95 262 -260q94 -166 94 -375t-94 -375q-94 -165 -262 -260q-167 -94 -377 -94t-376 94q-167 95 -261 260q-94 166 -94 375t94 375zM752 1294q-151 -12 -269 -90q-120 -79 -185 -205q-67 -129 -67 -282
q0 -91 30 -174q31 -84 85 -146l406 416v481zM883 813l405 -416q56 64 86 146q31 85 31 174q0 154 -68 282q-67 127 -186 205t-268 90v-481zM883 139q100 7 191 46q89 38 157 104l-348 358v-508zM406 289q68 -67 156 -104q91 -39 190 -46v506z" />
    <glyph glyph-name="uni26AA" unicode="&#x26aa;" horiz-adv-x="1208" 
d="M870 977q121 -69 191 -190q69 -120 69 -265t-69 -265t-191 -189q-123 -70 -266 -70t-266 70q-122 69 -191 189t-69 265t69 265q70 121 191 190q123 70 266 70t266 -70zM401 871q-92 -54 -146 -146q-54 -91 -54 -203t54 -203q54 -92 146 -146q91 -54 203 -54t203 54
q92 54 146 146q55 93 55 203t-55 203q-54 92 -146 146q-93 55 -203 55t-203 -55z" />
    <glyph glyph-name="uni26AB" unicode="&#x26ab;" horiz-adv-x="1208" 
d="M870 977q121 -69 191 -190q69 -120 69 -265t-69 -265t-191 -189q-123 -70 -266 -70t-266 70q-122 69 -191 189t-69 265t69 265q70 121 191 190q123 70 266 70t266 -70z" />
    <glyph glyph-name="uni2713" unicode="&#x2713;" horiz-adv-x="2146" 
d="M59 715l119 121l596 -594l1190 1192l123 -121l-1313 -1313z" />
    <glyph glyph-name="uni2715" unicode="&#x2715;" horiz-adv-x="1599" 
d="M205 1434l594 -594l596 594l121 -121l-596 -594l596 -598l-121 -119l-596 594l-594 -594l-121 119l596 598l-596 594z" />
    <glyph glyph-name="uni2780" unicode="&#x2780;" horiz-adv-x="1642" 
d="M1196 1351q167 -94 264 -262q96 -167 96 -372t-96 -372q-97 -168 -264 -262q-169 -95 -375 -95t-376 95q-169 94 -264 262q-95 167 -95 372t95 372q95 168 264 262q170 95 376 95t375 -95zM508 1258q-140 -81 -219 -223q-80 -143 -80 -318q0 -176 80 -319
q79 -142 219 -223t313 -81q175 0 314 81q140 81 219 223q80 143 80 319q0 175 -80 318q-79 142 -219 223t-314 81q-173 0 -313 -81zM778 344v500q-15 -21 -41 -21h-133v113h133q19 0 31 16t12 41v97h113v-746h-115z" />
    <glyph glyph-name="uni2781" unicode="&#x2781;" horiz-adv-x="1642" 
d="M1196 1351q167 -94 264 -262q96 -167 96 -372t-96 -372q-97 -168 -264 -262q-169 -95 -375 -95t-376 95q-169 94 -264 262q-95 167 -95 372t95 372q95 168 264 262q170 95 376 95t375 -95zM508 1258q-140 -81 -219 -223q-80 -143 -80 -318q0 -176 80 -319
q79 -142 219 -223t313 -81q175 0 314 81q140 81 219 223q80 143 80 319q0 175 -80 318q-79 142 -219 223t-314 81q-173 0 -313 -81zM545 844q0 117 76 187q77 71 190 71q123 0 197 -65q73 -64 73 -169q0 -75 -38 -128q-37 -52 -109 -109l-217 -174h370v-113h-544v107
l303 237q53 43 85 86q30 40 30 92q0 56 -41 91q-40 34 -107 34q-71 0 -112 -40q-42 -41 -42 -111v-11h-114v15z" />
    <glyph glyph-name="uni2782" unicode="&#x2782;" horiz-adv-x="1642" 
d="M1196 1351q167 -94 264 -262q96 -167 96 -372t-96 -372q-97 -168 -264 -262q-169 -95 -375 -95t-376 95q-169 94 -264 262q-95 167 -95 372t95 372q95 168 264 262q170 95 376 95t375 -95zM508 1258q-140 -81 -219 -223q-80 -143 -80 -318q0 -176 80 -319
q79 -142 219 -223t313 -81q175 0 314 81q140 81 219 223q80 143 80 319q0 175 -80 318q-79 142 -219 223t-314 81q-173 0 -313 -81zM622 1040q71 62 193 62q123 0 196 -58q72 -57 72 -151q0 -59 -34 -99q-34 -39 -88 -55q64 -12 101 -57q38 -46 38 -115q0 -107 -78 -171
q-77 -64 -209 -64q-136 0 -209 64q-74 65 -76 184h117q2 -68 47 -104t123 -36q70 0 116 34t46 89t-47 88q-46 33 -125 33h-45v84h47q68 0 113 31q43 30 43 82t-40 82q-41 30 -104 30q-70 0 -110 -34q-42 -35 -43 -91h-117q1 110 73 172z" />
    <glyph glyph-name="uni2783" unicode="&#x2783;" horiz-adv-x="1642" 
d="M1196 1351q167 -94 264 -262q96 -167 96 -372t-96 -372q-97 -168 -264 -262q-169 -95 -375 -95t-376 95q-169 94 -264 262q-95 167 -95 372t95 372q95 168 264 262q170 95 376 95t375 -95zM508 1258q-140 -81 -219 -223q-80 -143 -80 -318q0 -176 80 -319
q79 -142 219 -223t313 -81q175 0 314 81q140 81 219 223q80 143 80 319q0 175 -80 318q-79 142 -219 223t-314 81q-173 0 -313 -81zM829 1090h144v-453h121v-109h-121v-184h-115v184h-379v109zM858 967l-254 -330h254v330z" />
    <glyph glyph-name="uni2784" unicode="&#x2784;" horiz-adv-x="1642" 
d="M1196 1351q167 -94 264 -262q96 -167 96 -372t-96 -372q-97 -168 -264 -262q-169 -95 -375 -95t-376 95q-169 94 -264 262q-95 167 -95 372t95 372q95 168 264 262q170 95 376 95t375 -95zM508 1258q-140 -81 -219 -223q-80 -143 -80 -318q0 -176 80 -319
q79 -142 219 -223t313 -81q175 0 314 81q140 81 219 223q80 143 80 319q0 175 -80 318q-79 142 -219 223t-314 81q-173 0 -313 -81zM1055 983h-375l-14 -217q29 37 77 59q47 21 105 21q112 0 181 -71t69 -183q0 -117 -75 -189q-74 -71 -196 -71q-111 0 -185 62
q-75 63 -85 163h117q11 -54 52 -85q43 -32 103 -32q64 0 106 43t42 109q0 67 -43 107t-113 40q-47 0 -84 -21q-35 -20 -59 -61h-109l21 433h465v-107z" />
    <glyph glyph-name="uni2785" unicode="&#x2785;" horiz-adv-x="1642" 
d="M1196 1351q167 -94 264 -262q96 -167 96 -372t-96 -372q-97 -168 -264 -262q-169 -95 -375 -95t-376 95q-169 94 -264 262q-95 167 -95 372t95 372q95 168 264 262q170 95 376 95t375 -95zM508 1258q-140 -81 -219 -223q-80 -143 -80 -318q0 -176 80 -319
q79 -142 219 -223t313 -81q175 0 314 81q140 81 219 223q80 143 80 319q0 175 -80 318q-79 142 -219 223t-314 81q-173 0 -313 -81zM603 993q83 109 224 109q99 0 172 -59q71 -58 86 -160h-112q-12 57 -52 90q-41 33 -96 33q-86 0 -139 -74t-53 -193v-59q12 59 64 102
t139 43q118 0 186 -67q70 -68 70 -178q0 -113 -74 -181q-73 -67 -199 -67q-147 0 -223 100t-76 270q0 182 83 291zM931 689q-42 42 -112 42q-68 0 -112 -41q-43 -40 -43 -108t43 -110q44 -42 112 -42q69 0 112 41q42 40 42 109q0 67 -42 109z" />
    <glyph glyph-name="uni2786" unicode="&#x2786;" horiz-adv-x="1642" 
d="M1196 1351q167 -94 264 -262q96 -167 96 -372t-96 -372q-97 -168 -264 -262q-169 -95 -375 -95t-376 95q-169 94 -264 262q-95 167 -95 372t95 372q95 168 264 262q170 95 376 95t375 -95zM508 1258q-140 -81 -219 -223q-80 -143 -80 -318q0 -176 80 -319
q79 -142 219 -223t313 -81q175 0 314 81q140 81 219 223q80 143 80 319q0 175 -80 318q-79 142 -219 223t-314 81q-173 0 -313 -81zM563 1092h535v-101l-334 -647h-127l334 641l-408 -2v109z" />
    <glyph glyph-name="uni2787" unicode="&#x2787;" horiz-adv-x="1642" 
d="M1196 1351q167 -94 264 -262q96 -167 96 -372t-96 -372q-97 -168 -264 -262q-169 -95 -375 -95t-376 95q-169 94 -264 262q-95 167 -95 372t95 372q95 168 264 262q170 95 376 95t375 -95zM508 1258q-140 -81 -219 -223q-80 -143 -80 -318q0 -176 80 -319
q79 -142 219 -223t313 -81q175 0 314 81q140 81 219 223q80 143 80 319q0 175 -80 318q-79 142 -219 223t-314 81q-173 0 -313 -81zM572 663q41 50 106 68q-54 17 -89 62q-34 43 -34 106q0 88 75 145q76 58 191 58q113 0 191 -58q75 -56 75 -145q0 -64 -32 -105
q-33 -42 -88 -63q62 -18 102 -68q39 -49 39 -120q0 -92 -78 -152q-77 -59 -209 -59t-210 59q-79 60 -79 152q0 71 40 120zM927 972q-41 34 -106 34q-64 0 -105 -34q-42 -34 -42 -85q0 -53 42 -85q43 -32 105 -32q66 0 107 32t41 85q0 51 -42 85zM941 643q-47 37 -120 37
t-120 -37q-48 -37 -48 -90t48 -88q49 -35 120 -35t120 35q48 35 48 88t-48 90z" />
    <glyph glyph-name="uni2788" unicode="&#x2788;" horiz-adv-x="1642" 
d="M1196 1351q167 -94 264 -262q96 -167 96 -372t-96 -372q-97 -168 -264 -262q-169 -95 -375 -95t-376 95q-169 94 -264 262q-95 167 -95 372t95 372q95 168 264 262q170 95 376 95t375 -95zM508 1258q-140 -81 -219 -223q-80 -143 -80 -318q0 -176 80 -319
q79 -142 219 -223t313 -81q175 0 314 81q140 81 219 223q80 143 80 319q0 175 -80 318q-79 142 -219 223t-314 81q-173 0 -313 -81zM1027 440q-83 -108 -224 -108q-101 0 -172 58t-86 161h112q12 -57 53 -90q40 -33 95 -33q86 0 139 74t53 192v60q-12 -60 -64 -103t-138 -43
q-117 0 -187 68q-69 68 -69 178q0 113 73 180q74 68 199 68q146 0 223 -101q76 -100 76 -270q0 -182 -83 -291zM699 744q42 -42 112 -42q69 0 113 41q43 40 43 109q0 68 -43 110q-44 42 -113 42t-112 -41q-42 -41 -42 -109t42 -110z" />
    <glyph glyph-name="uni278A" unicode="&#x278a;" horiz-adv-x="1630" 
d="M443 1349q-166 -94 -262 -263q-95 -167 -95 -371q0 -205 95 -372t262 -262t372 -95t372 95t262 262t95 372q0 204 -95 371q-96 169 -262 263q-167 95 -372 95t-372 -95zM772 342v500q-15 -21 -41 -21h-133v113h133q19 0 31 16t12 41v96h113v-745h-115z" />
    <glyph glyph-name="uni278B" unicode="&#x278b;" horiz-adv-x="1630" 
d="M443 1351q-167 -95 -262 -262t-95 -372t95 -372t262 -262t372 -95t372 95t262 262t95 372t-95 372t-262 262t-372 95t-372 -95zM539 844q0 118 75 187q77 71 191 71q122 0 196 -65t74 -169q0 -75 -38 -128q-37 -52 -109 -109l-217 -174h370v-113h-544v107l303 237
q53 43 85 86q29 39 29 92q0 56 -41 91q-40 34 -106 34q-71 0 -112 -40q-42 -41 -42 -111v-11h-114v15z" />
    <glyph glyph-name="uni278C" unicode="&#x278c;" horiz-adv-x="1630" 
d="M443 1351q-167 -95 -262 -262t-95 -372t95 -372t262 -262t372 -95t372 95t262 262t95 372t-95 372t-262 262t-372 95t-372 -95zM615 1040q71 62 194 62t196 -58q72 -57 72 -151q0 -58 -35 -99q-34 -39 -88 -55q65 -12 102 -57q38 -46 38 -115q0 -107 -78 -171
q-77 -64 -209 -64q-136 0 -209 64q-74 65 -76 184h117q2 -68 47 -104t123 -36q70 0 116 34t46 89t-47 88q-46 33 -125 33h-45v84h47q67 0 112 31q43 30 43 82t-40 82t-103 30q-71 0 -111 -34q-42 -35 -43 -91h-116q1 110 72 172z" />
    <glyph glyph-name="uni278D" unicode="&#x278d;" horiz-adv-x="1630" 
d="M443 1351q-167 -95 -262 -262t-95 -372t95 -372t262 -262t372 -95t372 95t262 262t95 372t-95 372t-262 262t-372 95t-372 -95zM823 1090h144v-453h120v-109h-120v-184h-115v184h-379v109zM852 967l-254 -330h254v330z" />
    <glyph glyph-name="uni278E" unicode="&#x278e;" horiz-adv-x="1630" 
d="M443 1351q-167 -95 -262 -262t-95 -372t95 -372t262 -262t372 -95t372 95t262 262t95 372t-95 372t-262 262t-372 95t-372 -95zM1049 983h-375l-15 -217q28 36 78 59q47 21 105 21q112 0 181 -71t69 -183q0 -117 -75 -189q-74 -71 -196 -71q-111 0 -185 62
q-75 63 -85 163h117q11 -54 52 -85q43 -32 103 -32q64 0 106 43t42 109q0 67 -43 107t-113 40q-47 0 -84 -21q-35 -20 -59 -61h-109l21 433h465v-107z" />
    <glyph glyph-name="uni278F" unicode="&#x278f;" horiz-adv-x="1630" 
d="M443 1351q-167 -95 -262 -262t-95 -372t95 -372t262 -262t372 -95t372 95t262 262t95 372t-95 372t-262 262t-372 95t-372 -95zM597 993q83 109 224 109q99 0 172 -59q71 -58 86 -160h-112q-12 57 -53 90t-95 33q-86 0 -139 -74t-53 -193v-59q12 59 64 102t138 43
q119 0 187 -67q69 -68 69 -178q0 -114 -73 -181t-199 -67q-147 0 -223 100t-76 270q0 182 83 291zM925 689q-42 42 -112 42q-69 0 -113 -41q-43 -40 -43 -108t43 -110t113 -42q69 0 112 41q42 40 42 109q0 67 -42 109z" />
    <glyph glyph-name="uni2790" unicode="&#x2790;" horiz-adv-x="1630" 
d="M443 1351q-167 -95 -262 -262t-95 -372t95 -372t262 -262t372 -95t372 95t262 262t95 372t-95 372t-262 262t-372 95t-372 -95zM557 1092h535v-101l-334 -647h-127l334 641l-408 -2v109z" />
    <glyph glyph-name="uni2791" unicode="&#x2791;" horiz-adv-x="1630" 
d="M443 1351q-167 -95 -262 -262t-95 -372t95 -372t262 -262t372 -95t372 95t262 262t95 372t-95 372t-262 262t-372 95t-372 -95zM566 663q41 50 106 68q-54 17 -89 62q-34 43 -34 106q0 88 75 145q76 58 191 58q113 0 191 -58q75 -56 75 -145q0 -64 -32 -105
q-33 -42 -88 -63q62 -18 102 -68q39 -49 39 -120q0 -92 -78 -152q-77 -59 -209 -59t-210 59q-79 60 -79 152q0 71 40 120zM921 972q-41 34 -106 34q-64 0 -105 -34q-42 -34 -42 -85q0 -53 42 -85q43 -32 105 -32q66 0 107 32t41 85q0 51 -42 85zM935 643q-47 37 -120 37
t-120 -37q-48 -37 -48 -90t48 -88q49 -35 120 -35t120 35q48 35 48 88t-48 90z" />
    <glyph glyph-name="uni2792" unicode="&#x2792;" horiz-adv-x="1630" 
d="M443 1351q-167 -95 -262 -262t-95 -372t95 -372t262 -262t372 -95t372 95t262 262t95 372t-95 372t-262 262t-372 95t-372 -95zM1021 440q-83 -108 -224 -108q-101 0 -172 58t-86 161h112q12 -57 52 -90q41 -33 96 -33q86 0 139 74t53 192v60q-12 -60 -64 -103t-139 -43
q-116 0 -186 68t-70 178q0 112 74 180t199 68q146 0 223 -101q76 -100 76 -270q0 -182 -83 -291zM693 744q42 -42 112 -42q69 0 113 41q43 40 43 109q0 68 -43 110q-44 42 -113 42t-112 -41q-42 -41 -42 -109t42 -110z" />
    <glyph glyph-name="fl" unicode="&#xfb02;" horiz-adv-x="1042" 
d="M184 1044v117q0 139 65 206t208 67h192v-154h-182q-61 0 -88 -27t-27 -88v-121h295v-153h-295v-891h-168v891h-188v153h188zM760 1434h168v-1434h-168v1434z" />
    <glyph glyph-name="u1F10B" unicode="&#x1f10b;" horiz-adv-x="1642" 
d="M1196 1351q167 -94 264 -262q96 -167 96 -372t-96 -372q-97 -168 -264 -262q-169 -95 -375 -95t-376 95q-169 94 -264 262q-95 167 -95 372t95 372q95 168 264 262q170 95 376 95t375 -95zM508 1258q-140 -81 -219 -223q-80 -143 -80 -318q0 -176 80 -319
q79 -142 219 -223t313 -81q175 0 314 81q140 81 219 223q80 143 80 319q0 175 -80 318q-79 142 -219 223t-314 81q-173 0 -313 -81zM602 996q83 106 219 106q134 0 217 -107q82 -106 82 -278q0 -173 -82 -279t-217 -106q-137 0 -219 105q-82 104 -82 280q0 175 82 279z
M951 914q-48 77 -130 77q-84 0 -132 -76q-48 -77 -48 -198t48 -197t132 -76q82 0 130 76t48 197t-48 197z" />
    <glyph glyph-name="u1F10C" unicode="&#x1f10c;" horiz-adv-x="1630" 
d="M443 1351q-167 -95 -262 -262t-95 -372t95 -372t262 -262t372 -95t372 95t262 262t95 372t-95 372t-262 262t-372 95t-372 -95zM596 996q83 106 219 106q134 0 217 -107q82 -106 82 -278q0 -173 -82 -279t-217 -106q-137 0 -219 105q-82 104 -82 280q0 175 82 279z
M945 914q-48 77 -130 77q-84 0 -132 -76q-48 -77 -48 -198t48 -197t132 -76q82 0 130 76t48 197t-48 197z" />
    <glyph glyph-name="J.ss06" horiz-adv-x="1191" 
d="M240 528q0 -179 82 -277q82 -99 237 -99q162 0 243 92t81 291v899h178v-895q0 -551 -502 -551q-240 0 -370 139q-130 138 -128 401h179z" />
    <glyph glyph-name="Jcircumflex.ss06" horiz-adv-x="1191" 
d="M240 528q0 -179 82 -277q82 -99 237 -99q162 0 243 92t81 291v899h178v-895q0 -551 -502 -551q-240 0 -370 139q-130 138 -128 401h179zM975 1724l-178 -168h-160l258 279h160l258 -279h-162z" />
    <glyph glyph-name="Q.ss07" horiz-adv-x="1540" 
d="M1368 342q-85 -165 -240 -258l156 -244h-180l-115 180q-105 -32 -219 -32q-199 0 -354 94q-157 95 -243 260q-87 166 -87 375t87 375q86 165 243 260q155 94 354 94t354 -94q157 -95 243 -260q87 -166 87 -375q0 -208 -86 -375zM897 166l-176 278h180l137 -217
q110 73 172 201q62 129 62 289q0 162 -64 292q-63 128 -177 200q-116 73 -261 73t-261 -73q-114 -72 -177 -200q-64 -130 -64 -292t64 -292t177 -201q114 -72 261 -72q60 0 127 14z" />
    <glyph glyph-name="a.ss01" horiz-adv-x="1220" 
d="M1106 1044v-1044h-145l-23 168q-130 -180 -358 -180q-145 0 -259 63t-179 185q-64 121 -64 286q0 158 64 279q63 119 180 188q115 68 258 68q124 0 215 -47t143 -129l23 163h145zM775 185q77 47 122 136q43 86 43 197q0 115 -43 202q-44 89 -122 138q-79 49 -179 49
q-157 0 -251 -107q-95 -109 -95 -278q0 -168 95 -277q94 -108 251 -108q100 0 179 48z" />
    <glyph glyph-name="a.ss02" horiz-adv-x="1071" 
d="M861 959q110 -98 110 -279v-680h-146l-14 164q-123 -176 -350 -176q-176 0 -280 82q-105 83 -105 223q0 159 107 242t313 83h307v72q0 103 -69 160t-191 57q-109 0 -179 -48q-72 -49 -88 -128h-167q18 155 136 240q119 86 306 86q200 0 310 -98zM803 477h-324
q-233 0 -233 -174q0 -79 61 -125q62 -47 166 -47q153 0 242 81q88 81 88 214v51z" />
    <glyph glyph-name="aacute.ss01" horiz-adv-x="1220" 
d="M1106 1044v-1044h-145l-23 168q-130 -180 -358 -180q-145 0 -259 63t-179 185q-64 121 -64 286q0 158 64 279q63 119 180 188q115 68 258 68q124 0 215 -47t143 -129l23 163h145zM775 185q77 47 122 136q43 86 43 197q0 115 -43 202q-44 89 -122 138q-79 49 -179 49
q-157 0 -251 -107q-95 -109 -95 -278q0 -168 95 -277q94 -108 251 -108q100 0 179 48zM530 1169l175 277h196l-239 -277h-132z" />
    <glyph glyph-name="aacute.ss02" horiz-adv-x="1071" 
d="M861 959q110 -98 110 -279v-680h-146l-14 164q-123 -176 -350 -176q-176 0 -280 82q-105 83 -105 223q0 159 107 242t313 83h307v72q0 103 -69 160t-191 57q-109 0 -179 -48q-72 -49 -88 -128h-167q18 155 136 240q119 86 306 86q200 0 310 -98zM803 477h-324
q-233 0 -233 -174q0 -79 61 -125q62 -47 166 -47q153 0 242 81q88 81 88 214v51zM481 1169l174 277h197l-240 -277h-131z" />
    <glyph glyph-name="abreve.ss01" horiz-adv-x="1220" 
d="M1106 1044v-1044h-145l-23 168q-130 -180 -358 -180q-145 0 -259 63t-179 185q-64 121 -64 286q0 158 64 279q63 119 180 188q115 68 258 68q124 0 215 -47t143 -129l23 163h145zM775 185q77 47 122 136q43 86 43 197q0 115 -43 202q-44 89 -122 138q-79 49 -179 49
q-157 0 -251 -107q-95 -109 -95 -278q0 -168 95 -277q94 -108 251 -108q100 0 179 48zM442 1446q0 -67 41 -110q41 -42 107 -42q64 0 108 42q43 42 43 110h133q-2 -128 -81 -204q-80 -77 -205 -77q-124 0 -200 76q-78 78 -79 205h133z" />
    <glyph glyph-name="abreve.ss02" horiz-adv-x="1071" 
d="M861 959q110 -98 110 -279v-680h-146l-14 164q-123 -176 -350 -176q-176 0 -280 82q-105 83 -105 223q0 159 107 242t313 83h307v72q0 103 -69 160t-191 57q-109 0 -179 -48q-72 -49 -88 -128h-167q18 155 136 240q119 86 306 86q200 0 310 -98zM803 477h-324
q-233 0 -233 -174q0 -79 61 -125q62 -47 166 -47q153 0 242 81q88 81 88 214v51zM393 1446q0 -67 41 -110q41 -42 107 -42q65 0 108 42t43 110h133q-1 -127 -82 -204q-80 -77 -204 -77t-200 76q-78 78 -79 205h133z" />
    <glyph glyph-name="acircumflex.ss01" horiz-adv-x="1220" 
d="M1106 1044v-1044h-145l-23 168q-130 -180 -358 -180q-145 0 -259 63t-179 185q-64 121 -64 286q0 158 64 279q63 119 180 188q115 68 258 68q124 0 215 -47t143 -129l23 163h145zM775 185q77 47 122 136q43 86 43 197q0 115 -43 202q-44 89 -122 138q-79 49 -179 49
q-157 0 -251 -107q-95 -109 -95 -278q0 -168 95 -277q94 -108 251 -108q100 0 179 48zM592 1335l-178 -168h-160l258 279h160l258 -279h-162z" />
    <glyph glyph-name="acircumflex.ss02" horiz-adv-x="1071" 
d="M861 959q110 -98 110 -279v-680h-146l-14 164q-123 -176 -350 -176q-176 0 -280 82q-105 83 -105 223q0 159 107 242t313 83h307v72q0 103 -69 160t-191 57q-109 0 -179 -48q-72 -49 -88 -128h-167q18 155 136 240q119 86 306 86q200 0 310 -98zM803 477h-324
q-233 0 -233 -174q0 -79 61 -125q62 -47 166 -47q153 0 242 81q88 81 88 214v51zM543 1335l-178 -168h-160l258 279h160l258 -279h-162z" />
    <glyph glyph-name="adieresis.ss01" horiz-adv-x="1220" 
d="M1106 1044v-1044h-145l-23 168q-130 -180 -358 -180q-145 0 -259 63t-179 185q-64 121 -64 286q0 158 64 279q63 119 180 188q115 68 258 68q124 0 215 -47t143 -129l23 163h145zM775 185q77 47 122 136q43 86 43 197q0 115 -43 202q-44 89 -122 138q-79 49 -179 49
q-157 0 -251 -107q-95 -109 -95 -278q0 -168 95 -277q94 -108 251 -108q100 0 179 48zM329 1390q29 29 77 29t77 -29q31 -31 31 -77q0 -44 -31 -75q-30 -30 -77 -30q-46 0 -76 30q-31 31 -31 75q0 47 30 77zM701 1389q31 30 77 30q47 0 76 -29q31 -31 31 -77q0 -44 -31 -75
q-30 -30 -76 -30t-77 30t-31 75q0 46 31 76z" />
    <glyph glyph-name="adieresis.ss02" horiz-adv-x="1071" 
d="M861 959q110 -98 110 -279v-680h-146l-14 164q-123 -176 -350 -176q-176 0 -280 82q-105 83 -105 223q0 159 107 242t313 83h307v72q0 103 -69 160t-191 57q-109 0 -179 -48q-72 -49 -88 -128h-167q18 155 136 240q119 86 306 86q200 0 310 -98zM803 477h-324
q-233 0 -233 -174q0 -79 61 -125q62 -47 166 -47q153 0 242 81q88 81 88 214v51zM280 1390q29 29 76 29q49 0 78 -29q31 -31 31 -77q0 -44 -31 -75q-30 -30 -78 -30q-45 0 -75 30q-31 31 -31 75q0 47 30 77zM652 1389q32 30 77 30q47 0 76 -29q31 -31 31 -77q0 -44 -31 -75
q-30 -30 -76 -30q-45 0 -77 30q-31 30 -31 75q0 46 31 76z" />
    <glyph glyph-name="agrave.ss01" horiz-adv-x="1220" 
d="M1106 1044v-1044h-145l-23 168q-130 -180 -358 -180q-145 0 -259 63t-179 185q-64 121 -64 286q0 158 64 279q63 119 180 188q115 68 258 68q124 0 215 -47t143 -129l23 163h145zM775 185q77 47 122 136q43 86 43 197q0 115 -43 202q-44 89 -122 138q-79 49 -179 49
q-157 0 -251 -107q-95 -109 -95 -278q0 -168 95 -277q94 -108 251 -108q100 0 179 48zM289 1446h196l170 -279h-133z" />
    <glyph glyph-name="agrave.ss02" horiz-adv-x="1071" 
d="M861 959q110 -98 110 -279v-680h-146l-14 164q-123 -176 -350 -176q-176 0 -280 82q-105 83 -105 223q0 159 107 242t313 83h307v72q0 103 -69 160t-191 57q-109 0 -179 -48q-72 -49 -88 -128h-167q18 155 136 240q119 86 306 86q200 0 310 -98zM803 477h-324
q-233 0 -233 -174q0 -79 61 -125q62 -47 166 -47q153 0 242 81q88 81 88 214v51zM240 1446h196l170 -279h-133z" />
    <glyph glyph-name="amacron.ss01" horiz-adv-x="1220" 
d="M1106 1044v-1044h-145l-23 168q-130 -180 -358 -180q-145 0 -259 63t-179 185q-64 121 -64 286q0 158 64 279q63 119 180 188q115 68 258 68q124 0 215 -47t143 -129l23 163h145zM775 185q77 47 122 136q43 86 43 197q0 115 -43 202q-44 89 -122 138q-79 49 -179 49
q-157 0 -251 -107q-95 -109 -95 -278q0 -168 95 -277q94 -108 251 -108q100 0 179 48zM311 1255v127h563v-127h-563z" />
    <glyph glyph-name="amacron.ss02" horiz-adv-x="1071" 
d="M861 959q110 -98 110 -279v-680h-146l-14 164q-123 -176 -350 -176q-176 0 -280 82q-105 83 -105 223q0 159 107 242t313 83h307v72q0 103 -69 160t-191 57q-109 0 -179 -48q-72 -49 -88 -128h-167q18 155 136 240q119 86 306 86q200 0 310 -98zM803 477h-324
q-233 0 -233 -174q0 -79 61 -125q62 -47 166 -47q153 0 242 81q88 81 88 214v51zM262 1255v127h563v-127h-563z" />
    <glyph glyph-name="aogonek.ss01" horiz-adv-x="1220" 
d="M1118 -287v-123h-160q-91 0 -150 48q-56 46 -56 126q0 78 53 140q54 64 151 131l-18 133q-130 -180 -358 -180q-145 0 -259 63t-179 185q-64 121 -64 286q0 158 64 279q63 119 180 188q115 68 258 68q124 0 215 -47t143 -129l23 163h145v-1044q-103 -56 -158 -105
t-55 -106q0 -76 94 -76h131zM775 185q77 47 122 136q43 86 43 197q0 115 -43 202q-44 89 -122 138q-79 49 -179 49q-157 0 -251 -107q-95 -109 -95 -278q0 -168 95 -277q94 -108 251 -108q100 0 179 48z" />
    <glyph glyph-name="aogonek.ss02" horiz-adv-x="1071" 
d="M983 -287v-123h-160q-91 0 -150 48q-57 46 -57 126q0 77 55 141q54 63 152 130l-12 129q-123 -176 -350 -176q-176 0 -280 82q-105 83 -105 223q0 159 107 242t313 83h307v72q0 103 -69 160t-191 57q-109 0 -179 -48q-72 -49 -88 -128h-167q18 155 136 240q119 86 306 86
q200 0 310 -98t110 -279v-680q-103 -56 -158 -105t-55 -106q0 -76 94 -76h131zM803 477h-324q-233 0 -233 -174q0 -79 61 -125q62 -47 166 -47q153 0 242 81q88 81 88 214v51z" />
    <glyph glyph-name="aring.ss01" horiz-adv-x="1220" 
d="M1106 1044v-1044h-145l-23 168q-130 -180 -358 -180q-145 0 -259 63t-179 185q-64 121 -64 286q0 158 64 279q63 119 180 188q115 68 258 68q124 0 215 -47t143 -129l23 163h145zM775 185q77 47 122 136q43 86 43 197q0 115 -43 202q-44 89 -122 138q-79 49 -179 49
q-157 0 -251 -107q-95 -109 -95 -278q0 -168 95 -277q94 -108 251 -108q100 0 179 48zM423 1531q69 66 169 66t169 -66q68 -65 68 -161q0 -98 -68 -163q-69 -66 -169 -66t-169 66t-69 163q0 95 69 161zM683 1464q-37 37 -91 37q-55 0 -92 -37t-37 -94q0 -58 37 -95
q38 -38 92 -38t92 38q37 37 37 95q0 56 -38 94z" />
    <glyph glyph-name="aring.ss02" horiz-adv-x="1071" 
d="M861 959q110 -98 110 -279v-680h-146l-14 164q-123 -176 -350 -176q-176 0 -280 82q-105 83 -105 223q0 159 107 242t313 83h307v72q0 103 -69 160t-191 57q-109 0 -179 -48q-72 -49 -88 -128h-167q18 155 136 240q119 86 306 86q200 0 310 -98zM803 477h-324
q-233 0 -233 -174q0 -79 61 -125q62 -47 166 -47q153 0 242 81q88 81 88 214v51zM374 1531q69 66 169 66t169 -66q68 -65 68 -161q0 -98 -68 -163q-69 -66 -169 -66t-169 66t-69 163q0 95 69 161zM634 1464q-37 37 -91 37q-55 0 -92 -37t-37 -94q0 -58 37 -95q38 -38 92 -38
t92 38q37 37 37 95q0 56 -38 94z" />
    <glyph glyph-name="atilde.ss01" horiz-adv-x="1220" 
d="M1106 1044v-1044h-145l-23 168q-130 -180 -358 -180q-145 0 -259 63t-179 185q-64 121 -64 286q0 158 64 279q63 119 180 188q115 68 258 68q124 0 215 -47t143 -129l23 163h145zM775 185q77 47 122 136q43 86 43 197q0 115 -43 202q-44 89 -122 138q-79 49 -179 49
q-157 0 -251 -107q-95 -109 -95 -278q0 -168 95 -277q94 -108 251 -108q100 0 179 48zM425 1296q-19 -28 -19 -71h-107v24q0 83 48 135q49 54 128 54q51 0 83 -18q33 -19 65 -48q22 -21 42 -34q16 -11 40 -11q35 0 53 29q18 28 18 71h107v-24q0 -83 -48 -135
q-49 -54 -126 -54q-51 0 -82 17q-35 19 -66 49q-22 22 -40 34q-17 11 -42 11q-34 0 -54 -29z" />
    <glyph glyph-name="atilde.ss02" horiz-adv-x="1071" 
d="M861 959q110 -98 110 -279v-680h-146l-14 164q-123 -176 -350 -176q-176 0 -280 82q-105 83 -105 223q0 159 107 242t313 83h307v72q0 103 -69 160t-191 57q-109 0 -179 -48q-72 -49 -88 -128h-167q18 155 136 240q119 86 306 86q200 0 310 -98zM803 477h-324
q-233 0 -233 -174q0 -79 61 -125q62 -47 166 -47q153 0 242 81q88 81 88 214v51zM376 1296q-20 -29 -20 -71h-106v24q0 83 48 135q49 54 128 54q52 0 83 -18q30 -17 64 -48q22 -21 42 -34q17 -11 40 -11q36 0 54 29q18 28 18 71h107v-24q0 -81 -49 -135t-126 -54
q-50 0 -81 17q-35 19 -66 49q-22 22 -40 34q-17 11 -42 11q-34 0 -54 -29z" />
    <glyph glyph-name="f.calt" horiz-adv-x="575" 
d="M179 1367q65 67 208 67h193v-154h-183q-61 0 -88 -27q-26 -26 -26 -88v-121h295v-153h-295v-891h-168v1161q0 141 64 206z" />
    <glyph glyph-name="i.ss03" horiz-adv-x="454" 
d="M334 1417q31 -31 31 -78q0 -46 -31 -77t-78 -31t-78 31t-31 77q0 47 31 78t78 31t78 -31zM172 891h-166v153h334v-1044h-168v891z" />
    <glyph glyph-name="dotlessi.ss03" horiz-adv-x="454" 
d="M6 1044h334v-1044h-168v891h-166v153z" />
    <glyph glyph-name="iacute.ss03" horiz-adv-x="454" 
d="M6 1044h334v-1044h-168v891h-166v153zM186 1169l174 277h197l-240 -277h-131z" />
    <glyph glyph-name="ibreve.ss03" horiz-adv-x="454" 
d="M6 1044h334v-1044h-168v891h-166v153zM98 1446q0 -67 41 -110q41 -42 107 -42q64 0 108 42q43 42 43 110h133q-2 -128 -81 -204q-80 -77 -205 -77q-124 0 -200 76q-78 78 -79 205h133z" />
    <glyph glyph-name="icircumflex.ss03" horiz-adv-x="454" 
d="M6 1044h334v-1044h-168v891h-166v153zM248 1335l-178 -168h-160l258 279h160l258 -279h-162z" />
    <glyph glyph-name="idieresis.ss03" horiz-adv-x="454" 
d="M6 1044h334v-1044h-168v891h-166v153zM-15 1390q29 29 76 29q49 0 78 -29q31 -31 31 -77q0 -44 -31 -75q-30 -30 -78 -30q-45 0 -75 30q-31 31 -31 75q0 47 30 77zM357 1389q31 30 77 30q47 0 76 -29q31 -31 31 -77q0 -44 -31 -75q-30 -30 -76 -30t-77 30t-31 75
q0 46 31 76z" />
    <glyph glyph-name="i.loclTRK" horiz-adv-x="397" 
d="M115 1044h168v-1044h-168v1044zM124 1421q31 29 77 29t77 -29q29 -28 29 -73q0 -46 -29 -75q-30 -30 -77 -30t-77 30t-30 75q0 44 30 73z" />
    <glyph glyph-name="i.loclTRK.ss03" horiz-adv-x="454" 
d="M6 1044h334v-1044h-168v891h-166v153zM171 1421q31 29 77 29t77 -29q29 -28 29 -73q0 -46 -29 -75q-30 -30 -77 -30t-77 30t-30 75q0 44 30 73z" />
    <glyph glyph-name="igrave.ss03" horiz-adv-x="454" 
d="M6 1044h334v-1044h-168v891h-166v153zM-55 1446h196l170 -279h-133z" />
    <glyph glyph-name="ij.ss03" horiz-adv-x="858" 
d="M276 1417q31 -31 31 -78q0 -46 -31 -77t-77 -31q-47 0 -78 31t-31 77q0 47 31 78t78 31q46 0 77 -31zM115 1044h168v-1044h-168v1044zM582 1417q31 31 77 31q47 0 78 -31t31 -78q0 -46 -31 -77t-78 -31q-46 0 -77 31t-31 77q0 47 31 78zM461 -256q61 0 88 27q26 26 26 88
v1032h-165v153h333v-1181q0 -141 -64 -206q-65 -67 -208 -67h-172v154h162z" />
    <glyph glyph-name="ij.ss04" horiz-adv-x="794" 
d="M276 1417q31 -31 31 -78q0 -46 -31 -77t-77 -31q-47 0 -78 31t-31 77q0 47 31 78t78 31q46 0 77 -31zM115 1044h168v-1044h-168v1044zM518 1417q31 31 78 31t78 -31t31 -78q0 -46 -31 -77t-78 -31t-78 31t-31 77q0 47 31 78zM512 1044h168v-1454h-168v1454z" />
    <glyph glyph-name="imacron.ss01" horiz-adv-x="454" 
d="M6 1044h334v-1044h-168v891h-166v153zM-33 1255v127h563v-127h-563z" />
    <glyph glyph-name="iogonek.ss03" horiz-adv-x="454" 
d="M178 1262q-31 31 -31 77q0 47 31 78t78 31t78 -31t31 -78q0 -46 -31 -77t-78 -31t-78 31zM223 -287h131v-123h-159q-92 0 -151 48q-56 46 -56 126q0 74 48 134q47 59 136 122v871h-166v153h334v-1044h2q-103 -56 -158 -105t-55 -106q0 -76 94 -76z" />
    <glyph glyph-name="itilde.ss03" horiz-adv-x="454" 
d="M6 1044h334v-1044h-168v891h-166v153zM81 1296q-20 -29 -20 -71h-106v24q0 83 48 135q49 54 128 54q51 0 83 -18q33 -19 65 -48q22 -21 42 -34q17 -11 39 -11q36 0 54 29q18 28 18 71h107v-24q0 -81 -49 -135t-125 -54q-51 0 -82 17q-35 19 -66 49q-22 22 -40 34
q-17 11 -42 11q-34 0 -54 -29z" />
    <glyph glyph-name="j.short" horiz-adv-x="409" 
d="M133 1417q31 31 78 31t78 -31q30 -30 30 -78q0 -47 -30 -77q-31 -31 -78 -31t-78 31t-31 77q0 47 31 78zM12 -256q61 0 88 27t27 88v1185h168v-1181q0 -139 -65 -206t-207 -67h-70v154h59z" />
    <glyph glyph-name="j.ss03" horiz-adv-x="460" 
d="M184 1417q31 31 78 31t78 -31t31 -78q0 -46 -31 -77t-78 -31t-78 31q-30 30 -30 77q0 48 30 78zM63 -256q62 0 89 27q26 26 26 88v1032h-166v153h334v-1181q0 -141 -64 -206q-65 -67 -208 -67h-172v154h161z" />
    <glyph glyph-name="j.ss04" horiz-adv-x="397" 
d="M121 1417q31 31 78 31q46 0 77 -31t31 -78q0 -46 -31 -77t-77 -31q-47 0 -78 31t-31 77q0 47 31 78zM115 1044h168v-1454h-168v1454z" />
    <glyph glyph-name="uni0237.short" horiz-adv-x="409" 
d="M12 -256q61 0 88 27t27 88v1185h168v-1181q0 -139 -65 -206t-207 -67h-70v154h59z" />
    <glyph glyph-name="uni0237.ss03" horiz-adv-x="460" 
d="M63 -256q62 0 89 27q26 26 26 88v1032h-166v153h334v-1181q0 -141 -64 -206q-65 -67 -208 -67h-172v154h161z" />
    <glyph glyph-name="uni0237.ss04" horiz-adv-x="397" 
d="M115 1044h168v-1454h-168v1454z" />
    <glyph glyph-name="jcircumflex.short" horiz-adv-x="409" 
d="M12 -256q61 0 88 27t27 88v1185h168v-1181q0 -139 -65 -206t-207 -67h-70v154h59zM213 1335l-178 -168h-160l258 279h160l258 -279h-162z" />
    <glyph glyph-name="jcircumflex.ss03" horiz-adv-x="460" 
d="M63 -256q62 0 89 27q26 26 26 88v1032h-166v153h334v-1181q0 -141 -64 -206q-65 -67 -208 -67h-172v154h161zM264 1335l-178 -168h-160l258 279h160l258 -279h-162z" />
    <glyph glyph-name="jcircumflex.ss04" horiz-adv-x="397" 
d="M115 1044h168v-1454h-168v1454zM201 1335l-178 -168h-160l258 279h160l258 -279h-162z" />
    <glyph glyph-name="t.calt" horiz-adv-x="583" 
d="M115 1337h168v-293h264v-153h-264v-617q0 -67 25 -93q26 -27 89 -27h183v-154h-193q-147 0 -210 66q-62 65 -62 206v1065z" />
    <glyph glyph-name="t.ss05" horiz-adv-x="632" 
d="M-4 1044h190v293h168v-293h258v-153h-258v-891h-168v891h-190v153z" />
    <glyph glyph-name="tbar.calt" horiz-adv-x="583" 
d="M283 891v-246h264v-143h-264v-228q0 -67 25 -93q26 -27 89 -27h183v-154h-193q-147 0 -210 66q-62 65 -62 206v1065h168v-293h264v-153h-264z" />
    <glyph glyph-name="tbar.ss05" horiz-adv-x="667" 
d="M623 891h-258v-262h258v-144h-258v-485h-168v485h-193v144h193v262h-193v153h193v293h168v-293h258v-153z" />
    <glyph glyph-name="tcaron.calt" horiz-adv-x="583" 
d="M115 1337h168v-293h264v-153h-264v-617q0 -67 25 -93q26 -27 89 -27h183v-154h-193q-147 0 -210 66q-62 65 -62 206v1065zM465 1460h158l-119 -299h-121z" />
    <glyph glyph-name="tcaron.ss05" horiz-adv-x="632" 
d="M-4 1044h190v293h168v-293h258v-153h-258v-891h-168v891h-190v153zM539 1450h157l-118 -299h-121z" />
    <glyph glyph-name="uni0163.calt" horiz-adv-x="583" 
d="M115 1337h168v-293h264v-153h-264v-617q0 -67 25 -93q26 -27 89 -27h183v-154h-193q-147 0 -210 66q-62 65 -62 206v1065zM258 -104h164l-143 -293h-121z" />
    <glyph glyph-name="uni0163.ss05" horiz-adv-x="632" 
d="M-4 1044h190v293h168v-293h258v-153h-258v-891h-168v891h-190v153zM184 -104h164l-143 -293h-121z" />
    <glyph glyph-name="uni021B.calt" horiz-adv-x="583" 
d="M115 1337h168v-293h264v-153h-264v-617q0 -67 25 -93q26 -27 89 -27h183v-154h-193q-147 0 -210 66q-62 65 -62 206v1065zM258 -104h164l-143 -293h-121z" />
    <glyph glyph-name="uni021B.ss05" horiz-adv-x="632" 
d="M-4 1044h190v293h168v-293h258v-153h-258v-891h-168v891h-190v153zM184 -104h164l-143 -293h-121z" />
    <glyph glyph-name="y.ss01" horiz-adv-x="1128" 
d="M1014 1044v-1026q0 -203 -118 -321q-119 -119 -355 -119q-190 0 -308 89q-116 88 -133 255h172q21 -94 94 -144t189 -50q140 0 215 74q76 75 76 216v152q-52 -82 -130 -129q-77 -47 -196 -47q-187 0 -301 111q-115 112 -115 350v589h168v-579q0 -153 72 -236
q72 -82 205 -82q137 0 217 101t80 274v522h168z" />
    <glyph glyph-name="yacute.ss01" horiz-adv-x="1128" 
d="M1014 1044v-1026q0 -203 -118 -321q-119 -119 -355 -119q-190 0 -308 89q-116 88 -133 255h172q21 -94 94 -144t189 -50q140 0 215 74q76 75 76 216v152q-52 -82 -130 -129q-77 -47 -196 -47q-187 0 -301 111q-115 112 -115 350v589h168v-579q0 -153 72 -236
q72 -82 205 -82q137 0 217 101t80 274v522h168zM498 1169l174 277h196l-239 -277h-131z" />
    <glyph glyph-name="ycircumflex.ss01" horiz-adv-x="1128" 
d="M1014 1044v-1026q0 -203 -118 -321q-119 -119 -355 -119q-190 0 -308 89q-116 88 -133 255h172q21 -94 94 -144t189 -50q140 0 215 74q76 75 76 216v152q-52 -82 -130 -129q-77 -47 -196 -47q-187 0 -301 111q-115 112 -115 350v589h168v-579q0 -153 72 -236
q72 -82 205 -82q137 0 217 101t80 274v522h168zM559 1335l-178 -168h-160l258 279h160l258 -279h-162z" />
    <glyph glyph-name="ydieresis.ss01" horiz-adv-x="1128" 
d="M1014 1044v-1026q0 -203 -118 -321q-119 -119 -355 -119q-190 0 -308 89q-116 88 -133 255h172q21 -94 94 -144t189 -50q140 0 215 74q76 75 76 216v152q-52 -82 -130 -129q-77 -47 -196 -47q-187 0 -301 111q-115 112 -115 350v589h168v-579q0 -153 72 -236
q72 -82 205 -82q137 0 217 101t80 274v522h168zM296 1390q29 29 77 29q49 0 78 -29q30 -30 30 -77q0 -45 -30 -75t-78 -30q-46 0 -76 30q-31 31 -31 75q0 47 30 77zM669 1389q31 30 76 30q47 0 76 -29q31 -31 31 -77q0 -44 -31 -75q-30 -30 -76 -30q-45 0 -76 30
q-32 30 -32 75q0 46 32 76z" />
    <glyph glyph-name="ygrave.ss01" horiz-adv-x="1128" 
d="M1014 1044v-1026q0 -203 -118 -321q-119 -119 -355 -119q-190 0 -308 89q-116 88 -133 255h172q21 -94 94 -144t189 -50q140 0 215 74q76 75 76 216v152q-52 -82 -130 -129q-77 -47 -196 -47q-187 0 -301 111q-115 112 -115 350v589h168v-579q0 -153 72 -236
q72 -82 205 -82q137 0 217 101t80 274v522h168zM256 1446h197l170 -279h-134z" />
    <glyph glyph-name="w_w_w" horiz-adv-x="4401" 
d="M4215 1044h170l-348 -1044h-185l-252 776l-262 -776l-184 -2l-256 790l-262 -788h-185l-251 776l-263 -776l-184 -2l-254 788l-262 -786h-184l-252 776l-262 -776l-185 -2l-338 1046h177l260 -849l274 849h156l260 -849l272 849h176l260 -849l275 849h155l261 -849
l272 849h178l260 -849l275 849h155l260 -849z" />
    <glyph glyph-name="zero.osf" horiz-adv-x="1261" 
d="M157 796q71 122 195 191q126 70 279 70q152 0 278 -70t196 -191q71 -122 71 -274q0 -150 -71 -274q-71 -123 -195 -192q-123 -68 -279 -68q-157 0 -280 68t-194 192t-71 274q0 152 71 274zM956 717q-49 88 -135 139q-85 51 -190 51t-191 -51t-135 -139t-49 -195
q0 -106 49 -194q50 -89 135 -140q86 -51 191 -51t190 51t135 140t50 194q0 106 -50 195z" />
    <glyph glyph-name="one.osf" horiz-adv-x="598" 
d="M203 797q48 0 72 33q26 35 26 88v126h166v-1044h-170v664q-35 -21 -96 -21h-191v154h193z" />
    <glyph glyph-name="two.osf" horiz-adv-x="1038" 
d="M965 147v-147h-893v139l465 279q122 73 179 133q56 59 56 145q0 94 -72 153q-71 58 -188 58q-120 0 -194 -68t-74 -182v-28h-170v28q0 113 54 204t155 144q100 52 233 52q126 0 224 -45q99 -46 151 -126q53 -82 53 -186q0 -107 -65 -187t-195 -157l-354 -209h635z" />
    <glyph glyph-name="three.osf" horiz-adv-x="1159" 
d="M992 245q83 -83 83 -227q0 -118 -63 -208q-64 -92 -178 -141q-115 -50 -265 -50q-233 0 -369 121q-138 122 -139 330h168q1 -144 95 -224q90 -77 245 -77q146 0 239 71q95 72 95 189q0 111 -91 172t-247 61h-112v154h104q142 0 226 68q85 69 85 173q0 113 -83 181
q-82 67 -214 67q-136 0 -221 -77q-83 -76 -88 -201h-168q0 126 62 224q61 97 170 150q111 54 247 54q141 0 248 -48q105 -47 163 -134q56 -84 56 -195q0 -130 -73 -215q-74 -87 -203 -115q146 -21 228 -103z" />
    <glyph glyph-name="four.osf" horiz-adv-x="1204" 
d="M739 1044h209v-890h223v-154h-223v-369h-164v369h-737v154zM784 868l-553 -714h553v714z" />
    <glyph glyph-name="five.osf" horiz-adv-x="1187" 
d="M883 510q104 -61 163 -170q58 -107 58 -246q0 -149 -67 -259q-66 -108 -179 -162t-250 -54q-148 0 -257 58q-109 59 -171 159q-62 101 -69 221h170q12 -123 100 -205q89 -83 227 -83q90 0 163 38q74 39 118 114q43 74 43 175q0 142 -89 234t-235 92q-108 0 -188 -51
q-81 -52 -121 -146l-166 4l47 815h836v-157h-686l-33 -471q49 74 141 114q93 41 207 41q134 0 238 -61z" />
    <glyph glyph-name="six.osf" horiz-adv-x="1208" 
d="M955 1316q122 -105 149 -288h-168q-27 112 -103 178q-77 66 -202 66q-190 0 -289 -143q-98 -141 -98 -390q0 -31 2 -69q7 27 18 49q51 100 158 153q110 54 242 54q136 0 240 -60t159 -165q55 -104 55 -242q0 -141 -62 -246q-63 -106 -175 -166q-111 -59 -256 -59
q-275 0 -414 227q-58 91 -89 218q-32 130 -32 272q0 334 139 525t406 191q198 0 320 -105zM401 694q-92 -84 -92 -219q0 -151 86 -246q85 -94 234 -94q143 0 231 90q88 89 88 232q0 144 -85 232q-86 89 -228 89q-143 0 -234 -84z" />
    <glyph glyph-name="seven.osf" horiz-adv-x="1046" 
d="M33 1044h960v-147l-657 -1266h-186l655 1260h-772v153z" />
    <glyph glyph-name="eight.osf" horiz-adv-x="1202" 
d="M1032 613q84 -91 84 -234q0 -117 -62 -204q-63 -89 -178 -138q-114 -49 -274 -49q-161 0 -275 49q-116 50 -179 138q-62 87 -62 204q0 141 83 230q84 90 212 120q-110 33 -182 115t-72 207q0 109 58 192q59 85 166 131q109 47 251 47t250 -47q106 -46 165 -131
q58 -83 58 -192q0 -119 -74 -202t-182 -116q129 -29 213 -120zM383 874q85 -67 219 -67q133 0 218 67t85 175q0 107 -85 173q-86 66 -218 66q-134 0 -219 -66q-86 -66 -86 -173t86 -175zM776 158q78 34 123 96t45 137q0 76 -45 136q-47 62 -123 96q-77 34 -174 34
q-99 0 -177 -34t-123 -96q-44 -61 -44 -136t44 -137t123 -96q81 -35 177 -35q95 0 174 35z" />
    <glyph glyph-name="nine.osf" horiz-adv-x="1208" 
d="M1086 611q32 -130 32 -271q0 -334 -139 -527q-140 -194 -406 -194q-197 0 -320 106q-122 106 -149 287h168q27 -111 104 -178q75 -65 202 -65q192 0 291 145q100 147 100 395q0 19 -4 70q-7 -22 -27 -60q-49 -102 -154 -151q-104 -49 -239 -49q-139 0 -241 59
q-104 60 -159 165q-55 104 -55 243q0 138 63 245q63 106 175 166q113 60 256 60q273 0 413 -228q58 -91 89 -218zM345 355q86 -89 228 -89q145 0 236 89q90 89 90 231q0 144 -88 233q-89 90 -231 90q-144 0 -232 -90q-88 -89 -88 -231q0 -145 85 -233z" />
    <glyph glyph-name="one.osf.ss08" 
d="M1120 141v-141h-950v141h387v533q-39 -25 -96 -25h-256v137h258q47 0 73 33q25 32 25 86v137h166v-901h393z" />
    <glyph glyph-name="seven.osf.ss08" horiz-adv-x="1105" 
d="M74 1044h979v-147l-658 -1266h-186l655 1258h-643v-256h-147v411z" />
    <glyph glyph-name="four.osf.ss09" horiz-adv-x="1085" 
d="M739 1044h217v-1413h-170v369h-739v154zM786 868l-555 -714h555v714z" />
    <glyph glyph-name="zero.osf.zero" horiz-adv-x="1261" 
d="M909 987q126 -70 196 -191q71 -122 71 -274q0 -150 -71 -274q-71 -123 -195 -192q-123 -68 -279 -68q-157 0 -280 68t-194 192t-71 274q0 152 71 274t195 191q126 70 279 70q152 0 278 -70zM440 856q-86 -51 -135 -139t-49 -195q0 -124 68 -225l528 539q-98 71 -221 71
q-105 0 -191 -51zM821 188q85 51 135 140t50 194q0 127 -70 230l-526 -543q99 -72 221 -72q105 0 190 51z" />
    <glyph glyph-name="one.ss08" horiz-adv-x="1067" 
d="M1014 158v-158h-936v156h389v850q-29 -21 -78 -21h-254v154h236q48 0 72 33q26 35 26 90v172h168v-1276h377z" />
    <glyph glyph-name="seven.ss08" horiz-adv-x="1134" 
d="M1083 1434v-121l-690 -1313h-182l688 1276h-670v-254h-145v412h999z" />
    <glyph glyph-name="four.ss09" horiz-adv-x="1150" 
d="M768 1434h219v-1434h-172v348h-766v160zM815 1255l-579 -747h579v747z" />
    <glyph glyph-name="zero.tf" 
d="M92 752q0 199 64 361q63 158 182 247q118 88 276 88q159 0 277 -88q119 -89 182 -247q64 -162 64 -361v-66q0 -199 -64 -361q-63 -158 -182 -247q-118 -88 -277 -88q-158 0 -276 88q-119 89 -182 247q-64 162 -64 361v66zM967 745q0 161 -42 286t-122 194q-79 69 -189 69
q-108 0 -188 -69t-122 -194t-42 -286v-53q0 -158 42 -283t122 -194q81 -70 188 -70q108 0 189 70q80 69 122 194t42 283v53z" />
    <glyph glyph-name="one.tf" 
d="M1110 158v-158h-936v156h389v850q-29 -21 -78 -21h-254v154h236q49 0 73 33q25 34 25 90v172h168v-1276h377z" />
    <glyph glyph-name="two.tf" 
d="M659 629q124 107 183 189q61 85 61 192q0 133 -85 209q-84 75 -228 75q-139 0 -223 -86t-84 -233v-27h-172v37q0 137 59 240q59 104 169 164q108 59 251 59q228 0 359 -117q130 -117 130 -313q0 -104 -40 -187t-103 -152q-57 -62 -166 -157l-430 -364h750v-158h-988v145z
" />
    <glyph glyph-name="three.tf" 
d="M1042 626q88 -88 88 -229q0 -122 -64 -214q-64 -93 -183 -144t-275 -51q-237 0 -379 122q-141 122 -141 332h176q1 -138 100 -220q98 -81 254 -81q146 0 241 74t95 195q0 114 -92 180q-90 65 -260 65h-123v150h113q158 0 242 69q83 68 83 183q0 110 -84 172
q-85 63 -219 63q-140 0 -226 -70q-88 -71 -89 -192h-172q1 193 133 305q130 111 348 111q146 0 258 -47q109 -46 169 -133q59 -86 59 -199q0 -131 -72 -217q-74 -87 -195 -111q126 -24 215 -113z" />
    <glyph glyph-name="four.tf" 
d="M39 504l719 930h205v-926h231v-158h-231v-350h-172v350h-752v154zM223 508h568v733z" />
    <glyph glyph-name="five.tf" 
d="M907 899q105 -61 166 -170q60 -108 60 -250q0 -152 -68 -264q-67 -111 -182 -168q-114 -57 -252 -57q-157 0 -271 60t-177 165q-63 104 -70 231h172q12 -129 105 -216t241 -87q85 0 161 38q74 37 119 114q45 76 45 182q0 149 -88 240q-89 92 -235 92q-95 0 -191 -41
q-94 -40 -135 -154l-166 4l47 816h852v-158h-694l-33 -471q61 80 159 119q93 37 194 37q134 0 241 -62z" />
    <glyph glyph-name="six.tf" 
d="M118 444q-30 124 -30 267q0 223 65 391q65 167 187 255q124 89 293 89q194 0 320 -108t153 -287h-172q-24 111 -104 178q-78 65 -205 65q-184 0 -286 -151q-101 -150 -101 -400l2 -69q6 27 12 39q50 110 154 172q105 63 245 63q144 0 250 -59q109 -60 170 -168
q62 -109 62 -252q0 -136 -64 -247q-62 -108 -176 -172q-111 -62 -258 -62t-255 62q-111 64 -179 175q-53 96 -83 219zM873 706q-87 91 -234 91q-150 0 -242 -92t-92 -240q0 -146 90 -236t238 -90q147 0 237 92q91 93 91 238q0 144 -88 237z" />
    <glyph glyph-name="seven.tf" horiz-adv-x="1230" 
d="M111 1434h1011v-121l-704 -1313h-187l703 1276h-823v158z" />
    <glyph glyph-name="eight.tf" 
d="M1044 622q89 -94 89 -237q0 -117 -63 -207q-64 -92 -180 -140q-120 -50 -276 -50q-155 0 -275 50q-116 48 -180 140q-63 90 -63 207q0 143 88 235q88 93 230 123q-120 24 -199 112q-78 87 -78 212q0 113 59 199q59 87 166 134q108 48 252 48t252 -48t167 -134t59 -199
q0 -123 -78 -212q-79 -90 -199 -112q141 -28 229 -121zM393 894q87 -67 221 -67q135 0 222 67q86 66 86 173q0 105 -86 171q-87 67 -222 67q-134 0 -221 -67q-86 -66 -86 -171q0 -107 86 -173zM863 203q98 74 98 188q0 74 -46 137q-47 64 -123 97q-78 34 -178 34
q-99 0 -177 -34t-124 -97q-45 -62 -45 -137q0 -115 99 -188q100 -74 247 -74q151 0 249 74z" />
    <glyph glyph-name="nine.tf" 
d="M1105 989q30 -125 30 -266q0 -223 -65 -391q-65 -167 -187 -255q-124 -89 -293 -89q-196 0 -321 107t-152 288h172q24 -112 103 -178q80 -66 206 -66q184 0 286 152q101 150 101 399l-2 70q-6 -27 -12 -39q-50 -110 -154 -172q-107 -64 -246 -64q-141 0 -249 60
q-109 60 -170 168q-62 109 -62 252q0 135 64 246q62 108 176 172q112 63 258 63t255 -63q111 -64 179 -175q53 -96 83 -219zM349 728q87 -91 235 -91q149 0 241 92q93 93 93 240q0 144 -91 235q-90 90 -237 90q-148 0 -238 -92t-90 -237t87 -237z" />
    <glyph glyph-name="seven.tf.ss08" 
d="M1120 1434v-121l-690 -1313h-182l688 1276h-670v-254h-145v412h999z" />
    <glyph glyph-name="four.tf.ss09" 
d="M807 1434h219v-1434h-172v348h-766v160zM854 1255l-580 -747h580v747z" />
    <glyph glyph-name="zero.tf.zero" 
d="M891 1360q119 -89 182 -247q64 -162 64 -361v-66q0 -199 -64 -361q-63 -158 -182 -247q-118 -88 -277 -88q-158 0 -276 88q-119 89 -182 247q-64 162 -64 361v66q0 199 64 361q63 158 182 247q118 88 276 88q159 0 277 -88zM262 692q0 -119 25 -225l610 633
q-47 92 -119 143t-164 51q-108 0 -188 -69t-122 -194t-42 -286v-53zM967 745q0 117 -21 207l-604 -630q47 -84 116 -131q68 -46 156 -46q108 0 189 70q80 69 122 194t42 283v53z" />
    <glyph glyph-name="zero.tosf" 
d="M152 794q70 123 190 191q123 70 272 70q150 0 273 -70q120 -68 190 -191t70 -274q0 -148 -70 -271t-191 -192q-122 -69 -272 -69t-271 69t-191 192t-70 271q0 151 70 274zM930 715q-46 87 -130 139q-82 51 -186 51q-100 0 -183 -51q-84 -52 -131 -139q-48 -89 -48 -195
t48 -194q49 -90 131 -139q83 -50 183 -50q103 0 186 50t130 139t47 194q0 106 -47 195z" />
    <glyph glyph-name="one.tosf" 
d="M1120 141v-141h-950v141h387v533q-39 -25 -96 -25h-256v137h258q47 0 73 33q25 32 25 86v137h166v-901h393z" />
    <glyph glyph-name="two.tosf" 
d="M1071 147v-147h-893v139l465 279q122 73 179 133t57 145q0 94 -72 153q-71 58 -189 58q-119 0 -193 -68q-75 -69 -75 -182v-28h-170v28q0 113 54 204t155 144q100 52 234 52q127 0 224 -45t150 -126q54 -83 54 -186q0 -106 -66 -187t-194 -157l-355 -209h635z" />
    <glyph glyph-name="three.tosf" 
d="M1036 237q88 -88 88 -229q0 -122 -64 -214q-64 -93 -183 -144t-275 -51q-239 0 -379 121q-141 122 -141 333h176q1 -139 99 -220q97 -81 255 -81q146 0 241 74t95 194q0 115 -92 181q-90 65 -260 65h-123v150h113q157 0 241 69t84 183q0 109 -85 172q-86 63 -218 63
q-140 0 -226 -70q-88 -71 -89 -192h-172q1 193 133 305q130 111 348 111q146 0 258 -47q109 -46 169 -133q58 -85 58 -199q0 -133 -71 -217q-74 -87 -195 -111q126 -24 215 -113z" />
    <glyph glyph-name="four.tosf" 
d="M739 1044h209v-890h223v-154h-223v-369h-164v369h-737v154zM784 868l-553 -714h553v714z" />
    <glyph glyph-name="five.tosf" 
d="M897 512q104 -61 163 -170q58 -107 58 -246q0 -151 -66 -259q-65 -107 -180 -162q-112 -54 -249 -54q-148 0 -257 58q-110 59 -171 159q-63 102 -70 221h170q12 -123 100 -205q89 -83 228 -83q87 0 162 39t118 113t43 175q0 142 -89 234t-234 92q-109 0 -189 -51
q-81 -52 -121 -146l-166 4l48 816h835v-158h-686l-33 -471q49 73 142 114t206 41q134 0 238 -61z" />
    <glyph glyph-name="six.tosf" 
d="M966 1316q121 -105 148 -288h-168q-27 112 -103 178t-202 66q-190 0 -289 -143q-98 -141 -98 -390q0 -31 2 -69q7 27 18 49q51 100 158 153q110 54 242 54q136 0 240 -60t159 -165q55 -104 55 -242q0 -141 -62 -246q-63 -106 -175 -166q-111 -59 -256 -59
q-275 0 -414 227q-58 91 -89 218q-32 130 -32 272q0 332 140 525q139 191 405 191q199 0 321 -105zM412 694q-93 -85 -93 -219q0 -151 86 -246q85 -94 234 -94q143 0 231 90q88 89 88 232q0 144 -85 232q-86 89 -228 89q-141 0 -233 -84z" />
    <glyph glyph-name="seven.tosf" 
d="M111 1044h960v-147l-657 -1266h-187l656 1260h-772v153z" />
    <glyph glyph-name="eight.tosf" 
d="M1047 613q83 -90 83 -234q0 -117 -62 -204q-63 -89 -178 -138q-114 -49 -274 -49q-161 0 -275 49q-115 49 -178 138t-63 204q0 141 83 230q84 90 212 120q-110 33 -182 115t-72 207q0 107 59 192t166 131q109 47 250 47q142 0 250 -47q106 -46 165 -131t59 -192
q0 -119 -74 -202t-182 -116q129 -29 213 -120zM397 874q85 -67 219 -67t219 67t85 175q0 107 -85 173t-219 66t-219 -66q-86 -66 -86 -173t86 -175zM791 158q77 34 122 96t45 137q0 76 -45 136q-47 63 -122 96q-77 34 -175 34q-99 0 -177 -34t-123 -96q-44 -61 -44 -136
t44 -137t123 -96q81 -35 177 -35t175 35z" />
    <glyph glyph-name="nine.tosf" 
d="M1097 611q31 -125 31 -271q0 -334 -139 -527q-140 -194 -405 -194q-198 0 -321 106q-121 105 -148 287h168q27 -112 103 -178q75 -65 202 -65q193 0 292 145q99 146 99 395q0 19 -4 70q-7 -22 -27 -60q-50 -102 -153 -151q-104 -49 -240 -49q-139 0 -241 59t-158 165
t-56 243q0 138 63 245q63 106 175 166t256 60q274 0 414 -228q58 -91 89 -218zM355 355q86 -89 229 -89q144 0 235 89q90 89 90 231q0 144 -88 233q-89 90 -231 90q-144 0 -232 -90q-88 -89 -88 -231q0 -145 85 -233z" />
    <glyph glyph-name="seven.tosf.ss08" 
d="M111 1044h979v-147l-658 -1266h-186l655 1258h-643v-256h-147v411z" />
    <glyph glyph-name="four.tosf.ss09" 
d="M807 1044h219v-1433h-172v348h-766v160zM854 866l-580 -747h580v747z" />
    <glyph glyph-name="zero.tosf.zero" 
d="M887 985q120 -68 190 -191t70 -274q0 -148 -70 -271t-191 -192q-122 -69 -272 -69t-271 69t-191 192t-70 271q0 151 70 274t190 191q123 70 272 70q150 0 273 -70zM431 854q-84 -52 -131 -139q-48 -89 -48 -195q0 -122 61 -217l519 528q-92 74 -218 74q-100 0 -183 -51z
M800 187q83 50 130 139t47 194q0 127 -64 223l-518 -532q97 -74 219 -74q103 0 186 50z" />
    <glyph glyph-name="zero.zero" horiz-adv-x="1280" 
d="M923 1357q122 -86 192 -247q69 -158 69 -360v-66q0 -212 -69 -369t-191 -242t-283 -85q-163 0 -285 85t-191 242t-69 369v66q0 202 69 360q70 161 192 247q125 89 284 89q157 0 282 -89zM270 690q0 -118 27 -229l629 653q-46 83 -121 129q-73 45 -164 45q-112 0 -195 -65
t-130 -189q-46 -122 -46 -291v-53zM1010 743q0 121 -27 232l-629 -656q49 -84 122 -129q72 -45 165 -45q111 0 194 66t129 188t46 291v53z" />
    <glyph glyph-name="u1F10C.zero" horiz-adv-x="1630" 
d="M443 1357q-167 -95 -262 -262t-95 -372t95 -372t262 -262t372 -95t372 95t262 262t95 372t-95 372t-262 262t-372 95t-372 -95zM1032 1001q82 -106 82 -278q0 -173 -82 -279t-217 -106q-137 0 -219 105q-82 104 -82 280q0 175 82 279q83 106 219 106q134 0 217 -107z
M683 922q-48 -76 -48 -199q0 -71 14 -119l297 316q-49 77 -131 77q-85 0 -132 -75zM945 526q48 76 48 197q0 71 -14 117l-295 -316q46 -73 131 -73q83 0 130 75z" />
    <glyph glyph-name="u1F10B.zero" horiz-adv-x="1642" 
d="M1196 1351q167 -94 264 -262q96 -167 96 -372t-96 -372q-97 -168 -264 -262q-169 -95 -375 -95t-376 95q-169 94 -264 262q-95 167 -95 372t95 372q95 168 264 262q170 95 376 95t375 -95zM508 1258q-140 -81 -219 -223q-80 -143 -80 -318q0 -176 80 -319
q79 -142 219 -223t313 -81q175 0 314 81q140 81 219 223q80 143 80 319q0 175 -80 318q-79 142 -219 223t-314 81q-173 0 -313 -81zM1038 995q82 -106 82 -278q0 -173 -82 -279t-217 -106q-137 0 -219 105q-82 104 -82 280q0 175 82 279q83 106 219 106q134 0 217 -107z
M689 915q-48 -77 -48 -198q0 -71 14 -119l297 315q-50 78 -131 78q-84 0 -132 -76zM951 520q48 76 48 197q0 71 -14 117l-295 -316q47 -74 131 -74q82 0 130 76z" />
    <glyph glyph-name="zero.dnom" horiz-adv-x="698" 
d="M131 652q83 106 219 106q134 0 217 -107q82 -106 82 -278q0 -173 -82 -279t-217 -106q-136 0 -219 105q-82 104 -82 280q0 175 82 279zM480 570q-48 77 -130 77q-84 0 -132 -76q-48 -77 -48 -198t48 -197t132 -76q82 0 130 76t48 197t-48 197z" />
    <glyph glyph-name="one.dnom" horiz-adv-x="368" 
d="M174 0v500q-15 -21 -41 -21h-133v113h133q19 0 31 16t12 41v96h113v-745h-115z" />
    <glyph glyph-name="two.dnom" horiz-adv-x="645" 
d="M53 500q0 117 76 187q77 71 190 71q123 0 197 -65t74 -169q0 -75 -38 -128q-36 -50 -110 -109l-217 -174h371v-113h-545v106l303 238q53 43 85 86q30 40 30 92q0 56 -41 91q-40 34 -106 34q-71 0 -112 -40q-42 -41 -42 -111v-11h-115v15z" />
    <glyph glyph-name="three.dnom" horiz-adv-x="665" 
d="M136 696q71 62 194 62q122 0 195 -58t73 -151q0 -58 -35 -99q-34 -39 -88 -55q65 -12 102 -57q37 -44 37 -115q0 -107 -77 -171t-209 -64q-136 0 -209 64q-74 65 -76 184h117q2 -68 47 -104t123 -36q69 0 115 34q47 35 47 89t-48 88q-46 33 -125 33h-45v84h48
q67 0 112 31q43 30 43 82q0 51 -40 81q-42 31 -103 31q-71 0 -111 -34q-42 -35 -43 -91h-117q1 110 73 172z" />
    <glyph glyph-name="four.dnom" horiz-adv-x="696" 
d="M391 745h144v-452h120v-109h-120v-184h-115v184h-379v109zM420 623l-254 -330h254v330z" />
    <glyph glyph-name="five.dnom" horiz-adv-x="643" 
d="M551 639h-375l-14 -217q28 36 78 59q46 21 104 21q112 0 181 -71t69 -183q0 -117 -75 -189q-74 -71 -195 -71q-112 0 -186 62q-75 63 -85 163h117q11 -54 52 -85q43 -32 104 -32q63 0 105 43q42 44 42 109q0 67 -43 107t-113 40q-47 0 -84 -21q-35 -20 -59 -61h-108
l20 432h465v-106z" />
    <glyph glyph-name="six.dnom" horiz-adv-x="661" 
d="M128 649q83 109 224 109q99 0 172 -59q71 -58 86 -160h-112q-12 57 -53 90q-40 33 -95 33q-86 0 -139 -74t-53 -193v-59q12 59 64 102t138 43q119 0 187 -67q69 -67 69 -178q0 -114 -73 -181t-199 -67q-147 0 -223 100t-76 270q0 182 83 291zM456 345q-42 42 -112 42
q-69 0 -113 -41q-43 -40 -43 -108t43 -110t113 -42q69 0 112 41q42 41 42 109q0 67 -42 109z" />
    <glyph glyph-name="seven.dnom" horiz-adv-x="614" 
d="M43 748h535v-101l-334 -647h-127l334 641l-408 -2v109z" />
    <glyph glyph-name="eight.dnom" horiz-adv-x="669" 
d="M87 318q42 52 106 69q-55 18 -90 62q-33 42 -33 106q0 89 74 145q76 58 192 58q112 0 190 -58q76 -57 76 -145q0 -63 -33 -105t-88 -63q63 -18 103 -69q39 -50 39 -119q0 -92 -78 -152q-77 -59 -209 -59t-210 59q-79 60 -79 152q0 70 40 119zM441 628q-41 34 -105 34
q-65 0 -106 -34q-42 -34 -42 -85q0 -53 42 -85q43 -32 106 -32q65 0 106 32t41 85q0 51 -42 85zM456 299q-47 37 -120 37t-120 -37q-48 -37 -48 -90t48 -88q49 -35 120 -35t120 35q48 35 48 88t-48 90z" />
    <glyph glyph-name="nine.dnom" horiz-adv-x="661" 
d="M534 96q-83 -108 -225 -108q-101 0 -172 58t-86 161h113q12 -57 52 -90t95 -33q87 0 140 74t53 192v60q-12 -59 -65 -103q-52 -43 -138 -43q-116 0 -186 68t-70 178q0 112 74 180t198 68q147 0 224 -101q75 -99 75 -270q0 -184 -82 -291zM206 400q42 -42 111 -42t113 41
q43 40 43 109q0 67 -43 109q-44 42 -113 42q-68 0 -111 -41q-42 -40 -42 -108t42 -110z" />
    <glyph glyph-name="zero.numr" horiz-adv-x="698" 
d="M131 1342q83 106 219 106q134 0 217 -107q82 -106 82 -278q0 -173 -82 -279t-217 -106q-136 0 -219 105q-82 104 -82 280q0 175 82 279zM480 1261q-48 76 -130 76q-85 0 -132 -75q-48 -76 -48 -199q0 -121 48 -197q47 -75 132 -75q83 0 130 75q48 76 48 197t-48 198z" />
    <glyph glyph-name="one.numr" horiz-adv-x="368" 
d="M174 690v500q-15 -21 -41 -21h-133v113h133q19 0 31 16t12 41v97h113v-746h-115z" />
    <glyph glyph-name="two.numr" horiz-adv-x="645" 
d="M53 1188q0 117 76 187q77 71 190 71q123 0 197 -65t74 -169q0 -75 -38 -128q-36 -50 -110 -109l-217 -174h371v-113h-545v107l303 237q53 43 85 86q30 40 30 92q0 57 -41 92q-39 33 -106 33q-71 0 -112 -40q-42 -41 -42 -111v-10h-115v14z" />
    <glyph glyph-name="three.numr" horiz-adv-x="665" 
d="M136 1389q70 61 194 61q123 0 195 -57q73 -58 73 -152q0 -58 -35 -99q-34 -39 -88 -55q65 -12 102 -57q37 -44 37 -115q0 -107 -77 -171t-209 -64q-136 0 -209 64q-74 65 -76 184h117q2 -68 47 -104t123 -36q69 0 115 34q47 35 47 89t-48 88q-47 33 -125 33h-45v84h48
q67 0 112 31q43 30 43 82t-40 82q-41 30 -103 30q-72 0 -111 -33q-42 -35 -43 -91h-117q1 110 73 172z" />
    <glyph glyph-name="four.numr" horiz-adv-x="696" 
d="M391 1434h144v-453h120v-109h-120v-184h-115v184h-379v109zM420 1311l-254 -330h254v330z" />
    <glyph glyph-name="five.numr" horiz-adv-x="643" 
d="M551 1327h-375l-14 -217q28 36 78 59q47 21 104 21q112 0 181 -71t69 -183q0 -116 -75 -188t-195 -72q-112 0 -186 62q-75 63 -85 163h117q11 -54 52 -85q43 -32 104 -32q63 0 105 43t42 109q0 67 -43 107t-113 40q-47 0 -84 -21q-35 -20 -59 -61h-108l20 433h465v-107z
" />
    <glyph glyph-name="six.numr" horiz-adv-x="661" 
d="M128 1339q83 109 224 109q101 0 172 -58t86 -161h-112q-12 57 -53 90q-40 33 -95 33q-86 0 -139 -74t-53 -193v-59q12 59 64 102t138 43q119 0 187 -67q69 -68 69 -178q0 -114 -73 -181t-199 -67q-147 0 -223 100t-76 271q0 181 83 290zM456 1035q-42 42 -112 42
q-69 0 -113 -41q-43 -40 -43 -108t43 -110t113 -42q69 0 112 41q42 41 42 109q0 67 -42 109z" />
    <glyph glyph-name="seven.numr" horiz-adv-x="614" 
d="M43 1434h535v-101l-334 -647h-127l334 641l-408 -2v109z" />
    <glyph glyph-name="eight.numr" horiz-adv-x="669" 
d="M87 1009q41 50 106 68q-55 18 -90 62q-33 42 -33 106q0 90 74 146q75 57 192 57q114 0 190 -57t76 -146q0 -63 -33 -105t-88 -63q64 -18 103 -68q39 -49 39 -120q0 -92 -78 -152q-77 -59 -209 -59t-210 59q-79 60 -79 152q0 71 40 120zM441 1318q-41 34 -105 34
q-65 0 -106 -34q-42 -34 -42 -85q0 -53 42 -85q43 -32 106 -32q65 0 106 32t41 85q0 51 -42 85zM456 989q-47 37 -120 37t-120 -37q-48 -37 -48 -90t48 -88q49 -35 120 -35t120 35q48 35 48 88t-48 90z" />
    <glyph glyph-name="nine.numr" horiz-adv-x="661" 
d="M534 786q-83 -108 -225 -108q-101 0 -172 58t-86 161h113q12 -57 52 -90t95 -33q87 0 140 74t53 192v60q-12 -59 -65 -103q-52 -43 -138 -43q-116 0 -186 68t-70 178q0 112 74 180t198 68q148 0 224 -100q75 -99 75 -271q0 -184 -82 -291zM206 1091q42 -42 111 -42
t113 41q43 40 43 108t-43 110q-44 42 -113 42q-68 0 -111 -41q-42 -41 -42 -109q0 -67 42 -109z" />
    <glyph glyph-name="uni2080.zero" horiz-adv-x="698" 
d="M567 446q82 -106 82 -278q0 -173 -82 -279t-217 -106q-136 0 -219 105q-82 104 -82 280q0 175 82 279q83 106 219 106q134 0 217 -107zM218 367q-48 -77 -48 -199q0 -71 14 -119l297 316q-49 77 -131 77q-85 0 -132 -75zM480 -29q48 77 48 197q0 71 -14 117l-295 -316
q46 -73 131 -73q83 0 130 75z" />
    <glyph glyph-name="zero.dnom.zero" horiz-adv-x="698" 
d="M567 651q82 -106 82 -278q0 -173 -82 -279t-217 -106q-136 0 -219 105q-82 104 -82 280q0 175 82 279q83 106 219 106q134 0 217 -107zM218 571q-48 -77 -48 -198q0 -71 14 -119l297 315q-49 78 -131 78q-84 0 -132 -76zM480 176q48 76 48 197q0 70 -14 116l-295 -315
q47 -74 131 -74q82 0 130 76z" />
    <glyph glyph-name="zero.numr.zero" horiz-adv-x="698" 
d="M567 1341q82 -106 82 -278q0 -173 -82 -279t-217 -106q-136 0 -219 105q-82 104 -82 280q0 175 82 279q83 106 219 106q134 0 217 -107zM218 1262q-48 -76 -48 -199q0 -71 14 -119l297 316q-49 77 -131 77q-85 0 -132 -75zM480 866q48 76 48 197q0 71 -14 117l-295 -316
q46 -73 131 -73q83 0 130 75z" />
    <glyph glyph-name="uni2070.zero" horiz-adv-x="698" 
d="M567 1546q82 -106 82 -278q0 -173 -82 -279t-217 -106q-136 0 -219 105q-82 104 -82 280q0 175 82 279q83 106 219 106q134 0 217 -107zM218 1466q-48 -76 -48 -198q0 -71 14 -119l297 315q-49 78 -131 78q-84 0 -132 -76zM480 1071q48 77 48 197q0 70 -14 116l-295 -315
q47 -74 131 -74q82 0 130 76z" />
    <glyph glyph-name="backslash.case" horiz-adv-x="657" 
d="M190 1434l480 -1434h-170l-477 1434h167z" />
    <glyph glyph-name="periodcentered.case" horiz-adv-x="503" 
d="M168 798q32 31 84 31t84 -31q33 -32 33 -83t-33 -83q-34 -32 -84 -32t-84 32q-33 32 -33 83t33 83z" />
    <glyph glyph-name="colon.case" horiz-adv-x="421" 
d="M127 1127q34 32 84 32t84 -32q33 -31 33 -83q0 -50 -33 -82q-34 -32 -84 -32t-84 32q-33 32 -33 82q0 52 33 83zM127 359q34 32 84 32t84 -32q33 -32 33 -83q0 -50 -33 -82q-34 -32 -84 -32t-84 32q-33 32 -33 82q0 52 33 83z" />
    <glyph glyph-name="semicolon.case" horiz-adv-x="421" 
d="M308 329q44 -61 44 -149q0 -131 -77 -205q-75 -72 -212 -77v96q92 2 132 51q41 50 41 113q0 11 -3 26q-24 -24 -69 -24q-49 0 -78 28q-31 29 -31 82q0 50 36 85q35 34 99 34q74 0 118 -60zM121 1127q34 32 84 32t84 -32q33 -31 33 -83q0 -50 -33 -82q-34 -32 -84 -32
t-84 32q-33 32 -33 82q0 52 33 83z" />
    <glyph glyph-name="slash.case" horiz-adv-x="657" 
d="M483 1434h168l-477 -1434h-170z" />
    <glyph glyph-name="braceleft.case" horiz-adv-x="708" 
d="M458 1236q-48 -48 -48 -142q0 -54 10 -95q0 -4 1.5 -14.5l2.5 -17.5q2 -24 2 -43q0 -86 -47 -139q-45 -51 -119 -66q74 -18 121 -71t47 -136q0 -20 -8 -76q-10 -41 -10 -96q0 -94 48 -142q50 -50 150 -51h60v-147h-78q-160 0 -247 66t-87 219q0 18 8 92q8 66 8 80
q0 190 -206 190v144q206 0 206 188q0 15 -8 76q-8 70 -8 94q0 153 87 219t247 66h78v-148h-60q-101 -1 -150 -50z" />
    <glyph glyph-name="braceright.case" horiz-adv-x="708" 
d="M643 791v-144q-207 0 -207 -190q0 -14 8 -80q9 -83 9 -92q0 -153 -87 -219t-247 -66h-78v147h59q101 1 151 51q48 48 48 142q0 55 -10 96q-8 56 -8 76q0 83 47 136t121 71q-74 15 -119 66q-47 53 -47 139q0 19 2 43l2.5 17.5t1.5 14.5q10 41 10 95q0 94 -48 142t-151 50
h-59v148h78q160 0 247 -66t87 -219q0 -15 -9 -94q-8 -61 -8 -76q0 -188 207 -188z" />
    <glyph glyph-name="bracketleft.case" horiz-adv-x="620" 
d="M129 1434h451v-148h-293v-1139h293v-147h-451v1434z" />
    <glyph glyph-name="bracketright.case" horiz-adv-x="620" 
d="M492 1434v-1434h-451v147h293v1139h-293v148h451z" />
    <glyph glyph-name="parenleft.case" horiz-adv-x="534" 
d="M159 1103q57 192 148 331h176q-100 -143 -158 -335q-57 -189 -57 -382q0 -195 57 -384q58 -191 158 -333h-176q-90 136 -147 329q-58 195 -58 388q0 194 57 386z" />
    <glyph glyph-name="parenright.case" horiz-adv-x="534" 
d="M51 0q102 144 159 333q56 186 56 384q0 196 -56 382q-57 190 -159 335h176q93 -141 149 -331q56 -189 56 -386q0 -196 -57 -388q-56 -190 -148 -329h-176z" />
    <glyph glyph-name="emdash.case" horiz-adv-x="1906" 
d="M117 803h1673v-148h-1673v148z" />
    <glyph glyph-name="endash.case" horiz-adv-x="1226" 
d="M117 655v148h993v-148h-993z" />
    <glyph glyph-name="hyphen.case" horiz-adv-x="915" 
d="M117 655v148h682v-148h-682z" />
    <glyph glyph-name="guillemotleft.case" horiz-adv-x="1212" 
d="M614 1239l-321 -522l321 -522h-170l-325 522l325 522h170zM1094 1237l-322 -522l322 -522h-170l-326 522l326 522h170z" />
    <glyph glyph-name="guillemotright.case" horiz-adv-x="1212" 
d="M598 1239h170l326 -522l-326 -522h-170l322 522zM119 1237h170l325 -522l-325 -522h-170l321 522z" />
    <glyph glyph-name="guilsinglleft.case" horiz-adv-x="727" 
d="M434 1239h184l-321 -522l321 -522h-184l-325 522z" />
    <glyph glyph-name="guilsinglright.case" horiz-adv-x="727" 
d="M293 1239l325 -522l-325 -522h-184l321 522l-321 522h184z" />
    <glyph glyph-name="dotmath.case" horiz-adv-x="421" 
d="M127 818q34 32 84 32t84 -32q33 -32 33 -83t-33 -83q-32 -31 -84 -31t-84 31q-33 32 -33 83t33 83z" />
    <glyph glyph-name="plus.case" horiz-adv-x="1073" 
d="M459 1159h153v-358h342v-142h-342v-360h-153v360h-340v142h340v358z" />
    <glyph glyph-name="minus.case" horiz-adv-x="1073" 
d="M119 659v142h835v-142h-835z" />
    <glyph glyph-name="multiply.case" horiz-adv-x="1073" 
d="M240 1128l301 -301l297 299l100 -100l-297 -297l301 -301l-108 -109l-302 302l-296 -297l-101 100l299 297l-301 301z" />
    <glyph glyph-name="divide.case" horiz-adv-x="1073" 
d="M456 1194q33 31 83 31q48 0 81 -31q31 -30 31 -82t-31 -82q-33 -31 -81 -31q-50 0 -83 31q-32 30 -32 82t32 82zM119 659v142h835v-142h-835zM456 457q32 30 83 30q49 0 81 -30q31 -30 31 -82t-31 -82q-33 -31 -81 -31q-50 0 -83 31q-32 30 -32 82t32 82z" />
    <glyph glyph-name="equal.case" horiz-adv-x="1073" 
d="M139 850v143h795v-143h-795zM139 424v141h795v-141h-795z" />
    </font>
</defs>
</svg>
