<?xml version="1.0" standalone="no"?>
<!DOCTYPE svg PUBLIC "-//W3C//DTD SVG 1.1//EN" "http://www.w3.org/Graphics/SVG/1.1/DTD/svg11.dtd" >
<svg xmlns="http://www.w3.org/2000/svg" xmlns:xlink="http://www.w3.org/1999/xlink" version="1.1">
<metadata>
Created by FontForge 20201107 at Wed Dec 27 15:33:35 2023
 By 
Mark Bloom and Joe Leadbeater (c) 2018
</metadata>
<defs>
<font id="Aeonik-Light" horiz-adv-x="1083" >
  <font-face 
    font-family="Aeonik Light"
    font-weight="250"
    font-stretch="normal"
    units-per-em="2048"
    panose-1="2 1 5 3 3 3 0 0 0 0"
    ascent="1638"
    descent="-410"
    x-height="1038"
    cap-height="1434"
    bbox="-721 -422 4450 1837"
    underline-thickness="77"
    underline-position="-486"
    unicode-range="U+0020-1F10C"
  />
<missing-glyph horiz-adv-x="1269" 
d="M164 1434h942v-1573h-942v1573z" />
    <glyph glyph-name="fi" unicode="fi" horiz-adv-x="993" 
d="M868 0h-104v942h-467v-942h-104v942h-197v96h197v154q0 124 57 183t186 59h154v-97h-150q-78 0 -110 -32q-33 -33 -33 -111v-156h571v-1038zM870 1401q21 -21 21 -55q0 -33 -22 -55q-21 -21 -54 -21t-54 21q-22 22 -22 55q0 32 22 54q21 21 54 21q35 0 55 -20z" />
    <glyph glyph-name="f_f.liga" unicode="ff" horiz-adv-x="1173" 
d="M901 1305q-33 -33 -33 -111v-156h312v-96h-312v-942h-104v942h-467v-942h-104v942h-197v96h197v154q0 124 57 183t186 59h154v-97h-150q-78 0 -110 -32q-33 -33 -33 -111v-156h467v154q0 124 57 183t185 59h176v-97h-170q-79 0 -111 -32z" />
    <glyph glyph-name="f_f_i.liga" unicode="ffi" horiz-adv-x="1564" 
d="M1440 0h-107v942h-465v-942h-104v942h-467v-942h-104v942h-197v96h197v154q0 124 57 183t186 59h154v-97h-150q-78 0 -110 -32q-33 -33 -33 -111v-156h467v154q0 124 57 183t185 59h155v-97h-149q-79 0 -111 -32q-33 -33 -33 -111v-156h572v-1038zM1441 1400
q21 -21 21 -54q0 -34 -21 -55t-55 -21q-33 0 -54 21t-21 55q0 33 21 54t54 21q34 0 55 -21z" />
    <glyph glyph-name="f_f_t.liga" unicode="fft" horiz-adv-x="1755" 
d="M1735 96v-96h-158q-130 0 -187 57t-57 185v700h-465v-942h-104v942h-467v-942h-104v942h-197v96h197v154q0 124 57 183t186 59h154v-97h-150q-78 0 -110 -32q-33 -33 -33 -111v-156h467v154q0 124 57 183t185 59h155v-97h-149q-79 0 -111 -32q-33 -33 -33 -111v-156h465
v291h107v-291h274v-96h-274v-698q0 -80 33 -114t110 -34h152z" />
    <glyph glyph-name="f_t.liga" unicode="ft" horiz-adv-x="1183" 
d="M1163 96v-96h-157q-132 0 -187 57q-55 56 -55 185v700h-467v-942h-104v942h-197v96h197v154q0 124 57 183t186 59h154v-97h-150q-78 0 -110 -32q-33 -33 -33 -111v-156h467v291h104v-291h277v-96h-277v-698q0 -80 33 -114t111 -34h151z" />
    <glyph glyph-name="t_t.liga" unicode="tt" horiz-adv-x="1183" 
d="M1163 96v-96h-157q-132 0 -187 57q-55 56 -55 185v700h-467v-698q0 -80 33 -114t110 -34h125v-96h-129q-130 0 -187 57q-56 56 -56 185v700h-197v96h197v291h104v-291h467v291h104v-291h277v-96h-277v-698q0 -80 33 -114t111 -34h151z" />
    <glyph glyph-name=".notdef" horiz-adv-x="1269" 
d="M164 1434h942v-1573h-942v1573z" />
    <glyph glyph-name=".null" horiz-adv-x="0" 
 />
    <glyph glyph-name="nonmarkingreturn" horiz-adv-x="682" 
 />
    <glyph glyph-name="space" unicode=" " horiz-adv-x="552" 
 />
    <glyph glyph-name="exclam" unicode="!" horiz-adv-x="452" 
d="M186 418l-16 1016h113l-15 -1016h-82zM169 123q20 20 56 20q37 0 58 -20q22 -21 22 -55q0 -36 -22 -57q-23 -21 -58 -21t-56 21q-22 22 -22 57q0 33 22 55z" />
    <glyph glyph-name="quotedbl" unicode="&#x22;" horiz-adv-x="704" 
d="M136 1420q15 20 44 20q31 0 47 -19q15 -17 13 -49l-21 -393h-76l-20 393q-2 29 13 48zM480 1420q15 20 44 20q31 0 47 -19q15 -17 13 -49l-21 -393h-76l-20 393q-2 29 13 48z" />
    <glyph glyph-name="numbersign" unicode="#" horiz-adv-x="1202" 
d="M453 1241h86l-58 -377h310l59 377h88l-59 -377h227v-88h-240l-45 -311h238v-88h-252l-57 -377h-88l57 377h-309l-58 -377h-88l58 377h-226v88h238l47 311h-240v88h252zM469 776l-47 -311h311l45 311h-309z" />
    <glyph glyph-name="dollar" unicode="$" horiz-adv-x="1222" 
d="M1004 113q-123 -111 -328 -123v-209h-98v209q-214 15 -342 136q-130 122 -140 316h111q11 -162 125 -257q115 -95 297 -95q177 0 281 79q106 80 106 216q0 99 -57 156q-59 59 -144 85q-92 28 -225 50q-144 24 -240 60q-97 37 -160 111q-63 75 -63 204q0 173 122 281
q122 109 329 116v207h98v-211q184 -16 300 -126q115 -109 130 -278l-109 -2q-18 142 -123 226t-266 84q-169 0 -270 -77q-100 -76 -100 -214q0 -96 53 -152t134 -80q89 -26 222 -49q142 -22 245 -60q101 -37 168 -116q66 -78 66 -207q0 -170 -122 -280z" />
    <glyph glyph-name="percent" unicode="%" horiz-adv-x="1802" 
d="M172 1277q45 79 124 124q80 45 175 45q97 0 177 -45q79 -45 124 -124q45 -80 45 -175q0 -96 -45 -175q-45 -80 -124 -123q-80 -44 -177 -44q-95 0 -175 44q-79 43 -124 123q-45 79 -45 175t45 175zM369 0l964 1434h105l-967 -1434h-102zM651 1286q-72 74 -180 74
q-106 0 -178 -74t-72 -184t71 -183t179 -73q107 0 180 73q72 72 72 183q0 110 -72 184zM1030 505q45 79 124 124q80 45 177 45q95 0 175 -45q79 -45 124 -124q45 -80 45 -175q0 -96 -45 -175q-45 -80 -124 -123q-80 -44 -175 -44q-97 0 -177 44q-79 43 -124 123
q-45 79 -45 175t45 175zM1509 514q-72 74 -178 74q-108 0 -180 -74t-72 -184q0 -112 72 -184t180 -72q109 0 179 72q71 73 71 184q0 110 -72 184z" />
    <glyph glyph-name="ampersand" unicode="&#x26;" horiz-adv-x="1460" 
d="M1372 94v-94h-143q-132 0 -195 78l-100 119q-179 -209 -416 -209q-183 0 -301 97q-119 98 -119 267q0 265 351 416q-88 109 -121 180q-35 75 -35 168q0 92 48 168q47 75 133 119q85 43 190 43q87 0 159 -39t113 -107t41 -151q0 -124 -87 -223q-86 -98 -286 -183l12 -14
l320 -375l278 420h111l-326 -495l103 -119q29 -38 63 -52t78 -14h129zM472 1288q-71 -68 -71 -170q0 -79 33 -145q33 -65 115 -164q168 73 246 154q75 78 75 184q0 89 -60 149t-155 60q-112 0 -183 -68zM711 129q87 45 161 139l-340 402l-30 35q-163 -78 -230 -156
q-67 -77 -67 -189q0 -128 88 -203q89 -75 227 -75q100 0 191 47z" />
    <glyph glyph-name="quotesingle" unicode="'" horiz-adv-x="362" 
d="M136 1420q15 20 44 20q31 0 47 -19q15 -17 13 -49l-21 -393h-76l-20 393q-2 29 13 48z" />
    <glyph glyph-name="parenleft" unicode="(" horiz-adv-x="575" 
d="M555 1434q-182 -251 -260 -459q-76 -204 -76 -463t76 -462q77 -206 260 -460h-111q-172 235 -250 451q-77 214 -77 471t77 470q77 214 250 452h111z" />
    <glyph glyph-name="parenright" unicode=")" horiz-adv-x="575" 
d="M388 982q77 -213 77 -470t-77 -471t-251 -451h-110q183 254 260 460q75 200 75 462t-75 463q-78 208 -260 459h110q175 -241 251 -452z" />
    <glyph glyph-name="asterisk" unicode="*" horiz-adv-x="860" 
d="M750 1192l-263 -100l181 -213l-58 -52l-182 224l-178 -224l-57 52l180 215l-260 100l28 72l254 -111l-2 281h74l-2 -281l254 111z" />
    <glyph glyph-name="plus" unicode="+" 
d="M492 1008h96v-375h358v-88h-358v-375h-96v375h-357v88h357v375z" />
    <glyph glyph-name="comma" unicode="," horiz-adv-x="376" 
d="M257 93q36 -50 36 -120q0 -103 -63 -167q-62 -64 -167 -68v61q73 1 114 50q40 47 40 112q0 35 -18 53q-15 -24 -52 -24q-31 0 -51 19t-20 54t24 58q23 22 66 22q55 0 91 -50z" />
    <glyph glyph-name="hyphen" unicode="-" horiz-adv-x="903" 
d="M121 539v86h661v-86h-661z" />
    <glyph glyph-name="period" unicode="." horiz-adv-x="376" 
d="M132 123q20 20 56 20q37 0 57 -20q21 -21 21 -55q0 -36 -21 -57t-57 -21q-35 0 -56 21t-21 57q0 34 21 55z" />
    <glyph glyph-name="slash" unicode="/" horiz-adv-x="643" 
d="M-29 -410l600 1844h101l-600 -1844h-101z" />
    <glyph glyph-name="zero" unicode="0" horiz-adv-x="1257" 
d="M113 750q0 204 64 360q66 160 182 247q119 89 270 89q150 0 269 -89q116 -87 182 -247q65 -159 65 -360v-66q0 -206 -65 -366q-64 -159 -181 -244q-118 -86 -270 -86q-153 0 -271 86q-117 85 -181 244q-64 158 -64 366v66zM986 1062q-49 135 -143 211q-93 75 -214 75
q-123 0 -216 -75q-95 -77 -144 -211q-50 -138 -50 -317v-57q0 -178 50 -316q49 -134 144 -211q93 -75 216 -75q121 0 214 75q94 76 143 211q50 138 50 316v57q0 179 -50 317z" />
    <glyph glyph-name="one" unicode="1" horiz-adv-x="616" 
d="M451 1434v-1434h-107v1069q-27 -33 -94 -33h-244v97h246q47 0 71 28q23 27 23 80v193h105z" />
    <glyph glyph-name="two" unicode="2" horiz-adv-x="1144" 
d="M645 598q82 73 143 138q56 58 93 132q36 71 36 158q0 152 -96 239t-260 87q-160 0 -256 -98t-96 -263v-28h-107v34q0 134 57 236q58 104 160 159q103 56 242 56q217 0 342 -113t125 -303q0 -100 -41 -187q-41 -88 -103 -152q-67 -70 -169 -165l-477 -430h806v-98h-954v92
z" />
    <glyph glyph-name="three" unicode="3" horiz-adv-x="1218" 
d="M1011 629q97 -90 97 -240q0 -115 -64 -208q-62 -90 -178 -142q-114 -51 -262 -51q-227 0 -363 115q-137 116 -137 317h109q1 -155 111 -246q108 -90 286 -90q112 0 199 40q90 41 138 110q50 71 50 161q0 138 -106 214q-107 77 -295 77h-111v92h105q171 0 271 83t100 212
q0 123 -99 200q-100 77 -254 77q-159 0 -258 -81t-100 -220h-107q1 186 128 291q127 106 333 106q142 0 246 -46q105 -47 162 -130q57 -84 57 -193q0 -136 -82 -225q-84 -91 -223 -115q149 -18 247 -108z" />
    <glyph glyph-name="four" unicode="4" horiz-adv-x="1220" 
d="M55 473l746 961h127v-959h243v-98h-243v-377h-109v377h-764v96zM170 475h649v836z" />
    <glyph glyph-name="five" unicode="5" horiz-adv-x="1193" 
d="M874 889q104 -61 163 -170t59 -246q0 -150 -67 -261q-65 -108 -178 -166q-109 -56 -243 -56q-147 0 -254 58q-109 59 -169 159q-61 102 -68 221h106q15 -145 117 -244q101 -98 268 -98q100 0 188 44q86 43 139 132q52 88 52 209q0 111 -45 198t-130 136t-196 49
q-114 0 -218 -54q-102 -53 -146 -171l-105 4l52 801h805v-99h-707l-41 -573q62 94 165 141q105 47 214 47q135 0 239 -61z" />
    <glyph glyph-name="six" unicode="6" horiz-adv-x="1230" 
d="M139 452q-26 121 -26 265q0 217 60 382q60 164 177 256q116 91 285 91q187 0 305 -105q119 -105 147 -276h-108q-27 132 -115 209q-88 78 -233 78q-207 0 -317 -170q-109 -169 -109 -447q0 -98 20 -184q0 36 4 55q28 150 144 243q113 91 282 91q140 0 243 -59
q107 -61 164 -167q58 -107 58 -249q0 -138 -60 -246t-169 -170q-107 -61 -250 -61q-145 0 -253 63t-171 180q-51 94 -78 221zM914 740q-100 106 -267 106q-111 0 -197 -49q-88 -50 -136 -137t-48 -197q0 -170 104 -276q104 -105 271 -105q168 0 270 106q103 108 103 277
t-100 275z" />
    <glyph glyph-name="seven" unicode="7" horiz-adv-x="1077" 
d="M29 1434h991v-78l-744 -1356h-116l743 1335h-874v99z" />
    <glyph glyph-name="eight" unicode="8" horiz-adv-x="1224" 
d="M1017 617q97 -97 97 -242q0 -113 -61 -201q-61 -87 -175 -137q-113 -49 -266 -49q-150 0 -263 49q-114 50 -175 137q-61 88 -61 201q0 144 95 242q94 97 251 124q-134 22 -220 113q-85 89 -85 221q0 110 56 194q57 86 161 132q106 47 241 47q136 0 242 -47
q104 -46 161 -132q56 -84 56 -194q0 -129 -86 -221t-219 -113q154 -27 251 -124zM358 871q97 -78 254 -78q158 0 255 78q100 80 100 204t-100 203q-99 78 -255 78q-155 0 -254 -78q-98 -77 -98 -203q0 -125 98 -204zM815 116q91 38 141 106q52 70 52 157t-52 159
q-50 69 -141 110q-89 40 -203 40q-116 0 -203 -40q-92 -42 -140 -110q-50 -71 -50 -159q0 -87 50 -157q48 -67 141 -106q91 -38 202 -38q112 0 203 38z" />
    <glyph glyph-name="nine" unicode="9" horiz-adv-x="1230" 
d="M1091 984q27 -124 27 -255q0 -350 -137 -546q-137 -195 -387 -195q-186 0 -310 102q-124 101 -151 283h107q29 -138 120 -214q92 -77 238 -77q202 0 313 163q112 164 113 451q2 95 -18 187q0 -33 -5 -58q-28 -148 -143 -240q-113 -91 -280 -91q-140 0 -243 59
q-107 61 -164 167q-58 107 -58 249q0 138 60 246q59 107 170 169q110 62 251 62q144 0 252 -66q109 -66 170 -180q49 -97 75 -216zM317 694q98 -104 267 -104q112 0 198 48t134 135q49 89 49 200q0 167 -102 272q-103 106 -267 107q-171 0 -274 -106t-103 -277t98 -275z" />
    <glyph glyph-name="colon" unicode=":" horiz-adv-x="376" 
d="M132 928q20 20 56 20q37 0 57 -20q21 -21 21 -56t-21 -56t-57 -21q-35 0 -56 21t-21 56t21 56zM132 123q20 20 56 20q37 0 57 -20q21 -21 21 -55q0 -36 -21 -57t-57 -21q-35 0 -56 21t-21 57q0 34 21 55z" />
    <glyph glyph-name="semicolon" unicode=";" horiz-adv-x="376" 
d="M257 93q36 -50 36 -120q0 -103 -63 -167q-62 -64 -167 -68v61q73 1 114 50q40 47 40 112q0 35 -18 53q-15 -24 -52 -24q-31 0 -51 19t-20 54t24 58q23 22 66 22q55 0 91 -50zM128 928q20 20 56 20q37 0 57 -20q21 -21 21 -56t-21 -56t-57 -21q-35 0 -56 21q-22 22 -22 56
t22 56z" />
    <glyph glyph-name="less" unicode="&#x3c;" 
d="M162 530v103l760 354v-102l-643 -303l643 -301v-105z" />
    <glyph glyph-name="equal" unicode="=" 
d="M156 727v90h770v-90h-770zM156 307v88h770v-88h-770z" />
    <glyph glyph-name="greater" unicode="&#x3e;" 
d="M922 633v-103l-760 -354v105l643 301l-643 303v102z" />
    <glyph glyph-name="question" unicode="?" horiz-adv-x="1028" 
d="M138 1227q54 102 154 161q98 58 232 58q123 0 216 -45q94 -45 145 -125t51 -178q0 -118 -50 -197q-49 -77 -138 -145q-7 -6 -76 -57q-65 -48 -94 -97q-31 -53 -31 -110v-72h-98v82q0 76 29 127q32 55 66 84q48 40 124 98q77 59 118 123t41 153q0 113 -84 187
q-85 74 -217 74q-151 0 -243 -98q-93 -99 -93 -255h-106q0 130 54 232zM443 123q20 20 57 20q36 0 56 -20q22 -22 22 -55q0 -35 -22 -57q-21 -21 -56 -21q-36 0 -57 21t-21 57q0 34 21 55z" />
    <glyph glyph-name="at" unicode="@" horiz-adv-x="2013" 
d="M239 956q126 203 341 320q214 117 471 117q242 0 439 -96q194 -95 302 -264q109 -171 109 -382q0 -154 -56 -281t-151 -197q-97 -71 -213 -71q-89 0 -143 52q-52 51 -52 137v51q-38 -110 -135 -173q-100 -65 -219 -65q-99 0 -184 51q-81 49 -128 138t-47 199
q0 127 60 235q61 109 160 173q101 65 215 65q121 0 203 -58q81 -57 102 -149l28 188h82l-59 -592q-2 -14 -2 -32q0 -69 36 -107q36 -37 101 -37q82 0 151 63t109 172q41 111 41 240q0 191 -94 339q-95 149 -265 231t-390 82q-226 0 -420 -106q-193 -105 -305 -288
q-113 -184 -113 -401q0 -223 99 -392q98 -168 281 -260q181 -91 421 -91q139 0 262 34q121 33 219 99l-2 -95q-84 -58 -213 -92q-132 -35 -274 -35q-262 0 -465 104q-204 104 -316 292t-112 434t126 448zM1221 810q-74 77 -195 77q-95 0 -177 -53q-80 -52 -129 -144
q-48 -90 -48 -194q0 -137 77 -226q76 -88 203 -88q96 0 176 54q78 53 122 149q44 97 44 219q0 130 -73 206z" />
    <glyph glyph-name="A" unicode="A" horiz-adv-x="1306" 
d="M35 0l553 1434h131l553 -1434h-119l-172 438h-659l-172 -438h-115zM354 541h594l-297 772z" />
    <glyph glyph-name="B" unicode="B" horiz-adv-x="1259" 
d="M637 1434q214 0 332 -97q116 -95 116 -268q0 -132 -70 -217q-71 -86 -202 -115q163 -28 249 -111q89 -86 89 -237q0 -183 -130 -286t-376 -103h-498v1434h490zM258 782h383q159 0 247 74q87 74 87 203q0 130 -87 202t-247 72h-383v-551zM258 100h387q191 0 291 78
t100 215q0 141 -102 215q-103 74 -289 74h-387v-582z" />
    <glyph glyph-name="C" unicode="C" horiz-adv-x="1437" 
d="M178 1096q82 166 234 258t350 92q227 0 381 -119q153 -118 198 -334h-110q-45 167 -170 259q-124 91 -305 91q-165 0 -287 -79t-190 -223t-68 -324q0 -181 68 -325q68 -143 190 -222q124 -80 287 -80q184 0 306 90q122 91 167 262h110q-46 -217 -197 -336
q-149 -118 -380 -118q-199 0 -350 91q-152 92 -234 257t-82 381q0 214 82 379z" />
    <glyph glyph-name="D" unicode="D" horiz-adv-x="1349" 
d="M147 1434h385q227 0 388 -88q162 -88 247 -250q86 -163 86 -379t-86 -379q-85 -162 -247 -250q-161 -88 -388 -88h-385v1434zM532 102q290 0 449 165q160 166 160 450q0 287 -159 450q-159 164 -450 164h-274v-1229h274z" />
    <glyph glyph-name="E" unicode="E" horiz-adv-x="1118" 
d="M147 1434h883v-103h-772v-549h647v-102h-647v-578h799v-102h-910v1434z" />
    <glyph glyph-name="F" unicode="F" horiz-adv-x="1046" 
d="M147 1434h852v-103h-741v-567h619v-102h-619v-662h-111v1434z" />
    <glyph glyph-name="G" unicode="G" horiz-adv-x="1513" 
d="M178 1096q83 167 232 258q151 92 350 92q225 0 379 -119q153 -119 200 -334h-108q-49 168 -172 259q-122 91 -303 91q-165 0 -287 -79t-190 -223t-68 -324q0 -183 66 -325q65 -141 189 -222q122 -80 279 -80q156 0 272 65q114 64 178 176q62 109 62 253v61h-471v103h578
v-748h-92l-10 328q-50 -142 -185 -242q-132 -98 -334 -98q-187 0 -335 92t-230 258q-82 165 -82 379t82 379z" />
    <glyph glyph-name="H" unicode="H" horiz-adv-x="1345" 
d="M147 1436h111v-654h829v654h111v-1436h-111v680h-829v-680h-111v1436z" />
    <glyph glyph-name="I" unicode="I" horiz-adv-x="405" 
d="M147 1434h111v-1434h-111v1434z" />
    <glyph glyph-name="J" unicode="J" horiz-adv-x="694" 
d="M547 1434v-1135q0 -299 -299 -299h-191v104h176q106 0 155 49q48 48 48 154v1127h111z" />
    <glyph glyph-name="K" unicode="K" horiz-adv-x="1249" 
d="M147 1434h111v-904l793 904h135l-520 -600l567 -834h-133l-514 750l-328 -375v-375h-111v1434z" />
    <glyph glyph-name="L" unicode="L" horiz-adv-x="991" 
d="M147 0v1434h111v-1332h686v-102h-797z" />
    <glyph glyph-name="M" unicode="M" horiz-adv-x="1685" 
d="M147 1434h142l557 -1284l553 1284h139v-1434h-108v1247l-537 -1247h-100l-537 1247v-1247h-109v1434z" />
    <glyph glyph-name="N" unicode="N" horiz-adv-x="1355" 
d="M147 0v1434h105l848 -1231v1231h108v-1434h-104l-848 1233v-1233h-109z" />
    <glyph glyph-name="O" unicode="O" horiz-adv-x="1533" 
d="M1351 341q-86 -168 -238 -260q-153 -93 -347 -93t-347 93q-152 92 -238 260q-85 166 -85 376t85 376q86 168 238 260q153 93 347 93t347 -93q152 -92 238 -260q85 -166 85 -376t-85 -376zM282 392q71 -143 196 -222q127 -80 288 -80t289 80q126 79 197 222q71 144 71 325
q0 180 -71 324q-72 145 -197 223q-127 79 -289 79q-163 0 -288 -79t-196 -223t-71 -324q0 -181 71 -325z" />
    <glyph glyph-name="P" unicode="P" horiz-adv-x="1179" 
d="M680 1434q133 0 236 -53q102 -53 157 -146q55 -94 55 -219q0 -124 -55 -218q-56 -96 -158 -148q-101 -52 -235 -52h-422v-598h-111v1434h533zM258 700h412q158 0 252 87t94 229q0 141 -93 228t-251 87h-414v-631z" />
    <glyph glyph-name="Q" unicode="Q" horiz-adv-x="1538" 
d="M1497 102v-102h-115q-77 0 -118 20q-43 21 -82 76l-15 21q-169 -129 -401 -129q-194 0 -347 93q-152 92 -238 260q-85 166 -85 376t85 376q86 168 238 260q153 93 347 93t347 -93q152 -92 238 -260q85 -166 85 -376q0 -155 -51 -296q-49 -134 -142 -235l4 -6
q33 -46 64 -62q32 -16 84 -16h102zM1106 205l-74 104q-33 43 -61 61q-27 17 -72 17h-123v102h139q66 0 103 -20q40 -21 80 -78l80 -112q70 84 107 194q38 114 38 244q0 180 -71 324q-72 145 -197 223q-127 79 -289 79q-163 0 -288 -79t-196 -223t-71 -324q0 -181 71 -325
q71 -143 196 -222q127 -80 288 -80q195 0 340 115z" />
    <glyph glyph-name="R" unicode="R" horiz-adv-x="1218" 
d="M678 1434q205 0 328 -114q122 -113 122 -304q0 -158 -91 -264q-92 -107 -244 -134l340 -618h-125l-326 598h-424v-598h-111v1434h531zM258 700h412q157 0 252 86q94 85 94 230q0 144 -93 229q-94 86 -251 86h-414v-631z" />
    <glyph glyph-name="S" unicode="S" horiz-adv-x="1222" 
d="M207 442q11 -162 125 -257q115 -95 297 -95q177 0 281 79q106 80 106 216q0 99 -57 156q-59 59 -144 85q-92 28 -225 50q-144 24 -240 60q-97 37 -160 111q-63 75 -63 204q0 121 59 209q60 90 169 139q108 49 253 49q212 0 347 -112t151 -296l-109 -2q-18 142 -123 226
t-266 84q-169 0 -270 -77q-100 -76 -100 -214q0 -96 53 -152t134 -80q89 -26 222 -49q142 -22 245 -60q101 -37 168 -116q66 -78 66 -207q0 -121 -62 -211q-64 -93 -175 -143q-113 -51 -262 -51q-158 0 -274 56q-118 57 -184 160q-67 105 -73 238h111z" />
    <glyph glyph-name="T" unicode="T" horiz-adv-x="1187" 
d="M47 1434h1094v-103h-492v-1331h-110v1331h-492v103z" />
    <glyph glyph-name="U" unicode="U" horiz-adv-x="1331" 
d="M252 1434v-848q0 -251 100 -373q100 -123 312 -123t314 123q101 122 101 373v848h111v-842q0 -604 -526 -604q-523 0 -523 604v842h111z" />
    <glyph glyph-name="V" unicode="V" horiz-adv-x="1259" 
d="M29 1434h116l486 -1303l485 1303h115l-535 -1434h-133z" />
    <glyph glyph-name="W" unicode="W" horiz-adv-x="1996" 
d="M59 1434h117l383 -1289l387 1289h113l377 -1289l387 1289h114l-436 -1434h-133l-371 1249l-370 -1249h-133z" />
    <glyph glyph-name="X" unicode="X" horiz-adv-x="1269" 
d="M567 733l-471 701h129l414 -613l416 613h119l-472 -701l502 -733h-131l-442 643l-445 -643h-120z" />
    <glyph glyph-name="Y" unicode="Y" horiz-adv-x="1265" 
d="M29 1436h129l475 -787l479 787h125l-549 -908v-528h-110v528z" />
    <glyph glyph-name="Z" unicode="Z" horiz-adv-x="1241" 
d="M111 1434h1048v-82l-946 -1250h963v-102h-1110v82l946 1249h-901v103z" />
    <glyph glyph-name="bracketleft" unicode="[" horiz-adv-x="583" 
d="M141 1436h400v-95h-301v-1658h301v-93h-400v1846z" />
    <glyph glyph-name="backslash" unicode="\" horiz-adv-x="643" 
d="M672 -410h-101l-600 1844h101z" />
    <glyph glyph-name="bracketright" unicode="]" horiz-adv-x="583" 
d="M442 -412h-399v95h301v1658h-301v93h399v-1846z" />
    <glyph glyph-name="asciicircum" unicode="^" horiz-adv-x="1040" 
d="M98 795l377 639h88l379 -639h-98l-328 546l-323 -546h-95z" />
    <glyph glyph-name="underscore" unicode="_" horiz-adv-x="1030" 
d="M131 -117v105h768v-105h-768z" />
    <glyph glyph-name="grave" unicode="`" horiz-adv-x="819" 
d="M143 1434h123l185 -271h-86z" />
    <glyph glyph-name="a" unicode="a" horiz-adv-x="1095" 
d="M1079 96v-96h-61q-90 0 -132 45t-38 127v43q-46 -103 -148 -166q-100 -61 -249 -61q-168 0 -269 80q-100 79 -100 217q0 147 105 228t305 81h352v90q0 130 -81 202t-226 72q-129 0 -210 -57t-102 -153h-104q21 142 131 222q111 81 289 81q193 0 301 -97q106 -96 106 -274
v-483q0 -46 25 -74q24 -27 67 -27h39zM844 504h-361q-143 0 -219 -55t-76 -158q0 -96 73 -155q71 -58 196 -58q179 0 283 95t104 247v84z" />
    <glyph glyph-name="b" unicode="b" horiz-adv-x="1202" 
d="M878 986q112 -65 174 -185t62 -281q0 -156 -62 -276q-63 -122 -174 -189q-110 -67 -253 -67q-144 0 -246 66q-103 67 -150 182l-16 -236h-90v1434h104v-637q51 114 154 184t244 70t253 -65zM820 137q88 55 138 156q50 102 50 227q0 126 -50 226q-50 99 -138 156
q-87 56 -204 56q-116 0 -203 -56q-90 -58 -139 -156t-49 -224q0 -130 49 -229q49 -100 139 -156q88 -55 203 -55q116 0 204 55z" />
    <glyph glyph-name="c" unicode="c" horiz-adv-x="1107" 
d="M871 81q-119 -93 -291 -93q-147 0 -257 67q-112 68 -173 189q-62 122 -62 278t63 276t175 186q114 67 258 67q172 0 290 -94q118 -93 146 -252h-105q-27 117 -116 185t-219 68q-114 0 -200 -55q-87 -55 -136 -154q-49 -98 -49 -227q0 -128 49 -227q49 -100 136 -157
q85 -56 200 -56q129 0 219 69q89 68 116 185h105q-30 -162 -149 -255z" />
    <glyph glyph-name="d" unicode="d" horiz-adv-x="1202" 
d="M1079 1434v-1434h-90l-16 236q-51 -113 -154 -181q-101 -67 -241 -67q-144 0 -253 65q-111 66 -174 186t-63 281q0 153 63 275q62 120 174 188t253 68q143 0 245 -66q103 -66 152 -180v629h104zM790 137q88 55 138 155q49 98 49 226t-49 227q-49 100 -138 157
q-87 56 -204 56t-204 -56q-88 -57 -138 -156q-49 -98 -49 -226t49 -227q50 -101 138 -156t204 -55t204 55z" />
    <glyph glyph-name="e" unicode="e" horiz-adv-x="1134" 
d="M148 797q59 120 170 187t249 67q137 0 244 -59q106 -58 169 -169q62 -110 67 -262q0 -13 -3 -43h-845q-2 -10 -2 -24q1 -121 51 -214q50 -94 135 -146t195 -52q126 0 221 71t125 191h106q-38 -160 -157 -258t-287 -98q-146 0 -259 67t-176 189q-63 121 -63 276t60 277z
M938 606q-15 169 -114 260q-100 92 -255 92q-94 0 -174 -44t-131 -123q-52 -80 -59 -185h733z" />
    <glyph glyph-name="f" unicode="f" horiz-adv-x="602" 
d="M193 1038v154q0 124 57 183t186 59h174v-97h-170q-78 0 -110 -32q-33 -33 -33 -111v-156h311v-96h-311v-942h-104v942h-197v96h197z" />
    <glyph glyph-name="g" unicode="g" horiz-adv-x="1202" 
d="M1079 1038v-975q0 -245 -121 -365q-122 -120 -372 -120q-194 0 -316 88q-123 88 -147 252h108q24 -115 120 -181q95 -65 243 -65q191 0 287 96q94 94 94 300v182q-52 -124 -153 -193q-102 -69 -244 -69q-144 0 -253 65q-111 66 -174 186t-63 281q0 156 63 277t174 187
q113 67 253 67t243 -68t152 -186l16 241h90zM790 137q88 55 138 155q49 98 49 226q0 131 -49 230t-138 155q-88 55 -204 55t-204 -55q-89 -56 -138 -155t-49 -228q0 -128 49 -227q50 -101 138 -156t204 -55t204 55z" />
    <glyph glyph-name="h" unicode="h" horiz-adv-x="1122" 
d="M900 934q112 -118 112 -352v-582h-105v578q0 182 -85 279t-236 97q-167 0 -262 -119q-97 -121 -97 -323v-512h-104v1434h104v-641q46 118 142 188t233 70q187 0 298 -117z" />
    <glyph glyph-name="i" unicode="i" horiz-adv-x="350" 
d="M227 1399q21 -21 21 -53q0 -33 -21 -54q-20 -20 -53 -20q-32 0 -52 20q-22 22 -22 54q0 31 22 53q20 20 52 20q33 0 53 -20zM123 1038h104v-1038h-104v1038z" />
    <glyph glyph-name="j" unicode="j" horiz-adv-x="362" 
d="M240 1399q20 -20 20 -53q0 -34 -20 -54t-54 -20q-32 0 -52 20q-21 21 -21 54q0 32 21 53q20 20 52 20q34 0 54 -20zM-8 -313q78 0 110 32q33 33 33 111v1208h105v-1206q0 -123 -58 -183q-57 -59 -186 -59h-127v97h123z" />
    <glyph glyph-name="k" unicode="k" horiz-adv-x="1017" 
d="M123 1434h104v-1022l607 626h127l-416 -430l450 -608h-127l-397 532l-244 -249v-283h-104v1434z" />
    <glyph glyph-name="l" unicode="l" horiz-adv-x="350" 
d="M123 1434h104v-1434h-104v1434z" />
    <glyph glyph-name="m" unicode="m" horiz-adv-x="1773" 
d="M1560 936q105 -114 105 -342v-594h-106v588q0 178 -76 272t-213 94q-146 0 -233 -105q-86 -104 -91 -284v-565h-104v588q0 177 -77 272q-76 94 -216 94q-148 0 -236 -116t-88 -310v-528h-102v1038h90l16 -223q40 105 127 171q86 65 211 65q124 0 215 -67q90 -66 127 -193
q46 120 142 190t231 70q172 0 278 -115z" />
    <glyph glyph-name="n" unicode="n" horiz-adv-x="1120" 
d="M900 934q112 -118 112 -352v-582h-105v578q0 182 -85 279t-236 97q-167 0 -262 -119q-97 -121 -97 -323v-512h-104v1038h90l16 -221q46 106 142 170t231 64q187 0 298 -117z" />
    <glyph glyph-name="o" unicode="o" horiz-adv-x="1173" 
d="M328 55q-113 68 -176 189q-64 123 -64 276q0 154 64 276q62 119 176 187q113 68 258 68q144 0 259 -68q114 -68 177 -187q63 -120 63 -276q0 -154 -63 -276t-177 -189q-113 -67 -259 -67t-258 67zM791 137q89 55 139 156q49 99 49 227t-49 226q-50 99 -139 156
q-88 56 -205 56t-204 -56q-88 -57 -138 -156q-49 -98 -49 -226t49 -227q50 -101 138 -156t204 -55t205 55z" />
    <glyph glyph-name="p" unicode="p" horiz-adv-x="1202" 
d="M878 986q112 -65 174 -185t62 -281q0 -156 -62 -276q-63 -122 -174 -189q-110 -67 -253 -67q-146 0 -249 67q-104 68 -149 185v-650h-104v1448h90l16 -237q51 115 153 182q103 68 243 68q141 0 253 -65zM820 137q88 55 138 156q50 102 50 227q0 126 -50 226
q-50 99 -138 156q-87 56 -204 56q-116 0 -203 -56q-90 -58 -139 -156t-49 -224q0 -130 49 -229q49 -100 139 -156q88 -55 203 -55q116 0 204 55z" />
    <glyph glyph-name="q" unicode="q" horiz-adv-x="1202" 
d="M1079 1038v-1448h-104v650q-51 -114 -154 -184q-101 -68 -243 -68q-144 0 -253 65q-111 66 -174 186t-63 281q0 153 63 275q62 120 174 188t253 68t243 -66q103 -67 152 -176l16 229h90zM790 137q88 55 138 155q49 98 49 226t-49 227q-49 100 -138 157q-87 56 -204 56
t-204 -56q-88 -57 -138 -156q-49 -98 -49 -226t49 -227q50 -101 138 -156t204 -55t204 55z" />
    <glyph glyph-name="r" unicode="r" horiz-adv-x="638" 
d="M594 1038v-100h-68q-167 0 -233 -114t-66 -298v-526h-104v1038h90l16 -207q38 97 111 152t207 55h47z" />
    <glyph glyph-name="s" unicode="s" horiz-adv-x="1009" 
d="M190 319q6 -112 97 -177q89 -64 237 -64q130 0 213 55q84 55 84 146q0 71 -40 111q-39 39 -103 57q-59 17 -170 34q-130 18 -213 42t-135 79q-54 57 -54 154q0 83 51 153q50 69 137 106q88 38 198 38q179 0 289 -79q111 -80 126 -229h-104q-15 101 -97 159
q-83 59 -208 59q-129 0 -209 -56t-80 -143q0 -68 40 -105q38 -36 97 -51q40 -10 166 -28q128 -17 219 -46q85 -27 140 -88t55 -161q0 -135 -116 -216q-115 -81 -286 -81q-196 0 -315 87t-123 244h104z" />
    <glyph glyph-name="t" unicode="t" horiz-adv-x="612" 
d="M193 942h-197v96h197v291h104v-291h276v-96h-276v-698q0 -80 33 -114t110 -34h152v-96h-156q-130 0 -187 57q-56 56 -56 185v700z" />
    <glyph glyph-name="u" unicode="u" horiz-adv-x="1103" 
d="M981 1038v-1038h-92l-15 219q-46 -105 -139 -169q-90 -62 -225 -62q-182 0 -290 117q-109 118 -109 352v581h104v-575q0 -185 82 -282t229 -97q162 0 256 120q95 121 95 324v510h104z" />
    <glyph glyph-name="v" unicode="v" horiz-adv-x="974" 
d="M18 1038h113l358 -917l357 917h108l-405 -1038h-125z" />
    <glyph glyph-name="w" unicode="w" horiz-adv-x="1591" 
d="M23 1038h110l303 -913l314 913h98l295 -913l319 913h107l-369 -1038h-113l-292 872l-306 -872l-114 -2z" />
    <glyph glyph-name="x" unicode="x" horiz-adv-x="980" 
d="M426 530l-383 508h125l326 -430l327 430h117l-385 -508l405 -530h-127l-346 457l-346 -457h-116z" />
    <glyph glyph-name="y" unicode="y" horiz-adv-x="976" 
d="M131 1038l361 -915l354 915h112l-497 -1231q-38 -94 -64 -135q-27 -43 -65 -62q-40 -20 -109 -20h-160v97h132q53 0 80 12q28 12 46 41q17 27 46 94l67 162l-416 1042h113z" />
    <glyph glyph-name="z" unicode="z" horiz-adv-x="954" 
d="M74 1038h807v-82l-699 -860h727v-96h-864v82l696 860h-667v96z" />
    <glyph glyph-name="braceleft" unicode="{" horiz-adv-x="657" 
d="M383 1284q-61 -57 -61 -164q0 -21 8 -82l41 -204q12 -51 12 -93q0 -89 -51 -149q-50 -59 -146 -80q95 -17 146 -75t51 -148q0 -46 -12 -99l-41 -204q-8 -61 -8 -84q0 -106 61 -163q60 -56 176 -56h57v-93h-55q-159 0 -250 77q-90 77 -90 216q0 43 10 92l39 211
q11 42 11 93q0 89 -57 135q-57 47 -161 51v94q106 1 163 51t57 135q0 39 -13 93l-39 211q-10 49 -10 92q0 139 90 216q91 77 250 77h55v-93h-57q-115 0 -176 -57z" />
    <glyph glyph-name="bar" unicode="|" horiz-adv-x="399" 
d="M147 1434h105v-1844h-105v1844z" />
    <glyph glyph-name="braceright" unicode="}" horiz-adv-x="657" 
d="M433 414q-56 -46 -56 -135q0 -54 10 -93l39 -211q10 -49 10 -92q0 -139 -90 -216q-91 -77 -250 -77h-55v93h57q116 0 176 56q62 57 62 163q0 23 -8 84l-41 204q-13 57 -13 99q0 88 52 148q51 59 145 75q-95 21 -145 80q-52 61 -52 149q0 38 13 93l41 204q8 61 8 82
q0 107 -62 164q-61 57 -176 57h-57v93h55q159 0 250 -77q90 -77 90 -216q0 -43 -10 -92l-39 -211q-12 -50 -12 -93q0 -86 56 -135q57 -50 163 -51v-94q-104 -4 -161 -51z" />
    <glyph glyph-name="asciitilde" unicode="~" 
d="M147 444q0 116 61 186q59 68 159 68q64 0 107 -22q45 -23 95 -66q43 -34 72 -51q28 -16 68 -16q69 0 104 44t35 115h88q0 -117 -59 -185t-160 -68q-65 0 -108 22q-45 23 -95 66q-44 35 -72 51t-67 16q-68 2 -103 -42q-34 -43 -34 -118h-91z" />
    <glyph glyph-name="exclamdown" unicode="&#xa1;" horiz-adv-x="452" 
d="M313 1422q23 -21 23 -56q0 -34 -23 -55t-57 -21q-35 0 -56 21q-22 22 -22 55q0 34 22 56t56 22q33 0 57 -22zM217 1016h82l14 -1016h-112z" />
    <glyph glyph-name="cent" unicode="&#xa2;" horiz-adv-x="1107" 
d="M799 339q89 68 116 185h105q-28 -145 -128 -237t-249 -107v-180h-98v178q-135 7 -239 77q-105 70 -161 186q-57 119 -57 270q0 149 57 265q56 114 161 184q104 70 239 77v197h98v-197q152 -17 251 -108q99 -92 126 -236h-105q-27 117 -116 185q-90 69 -219 69
q-114 0 -200 -55t-136 -155q-49 -98 -49 -226q0 -129 49 -228t136 -156t200 -57q129 0 219 69z" />
    <glyph glyph-name="sterling" unicode="&#xa3;" horiz-adv-x="1247" 
d="M283 725l-19 78q-16 71 -24 121q-9 56 -9 100q0 119 60 215q60 97 162 152q101 55 223 55q204 0 324 -108t147 -310h-107q-56 318 -360 318q-97 0 -174 -43q-78 -44 -123 -118q-45 -75 -45 -169q0 -68 31 -195l20 -96h461v-90h-449q9 -56 9 -105q0 -233 -170 -426l903 -2
v-102h-1022v96q180 202 180 441q0 28 -8 98h-191v90h181z" />
    <glyph glyph-name="currency" unicode="&#xa4;" horiz-adv-x="1249" 
d="M344 1071q123 98 281 98q157 0 280 -98l158 160l76 -74l-158 -158q55 -63 82 -135q29 -78 29 -164q0 -77 -25 -152q-24 -72 -70 -130l142 -142l-74 -71l-141 139q-61 -53 -138 -83q-78 -30 -161 -30q-84 0 -162 30q-75 29 -137 83l-142 -139l-73 74l141 141
q-94 121 -94 280q0 88 28 163q27 74 82 136l-157 158l73 72zM300 509q47 -84 133 -134q85 -49 192 -49q106 0 191 49q86 50 133 134q48 85 48 191t-48 192q-47 84 -133 134q-85 49 -191 49q-107 0 -192 -49q-86 -50 -133 -134q-48 -86 -48 -192t48 -191z" />
    <glyph glyph-name="yen" unicode="&#xa5;" horiz-adv-x="1292" 
d="M1241 1436l-510 -842h369v-82h-408v-219h408v-82h-408v-211h-110v211h-408v82h408v219h-408v82h369l-512 842h131l475 -787l479 787h125z" />
    <glyph glyph-name="brokenbar" unicode="&#xa6;" horiz-adv-x="399" 
d="M147 1434h105v-801h-105v801zM147 389h105v-799h-105v799z" />
    <glyph glyph-name="section" unicode="&#xa7;" horiz-adv-x="1165" 
d="M964 427q-64 -70 -180 -108q78 -37 121 -94q43 -56 43 -149q0 -132 -101 -212q-102 -81 -263 -81q-158 0 -261 78q-105 79 -112 213h104q6 -99 80 -152t189 -53q117 0 189 54q73 55 73 145q0 72 -38 116t-91 65q-54 22 -154 50q-140 39 -226 75q-85 36 -142 97
q-58 63 -58 158q0 103 64 176q62 71 176 106q-78 37 -120 96t-42 148q0 130 104 210q105 81 273 81q154 0 254 -78t106 -213h-104q-5 100 -76 152q-73 53 -180 53q-121 0 -197 -54t-76 -143q0 -73 37 -116t93 -67q52 -22 153 -50q135 -37 226 -74q86 -35 143 -96t57 -158
q0 -105 -64 -175zM856 440q66 60 66 158q0 73 -42 116q-41 42 -106 67q-68 26 -186 59l-103 28q-112 -21 -176 -78q-65 -58 -65 -157q0 -73 42 -116q43 -44 105 -68q80 -30 184 -60l105 -29q111 21 176 80z" />
    <glyph glyph-name="dieresis" unicode="&#xa8;" horiz-adv-x="819" 
d="M186 1370q21 21 52 21q32 0 53 -21q20 -20 20 -51t-20 -51q-21 -21 -53 -21q-31 0 -52 21q-20 20 -20 51t20 51zM529 1370q21 21 53 21q30 0 51 -21q20 -20 20 -51t-20 -51q-21 -21 -51 -21q-32 0 -53 21t-21 51t21 51z" />
    <glyph glyph-name="copyright" unicode="&#xa9;" horiz-adv-x="1685" 
d="M202 1086q99 170 266 264q170 96 374 96t373 -96q168 -95 268 -265q98 -166 98 -368q0 -203 -98 -369q-99 -168 -268 -264t-373 -96t-374 96q-168 95 -266 263q-98 167 -98 370q0 202 98 369zM1414 1050q-87 150 -238 237q-152 87 -334 87q-183 0 -333 -87
q-152 -88 -238 -237q-87 -150 -87 -333t87 -333q87 -151 238 -238q150 -87 333 -87q182 0 334 87q150 86 238 238q87 150 87 333t-87 333zM1080 377q-95 -80 -238 -80q-121 0 -211 57t-137 155q-48 101 -48 212q0 112 48 211q46 95 136 153t212 58q140 0 238 -81
q97 -80 124 -218h-88q-24 101 -96 161t-176 60q-146 0 -228 -98q-81 -97 -81 -246q0 -147 81 -246q82 -100 228 -100q105 0 176 59t98 160h86q-29 -137 -124 -217z" />
    <glyph glyph-name="ordfeminine" unicode="&#xaa;" horiz-adv-x="878" 
d="M199 1106q68 51 194 51h211v55q0 80 -48 123q-47 43 -138 43q-78 0 -126 -39q-49 -40 -59 -104h-81q11 98 82 154q72 57 186 57q124 0 194 -62t70 -174v-290q0 -64 61 -64h31v-68h-53q-52 0 -80 28q-27 27 -27 79v51q-27 -73 -91 -120q-65 -48 -160 -48q-108 0 -170 49
q-64 50 -64 136q0 92 68 143zM604 1098h-213q-81 0 -128 -36q-46 -36 -46 -95q0 -60 41 -93q39 -32 115 -32q106 0 168 68q63 69 63 163v25zM121 596h655v-76h-655v76z" />
    <glyph glyph-name="guillemotleft" unicode="&#xab;" horiz-adv-x="1134" 
d="M559 1038l-330 -518l330 -520h-106l-334 520l334 518h106zM1012 1036l-330 -518l330 -520h-107l-334 520l334 518h107z" />
    <glyph glyph-name="logicalnot" unicode="&#xac;" 
d="M135 688h723v-434h-94v344h-629v90z" />
    <glyph glyph-name="registered" unicode="&#xae;" horiz-adv-x="1044" 
d="M165 1246q55 95 147 148q93 54 208 54q116 0 211 -53q94 -52 149 -147q54 -93 54 -208q0 -114 -54 -207q-55 -95 -149 -147q-95 -53 -211 -53q-114 0 -208 53q-92 52 -147 147q-54 93 -54 205q0 115 54 208zM826 1220q-46 80 -126 127q-79 46 -180 46q-99 0 -178 -46
q-80 -47 -126 -127t-46 -182q0 -99 46 -178q46 -80 126 -126q79 -46 178 -46q101 0 180 46q80 47 126 127t46 179q0 100 -46 180zM541 1274q73 0 117 -39t44 -100q0 -51 -30 -86q-30 -34 -84 -45l117 -197h-68l-109 186h-100v-186h-59v467h172zM428 1044h111q45 0 73 24
q29 24 29 67q0 40 -29 64q-28 24 -73 24h-111v-179z" />
    <glyph glyph-name="macron" unicode="&#xaf;" horiz-adv-x="819" 
d="M147 1282v80h525v-80h-525z" />
    <glyph glyph-name="degree" unicode="&#xb0;" horiz-adv-x="876" 
d="M161 1283q44 75 115 114q74 41 162 41t162 -41q72 -40 117 -114q43 -71 43 -161q0 -86 -43 -157q-44 -73 -117 -113q-74 -41 -162 -41t-162 41q-72 40 -115 113q-42 72 -42 157q0 89 42 161zM613 1298q-71 72 -175 72q-102 0 -174 -72q-71 -71 -71 -176q0 -101 71 -171
t174 -70q104 0 175 69t71 172t-71 176z" />
    <glyph glyph-name="plusminus" unicode="&#xb1;" 
d="M135 0v88h811v-88h-811zM492 1028h96v-375h358v-88h-358v-375h-96v375h-357v88h357v375z" />
    <glyph glyph-name="uni00B2" unicode="&#xb2;" horiz-adv-x="634" 
d="M63 1409q0 110 72 176t180 66q115 0 185 -62q69 -61 69 -159q0 -76 -39 -132q-39 -55 -112 -118l-252 -215h412v-72h-523v70l307 256q67 56 98 102q32 47 32 106q0 67 -49 110q-48 42 -126 42q-82 0 -131 -46t-49 -128v-12h-74v16z" />
    <glyph glyph-name="uni00B3" unicode="&#xb3;" horiz-adv-x="653" 
d="M143 1595q69 60 183 60q113 0 182 -57q70 -58 70 -146q0 -65 -41 -109q-40 -43 -107 -55q78 -15 121 -60q45 -46 45 -120q0 -100 -75 -162q-74 -61 -197 -61q-130 0 -201 61q-72 62 -72 174h74q1 -79 56 -123q53 -43 145 -43q84 0 138 42t54 110q0 67 -55 107t-148 40
h-47v56h47q82 0 134 38q51 37 51 99q0 61 -48 100t-124 39q-81 0 -131 -41t-50 -110h-75q1 101 71 161z" />
    <glyph glyph-name="acute" unicode="&#xb4;" horiz-adv-x="819" 
d="M371 1163l186 271h123l-225 -271h-84z" />
    <glyph glyph-name="uni00B5" unicode="&#xb5;" horiz-adv-x="1124" 
d="M227 -410h-104v1448h104v-565q0 -186 84 -288q83 -101 234 -101q160 0 256 124t96 331v499h104v-1038h-96l-8 252q-46 -127 -136 -195q-91 -69 -226 -69q-109 0 -195 53t-113 139v-590z" />
    <glyph glyph-name="paragraph" unicode="&#xb6;" horiz-adv-x="1292" 
d="M791 483h-236q-145 0 -261 61q-113 60 -175 168q-62 109 -62 246q0 138 62 247q61 108 174 168q114 61 260 61h338v-1434h-100v483zM1047 1434h100v-1434h-100v1434z" />
    <glyph glyph-name="periodcentered" unicode="&#xb7;" horiz-adv-x="376" 
d="M132 651q21 21 56 21q36 0 57 -21t21 -55q0 -35 -21 -56q-22 -22 -57 -22q-34 0 -56 22q-21 21 -21 56q0 34 21 55z" />
    <glyph glyph-name="cedilla" unicode="&#xb8;" horiz-adv-x="819" 
d="M446 20l-28 -120h33q75 0 122 -41q48 -42 48 -107q0 -74 -49 -118t-126 -44h-167v66h151q48 0 79 25q30 24 30 69q0 40 -30 64t-75 24h-90l45 182h57z" />
    <glyph glyph-name="uni00B9" unicode="&#xb9;" horiz-adv-x="344" 
d="M178 895v526q-7 -18 -37 -18h-141v72h141q17 0 28 14t11 33v118h72v-745h-74z" />
    <glyph glyph-name="ordmasculine" unicode="&#xba;" horiz-adv-x="851" 
d="M647 870q-86 -92 -223 -92t-223 92t-86 242q0 149 86 243q85 93 223 93t223 -93q86 -94 86 -243q0 -150 -86 -242zM263 924q63 -72 161 -72q100 0 163 72q62 71 62 188q0 119 -62 190q-63 72 -163 72q-98 0 -161 -72q-62 -71 -62 -190q0 -117 62 -188zM113 596h626v-76
h-626v76z" />
    <glyph glyph-name="guillemotright" unicode="&#xbb;" horiz-adv-x="1134" 
d="M575 1038h107l334 -518l-334 -520h-107l330 520zM123 1036h106l334 -518l-334 -520h-106l330 520z" />
    <glyph glyph-name="onequarter" unicode="&#xbc;" horiz-adv-x="1193" 
d="M178 690v527q-8 -19 -37 -19h-141v72h141q17 0 28 14t11 33v119h72v-746h-74zM31 0l909 1434h88l-909 -1434h-88zM973 745h90v-479h127v-69h-127v-197h-74v197h-393v69zM989 664l-311 -398h311v398z" />
    <glyph glyph-name="onehalf" unicode="&#xbd;" horiz-adv-x="1296" 
d="M178 690v527q-8 -19 -37 -19h-141v72h141q17 0 28 14t11 33v119h72v-746h-74zM31 0l909 1434h88l-909 -1434h-88zM737 516q0 110 72 176t180 66q115 0 185 -62q69 -62 69 -159q0 -76 -39 -131q-41 -58 -112 -119l-252 -215h411v-72h-522v70l307 256q67 56 98 102t31 107
q0 67 -48 109t-126 42q-82 0 -131 -46t-49 -128v-12h-74v16z" />
    <glyph glyph-name="threequarters" unicode="&#xbe;" horiz-adv-x="1503" 
d="M143 1391q68 59 183 59q114 0 182 -56q70 -58 70 -147q0 -64 -41 -108t-107 -56q78 -15 121 -60q45 -47 45 -120q0 -101 -75 -162q-74 -61 -197 -61q-130 0 -201 61q-72 61 -72 174h74q1 -78 56 -122q53 -43 145 -43q84 0 138 42t54 109q0 68 -55 108t-148 40h-47v55h47
q82 0 134 38q51 38 51 99t-48 100t-124 39q-81 0 -131 -41t-50 -110h-75q1 102 71 162zM340 0l909 1434h88l-909 -1434h-88zM1282 745h90v-479h127v-69h-127v-197h-74v197h-393v69zM1298 664l-311 -398h311v398z" />
    <glyph glyph-name="questiondown" unicode="&#xbf;" horiz-adv-x="1024" 
d="M581 1311q-21 -21 -57 -21q-35 0 -56 21q-22 22 -22 55q0 34 22 56t56 22q35 0 57 -22q21 -21 21 -56q0 -34 -21 -55zM886 207q-54 -102 -154 -161q-98 -58 -232 -58q-123 0 -216 45q-94 45 -145 125t-51 178q0 117 50 196t138 146q4 3 13 9.5t28 20.5t35 26q65 48 94 97
q31 53 31 111v72h98v-82q0 -76 -29 -127q-32 -55 -66 -84q-48 -40 -124 -98q-77 -59 -118 -123t-41 -154q0 -112 84 -186q85 -74 217 -74q152 0 243 97q93 99 93 255h106q0 -129 -54 -231z" />
    <glyph glyph-name="Agrave" unicode="&#xc0;" horiz-adv-x="1306" 
d="M35 0l553 1434h131l553 -1434h-119l-172 438h-659l-172 -438h-115zM354 541h594l-297 772zM387 1835h123l184 -270h-86z" />
    <glyph glyph-name="Aacute" unicode="&#xc1;" horiz-adv-x="1306" 
d="M35 0l553 1434h131l553 -1434h-119l-172 438h-659l-172 -438h-115zM354 541h594l-297 772zM614 1565l187 270h123l-226 -270h-84z" />
    <glyph glyph-name="Acircumflex" unicode="&#xc2;" horiz-adv-x="1306" 
d="M35 0l553 1434h131l553 -1434h-119l-172 438h-659l-172 -438h-115zM354 541h594l-297 772zM653 1765l-209 -202h-102l260 272h103l260 -272h-105z" />
    <glyph glyph-name="Atilde" unicode="&#xc3;" horiz-adv-x="1306" 
d="M35 0l553 1434h131l553 -1434h-119l-172 438h-659l-172 -438h-115zM354 541h594l-297 772zM478 1713q-21 -31 -21 -77h-68v17q0 71 40 117q41 47 110 47q47 0 75 -18q33 -21 60 -48t45 -39t47 -12q40 0 61 32q21 31 21 74h70v-14q0 -72 -40 -118t-110 -46q-47 0 -75 17
t-60 49q-27 27 -45 39t-47 12q-42 0 -63 -32z" />
    <glyph glyph-name="Adieresis" unicode="&#xc4;" horiz-adv-x="1306" 
d="M35 0l553 1434h131l553 -1434h-119l-172 438h-659l-172 -438h-115zM354 541h594l-297 772zM430 1772q20 20 51 20q34 0 54 -20t20 -52q0 -31 -20 -51t-54 -20q-31 0 -51 20t-20 51q0 32 20 52zM773 1772q20 20 52 20t52 -20t20 -52q0 -31 -20 -51t-52 -20t-52 20
q-21 21 -21 51q0 31 21 52z" />
    <glyph glyph-name="Aring" unicode="&#xc5;" horiz-adv-x="1306" 
d="M1272 0h-119l-172 438h-659l-172 -438h-115l540 1403q-65 22 -107 81q-42 58 -42 130q0 91 67 158q65 65 160 65q96 0 161 -65q67 -67 67 -158q0 -72 -42 -130t-108 -81zM542 1500q46 -46 111 -46q66 0 112 46t46 114q0 67 -46 113q-47 47 -112 47q-64 0 -111 -47
q-46 -46 -46 -113q0 -68 46 -114zM354 541h594l-297 772z" />
    <glyph glyph-name="AE" unicode="&#xc6;" horiz-adv-x="1918" 
d="M1059 102h799v-102h-910v399h-567l-250 -399h-117l881 1434h936v-103h-772v-549h647v-102h-647v-578zM434 498h514v839z" />
    <glyph glyph-name="Ccedilla" unicode="&#xc7;" horiz-adv-x="1437" 
d="M1062 180q122 91 167 262h110q-46 -206 -186 -325t-352 -129l-21 -88h33q76 0 123 -41t47 -107q0 -74 -48 -118q-49 -44 -126 -44h-168v66h152q47 0 78 25q30 24 30 69q0 40 -30 64t-74 24h-90l36 150q-194 4 -341 96q-146 91 -226 256t-80 377q0 214 82 379
q82 166 234 258t350 92q227 0 381 -119q153 -118 198 -334h-110q-45 167 -170 259q-124 91 -305 91q-165 0 -287 -79t-190 -223t-68 -324q0 -181 68 -325q68 -143 190 -222q124 -80 287 -80q184 0 306 90z" />
    <glyph glyph-name="Egrave" unicode="&#xc8;" horiz-adv-x="1118" 
d="M147 1434h883v-103h-772v-549h647v-102h-647v-578h799v-102h-910v1434zM299 1835h123l184 -270h-86z" />
    <glyph glyph-name="Eacute" unicode="&#xc9;" horiz-adv-x="1118" 
d="M147 1434h883v-103h-772v-549h647v-102h-647v-578h799v-102h-910v1434zM526 1565l187 270h123l-226 -270h-84z" />
    <glyph glyph-name="Ecircumflex" unicode="&#xca;" horiz-adv-x="1118" 
d="M147 1434h883v-103h-772v-549h647v-102h-647v-578h799v-102h-910v1434zM565 1765l-209 -202h-102l260 272h102l261 -272h-105z" />
    <glyph glyph-name="Edieresis" unicode="&#xcb;" horiz-adv-x="1118" 
d="M147 1434h883v-103h-772v-549h647v-102h-647v-578h799v-102h-910v1434zM342 1772q20 20 51 20q33 0 53 -20q21 -21 21 -52q0 -30 -21 -51q-20 -20 -53 -20q-31 0 -51 20t-20 51q0 32 20 52zM685 1772q20 20 52 20q31 0 51 -20q21 -21 21 -52q0 -30 -21 -51
q-20 -20 -51 -20q-32 0 -52 20q-21 21 -21 51q0 31 21 52z" />
    <glyph glyph-name="Igrave" unicode="&#xcc;" horiz-adv-x="405" 
d="M147 1434h111v-1434h-111v1434zM-63 1835h122l185 -270h-86z" />
    <glyph glyph-name="Iacute" unicode="&#xcd;" horiz-adv-x="405" 
d="M147 1434h111v-1434h-111v1434zM164 1565l186 270h123l-225 -270h-84z" />
    <glyph glyph-name="Icircumflex" unicode="&#xce;" horiz-adv-x="405" 
d="M147 1434h111v-1434h-111v1434zM203 1765l-209 -202h-103l261 272h102l260 -272h-104z" />
    <glyph glyph-name="Idieresis" unicode="&#xcf;" horiz-adv-x="405" 
d="M147 1434h111v-1434h-111v1434zM-20 1772q20 20 51 20q33 0 53 -20t20 -52q0 -31 -20 -51t-53 -20q-31 0 -51 20q-21 21 -21 51q0 31 21 52zM323 1772q20 20 52 20q31 0 51 -20t20 -52q0 -31 -20 -51t-51 -20q-32 0 -52 20q-22 22 -22 51q0 30 22 52z" />
    <glyph glyph-name="Eth" unicode="&#xd0;" horiz-adv-x="1380" 
d="M952 1346q163 -89 248 -250q86 -163 86 -379t-86 -379q-85 -161 -248 -250q-161 -88 -387 -88h-385v684h-184v94h184v656h385q226 0 387 -88zM1014 267q160 166 160 450q0 287 -159 450q-159 164 -450 164h-274v-553h321v-94h-321v-582h274q290 0 449 165z" />
    <glyph glyph-name="Ntilde" unicode="&#xd1;" horiz-adv-x="1355" 
d="M147 0v1434h105l848 -1231v1231h108v-1434h-104l-848 1233v-1233h-109zM497 1713q-22 -33 -22 -77h-67v17q0 72 39 117q41 47 110 47q47 0 76 -18q30 -19 59 -48q27 -27 45 -39t47 -12q41 0 62 32q20 30 20 74h70v-14q0 -72 -40 -118t-110 -46q-46 0 -74 17
q-31 19 -61 49q-27 27 -45 39t-47 12q-41 0 -62 -32z" />
    <glyph glyph-name="Ograve" unicode="&#xd2;" horiz-adv-x="1533" 
d="M1351 341q-86 -168 -238 -260q-153 -93 -347 -93t-347 93q-152 92 -238 260q-85 166 -85 376t85 376q86 168 238 260q153 93 347 93t347 -93q152 -92 238 -260q85 -166 85 -376t-85 -376zM282 392q71 -143 196 -222q127 -80 288 -80t289 80q126 79 197 222q71 144 71 325
q0 180 -71 324q-72 145 -197 223q-127 79 -289 79q-163 0 -288 -79t-196 -223t-71 -324q0 -181 71 -325zM502 1835h123l184 -270h-86z" />
    <glyph glyph-name="Oacute" unicode="&#xd3;" horiz-adv-x="1533" 
d="M1351 341q-86 -168 -238 -260q-153 -93 -347 -93t-347 93q-152 92 -238 260q-85 166 -85 376t85 376q86 168 238 260q153 93 347 93t347 -93q152 -92 238 -260q85 -166 85 -376t-85 -376zM282 392q71 -143 196 -222q127 -80 288 -80t289 80q126 79 197 222q71 144 71 325
q0 180 -71 324q-72 145 -197 223q-127 79 -289 79q-163 0 -288 -79t-196 -223t-71 -324q0 -181 71 -325zM729 1565l186 270h123l-225 -270h-84z" />
    <glyph glyph-name="Ocircumflex" unicode="&#xd4;" horiz-adv-x="1533" 
d="M1351 341q-86 -168 -238 -260q-153 -93 -347 -93t-347 93q-152 92 -238 260q-85 166 -85 376t85 376q86 168 238 260q153 93 347 93t347 -93q152 -92 238 -260q85 -166 85 -376t-85 -376zM282 392q71 -143 196 -222q127 -80 288 -80t289 80q126 79 197 222q71 144 71 325
q0 180 -71 324q-72 145 -197 223q-127 79 -289 79q-163 0 -288 -79t-196 -223t-71 -324q0 -181 71 -325zM768 1765l-209 -202h-102l260 272h102l260 -272h-104z" />
    <glyph glyph-name="Otilde" unicode="&#xd5;" horiz-adv-x="1533" 
d="M1351 341q-86 -168 -238 -260q-153 -93 -347 -93t-347 93q-152 92 -238 260q-85 166 -85 376t85 376q86 168 238 260q153 93 347 93t347 -93q152 -92 238 -260q85 -166 85 -376t-85 -376zM282 392q71 -143 196 -222q127 -80 288 -80t289 80q126 79 197 222q71 144 71 325
q0 180 -71 324q-72 145 -197 223q-127 79 -289 79q-163 0 -288 -79t-196 -223t-71 -324q0 -181 71 -325zM593 1713q-22 -33 -22 -77h-67v17q0 71 40 117q41 47 109 47q47 0 76 -18q30 -19 59 -48q25 -25 46 -39q18 -12 47 -12q40 0 61 32q21 31 21 74h69v-14q0 -72 -40 -118
t-109 -46q-47 0 -75 17t-60 49q-25 25 -46 39q-18 12 -47 12q-41 0 -62 -32z" />
    <glyph glyph-name="Odieresis" unicode="&#xd6;" horiz-adv-x="1533" 
d="M1351 341q-86 -168 -238 -260q-153 -93 -347 -93t-347 93q-152 92 -238 260q-85 166 -85 376t85 376q86 168 238 260q153 93 347 93t347 -93q152 -92 238 -260q85 -166 85 -376t-85 -376zM282 392q71 -143 196 -222q127 -80 288 -80t289 80q126 79 197 222q71 144 71 325
q0 180 -71 324q-72 145 -197 223q-127 79 -289 79q-163 0 -288 -79t-196 -223t-71 -324q0 -181 71 -325zM545 1772q20 20 51 20q33 0 53 -20q21 -21 21 -52q0 -30 -21 -51q-20 -20 -53 -20q-31 0 -51 20q-21 21 -21 51q0 31 21 52zM888 1772q20 20 52 20q31 0 51 -20
q21 -21 21 -52q0 -30 -21 -51q-20 -20 -51 -20q-32 0 -52 20q-22 22 -22 51q0 30 22 52z" />
    <glyph glyph-name="multiply" unicode="&#xd7;" 
d="M231 961l314 -314l309 314l64 -64l-312 -311l314 -312l-68 -67l-313 311l-310 -309l-63 61l311 312l-313 313z" />
    <glyph glyph-name="Oslash" unicode="&#xd8;" horiz-adv-x="1533" 
d="M1274 1206q78 -95 120 -220q42 -126 42 -269q0 -210 -85 -376q-86 -168 -238 -260q-153 -93 -347 -93q-132 0 -246 45q-115 45 -203 129l-157 -174l-64 61l162 176q-78 96 -120 222t-42 270q0 210 85 376q86 168 238 260q153 93 347 93q132 0 246 -45q113 -45 202 -129
l160 174l62 -62zM332 305l813 891q-152 147 -379 147q-164 0 -288 -80q-125 -80 -196 -223q-71 -142 -71 -323q0 -246 121 -412zM1202 1128l-813 -890q73 -73 168 -110q97 -38 209 -38q161 0 289 80q126 79 197 222q71 144 71 325q0 245 -121 411z" />
    <glyph glyph-name="Ugrave" unicode="&#xd9;" horiz-adv-x="1331" 
d="M252 1434v-848q0 -251 100 -373q100 -123 312 -123t314 123q101 122 101 373v848h111v-842q0 -604 -526 -604q-523 0 -523 604v842h111zM399 1835h123l185 -270h-86z" />
    <glyph glyph-name="Uacute" unicode="&#xda;" horiz-adv-x="1331" 
d="M252 1434v-848q0 -251 100 -373q100 -123 312 -123t314 123q101 122 101 373v848h111v-842q0 -604 -526 -604q-523 0 -523 604v842h111zM627 1565l186 270h123l-225 -270h-84z" />
    <glyph glyph-name="Ucircumflex" unicode="&#xdb;" horiz-adv-x="1331" 
d="M252 1434v-848q0 -251 100 -373q100 -123 312 -123t314 123q101 122 101 373v848h111v-842q0 -604 -526 -604q-523 0 -523 604v842h111zM666 1765l-209 -202h-103l260 272h103l260 -272h-105z" />
    <glyph glyph-name="Udieresis" unicode="&#xdc;" horiz-adv-x="1331" 
d="M252 1434v-848q0 -251 100 -373q100 -123 312 -123t314 123q101 122 101 373v848h111v-842q0 -604 -526 -604q-523 0 -523 604v842h111zM442 1772q20 20 52 20q33 0 53 -20t20 -52q0 -31 -20 -51t-53 -20q-32 0 -52 20t-20 51q0 32 20 52zM785 1772q20 20 53 20
q31 0 51 -20t20 -52q0 -31 -20 -51t-51 -20q-33 0 -53 20q-21 21 -21 51q0 31 21 52z" />
    <glyph glyph-name="Yacute" unicode="&#xdd;" horiz-adv-x="1265" 
d="M29 1436h129l475 -787l479 787h125l-549 -908v-528h-110v528zM590 1565l186 270h123l-225 -270h-84z" />
    <glyph glyph-name="Thorn" unicode="&#xde;" horiz-adv-x="1163" 
d="M258 1434v-267h371q233 0 358 -108t125 -316q0 -209 -129 -315q-128 -106 -356 -106h-369v-322h-111v1434h111zM258 424h367q179 0 277 80q97 79 97 239q0 162 -95 242t-277 80h-369v-641z" />
    <glyph glyph-name="germandbls" unicode="&#xdf;" horiz-adv-x="1175" 
d="M449 27v94q99 -39 213 -39q146 0 238 85q93 85 93 218q0 157 -120 240q-119 82 -318 82q-8 0 -53 -5v93q180 1 279 85q98 83 98 210q0 118 -84 190t-222 72q-143 0 -232 -90q-89 -91 -89 -246v-1016h-105v1010q0 137 56 237t152 149q98 50 218 50t214 -44t146 -123
t52 -181q-1 -127 -79 -217q-76 -88 -201 -115q184 -18 289 -117q106 -100 106 -266q0 -116 -56 -207q-56 -90 -153 -139q-98 -49 -223 -49q-111 0 -219 39z" />
    <glyph glyph-name="agrave" unicode="&#xe0;" horiz-adv-x="1095" 
d="M1079 96v-96h-61q-90 0 -132 45t-38 127v43q-46 -103 -148 -166q-100 -61 -249 -61q-168 0 -269 80q-100 79 -100 217q0 147 105 228t305 81h352v90q0 130 -81 202t-226 72q-129 0 -210 -57t-102 -153h-104q21 142 131 222q111 81 289 81q193 0 301 -97q106 -96 106 -274
v-483q0 -46 25 -74q24 -27 67 -27h39zM844 504h-361q-143 0 -219 -55t-76 -158q0 -96 73 -155q71 -58 196 -58q179 0 283 95t104 247v84zM270 1440h123l185 -271h-86z" />
    <glyph glyph-name="aacute" unicode="&#xe1;" horiz-adv-x="1095" 
d="M1079 96v-96h-61q-90 0 -132 45t-38 127v43q-46 -103 -148 -166q-100 -61 -249 -61q-168 0 -269 80q-100 79 -100 217q0 147 105 228t305 81h352v90q0 130 -81 202t-226 72q-129 0 -210 -57t-102 -153h-104q21 142 131 222q111 81 289 81q193 0 301 -97q106 -96 106 -274
v-483q0 -46 25 -74q24 -27 67 -27h39zM844 504h-361q-143 0 -219 -55t-76 -158q0 -96 73 -155q71 -58 196 -58q179 0 283 95t104 247v84zM498 1169l186 271h123l-225 -271h-84z" />
    <glyph glyph-name="acircumflex" unicode="&#xe2;" horiz-adv-x="1095" 
d="M1079 96v-96h-61q-90 0 -132 45t-38 127v43q-46 -103 -148 -166q-100 -61 -249 -61q-168 0 -269 80q-100 79 -100 217q0 147 105 228t305 81h352v90q0 130 -81 202t-226 72q-129 0 -210 -57t-102 -153h-104q21 142 131 222q111 81 289 81q193 0 301 -97q106 -96 106 -274
v-483q0 -46 25 -74q24 -27 67 -27h39zM844 504h-361q-143 0 -219 -55t-76 -158q0 -96 73 -155q71 -58 196 -58q179 0 283 95t104 247v84zM537 1370l-209 -203h-103l260 273h103l260 -273h-105z" />
    <glyph glyph-name="atilde" unicode="&#xe3;" horiz-adv-x="1095" 
d="M1079 96v-96h-61q-90 0 -132 45t-38 127v43q-46 -103 -148 -166q-100 -61 -249 -61q-168 0 -269 80q-100 79 -100 217q0 147 105 228t305 81h352v90q0 130 -81 202t-226 72q-129 0 -210 -57t-102 -153h-104q21 142 131 222q111 81 289 81q193 0 301 -97q106 -96 106 -274
v-483q0 -46 25 -74q24 -27 67 -27h39zM844 504h-361q-143 0 -219 -55t-76 -158q0 -96 73 -155q71 -58 196 -58q179 0 283 95t104 247v84zM361 1318q-21 -32 -21 -77h-68v16q0 72 40 118t110 46q49 0 76 -17q30 -19 59 -48q27 -27 45 -39t47 -12q41 0 62 31q20 30 20 75h70
v-14q0 -72 -40 -118t-110 -46q-48 0 -74 16q-31 19 -61 49q-27 27 -45 39q-19 13 -47 13q-42 0 -63 -32z" />
    <glyph glyph-name="adieresis" unicode="&#xe4;" horiz-adv-x="1095" 
d="M1079 96v-96h-61q-90 0 -132 45t-38 127v43q-46 -103 -148 -166q-100 -61 -249 -61q-168 0 -269 80q-100 79 -100 217q0 147 105 228t305 81h352v90q0 130 -81 202t-226 72q-129 0 -210 -57t-102 -153h-104q21 142 131 222q111 81 289 81q193 0 301 -97q106 -96 106 -274
v-483q0 -46 25 -74q24 -27 67 -27h39zM844 504h-361q-143 0 -219 -55t-76 -158q0 -96 73 -155q71 -58 196 -58q179 0 283 95t104 247v84zM313 1376q21 21 52 21q32 0 53 -21q20 -20 20 -51t-20 -51q-21 -21 -53 -21q-31 0 -52 21q-20 20 -20 51t20 51zM656 1376q21 21 53 21
q30 0 51 -21q20 -20 20 -51t-20 -51q-21 -21 -51 -21q-32 0 -53 21t-21 51t21 51z" />
    <glyph glyph-name="aring" unicode="&#xe5;" horiz-adv-x="1095" 
d="M1079 96v-96h-61q-90 0 -132 45t-38 127v43q-46 -103 -148 -166q-100 -61 -249 -61q-168 0 -269 80q-100 79 -100 217q0 147 105 228t305 81h352v90q0 130 -81 202t-226 72q-129 0 -210 -57t-102 -153h-104q21 142 131 222q111 81 289 81q193 0 301 -97q106 -96 106 -274
v-483q0 -46 25 -74q24 -27 67 -27h39zM844 504h-361q-143 0 -219 -55t-76 -158q0 -96 73 -155q71 -58 196 -58q179 0 283 95t104 247v84zM376 1524q65 65 161 65q95 0 160 -65q67 -67 67 -158t-67 -158q-65 -65 -160 -65q-96 0 -161 65q-67 67 -67 158t67 158zM648 1480
q-46 46 -111 46q-66 0 -112 -46t-46 -114t46 -114t112 -46q65 0 111 46t46 114t-46 114z" />
    <glyph glyph-name="ae" unicode="&#xe6;" horiz-adv-x="1875" 
d="M940 516v-22q0 -122 49 -214q50 -94 135 -146t197 -52q126 0 220 71q95 72 124 191h107q-34 -159 -156 -258q-120 -98 -289 -98q-148 0 -260 73q-113 74 -170 205q-46 -124 -164 -201t-272 -77q-174 0 -277 80q-102 79 -102 221q0 145 105 227q104 82 305 82h352v86
q0 130 -81 202t-226 72q-129 0 -210 -57t-102 -153h-104q21 142 131 222q111 81 289 81q149 0 245 -60q98 -61 132 -174q61 112 160 172q103 62 231 62q136 0 243 -59q106 -58 169 -169q62 -110 67 -264q0 -23 -2 -43h-846zM1137 914q-80 -44 -131 -126q-53 -85 -60 -186
h733q-12 168 -112 262t-256 94q-94 0 -174 -44zM844 508h-363q-141 0 -217 -55t-76 -158q0 -100 73 -159q71 -58 202 -58q109 0 197 44t136 122t48 176v88z" />
    <glyph glyph-name="ccedilla" unicode="&#xe7;" horiz-adv-x="1107" 
d="M799 151q89 68 116 185h105q-28 -155 -138 -247q-108 -90 -274 -101l-20 -88h33q75 0 122 -41q48 -42 48 -107q0 -74 -49 -118t-126 -44h-167v66h151q48 0 79 25q30 24 30 69q0 40 -30 64t-75 24h-90l37 150q-137 6 -242 75q-103 68 -163 189q-58 117 -58 270
q0 156 63 276t175 186q114 67 258 67q172 0 290 -94q118 -93 146 -252h-105q-27 117 -116 185t-219 68q-114 0 -200 -55q-87 -55 -136 -154q-49 -98 -49 -227q0 -128 49 -227q49 -100 136 -157q85 -56 200 -56q129 0 219 69z" />
    <glyph glyph-name="egrave" unicode="&#xe8;" horiz-adv-x="1134" 
d="M148 797q59 120 170 187t249 67q137 0 244 -59q106 -58 169 -169q62 -110 67 -262q0 -13 -3 -43h-845q-2 -10 -2 -24q1 -121 51 -214q50 -94 135 -146t195 -52q126 0 221 71t125 191h106q-38 -160 -157 -258t-287 -98q-146 0 -259 67t-176 189q-63 121 -63 276t60 277z
M938 606q-15 169 -114 260q-100 92 -255 92q-94 0 -174 -44t-131 -123q-52 -80 -59 -185h733zM297 1440h123l184 -271h-86z" />
    <glyph glyph-name="eacute" unicode="&#xe9;" horiz-adv-x="1134" 
d="M148 797q59 120 170 187t249 67q137 0 244 -59q106 -58 169 -169q62 -110 67 -262q0 -13 -3 -43h-845q-2 -10 -2 -24q1 -121 51 -214q50 -94 135 -146t195 -52q126 0 221 71t125 191h106q-38 -160 -157 -258t-287 -98q-146 0 -259 67t-176 189q-63 121 -63 276t60 277z
M938 606q-15 169 -114 260q-100 92 -255 92q-94 0 -174 -44t-131 -123q-52 -80 -59 -185h733zM524 1169l187 271h123l-226 -271h-84z" />
    <glyph glyph-name="ecircumflex" unicode="&#xea;" horiz-adv-x="1134" 
d="M148 797q59 120 170 187t249 67q137 0 244 -59q106 -58 169 -169q62 -110 67 -262q0 -13 -3 -43h-845q-2 -10 -2 -24q1 -121 51 -214q50 -94 135 -146t195 -52q126 0 221 71t125 191h106q-38 -160 -157 -258t-287 -98q-146 0 -259 67t-176 189q-63 121 -63 276t60 277z
M938 606q-15 169 -114 260q-100 92 -255 92q-94 0 -174 -44t-131 -123q-52 -80 -59 -185h733zM563 1370l-209 -203h-102l260 273h102l260 -273h-104z" />
    <glyph glyph-name="edieresis" unicode="&#xeb;" horiz-adv-x="1134" 
d="M148 797q59 120 170 187t249 67q137 0 244 -59q106 -58 169 -169q62 -110 67 -262q0 -13 -3 -43h-845q-2 -10 -2 -24q1 -121 51 -214q50 -94 135 -146t195 -52q126 0 221 71t125 191h106q-38 -160 -157 -258t-287 -98q-146 0 -259 67t-176 189q-63 121 -63 276t60 277z
M938 606q-15 169 -114 260q-100 92 -255 92q-94 0 -174 -44t-131 -123q-52 -80 -59 -185h733zM340 1376q21 21 51 21q32 0 53 -21t21 -51t-21 -51t-53 -21q-30 0 -51 21t-21 51t21 51zM683 1376q21 21 52 21q30 0 51 -21t21 -51t-21 -51t-51 -21q-31 0 -52 21t-21 51t21 51z
" />
    <glyph glyph-name="igrave" unicode="&#xec;" horiz-adv-x="350" 
d="M123 1038h104v-1038h-104v1038zM-90 1440h123l184 -271h-86z" />
    <glyph glyph-name="iacute" unicode="&#xed;" horiz-adv-x="350" 
d="M123 1038h104v-1038h-104v1038zM137 1169l187 271h122l-225 -271h-84z" />
    <glyph glyph-name="icircumflex" unicode="&#xee;" horiz-adv-x="350" 
d="M123 1038h104v-1038h-104v1038zM176 1370l-209 -203h-102l260 273h102l260 -273h-104z" />
    <glyph glyph-name="idieresis" unicode="&#xef;" horiz-adv-x="350" 
d="M123 1038h104v-1038h-104v1038zM-47 1376q21 21 51 21q32 0 53 -21t21 -51t-21 -51t-53 -21q-30 0 -51 21t-21 51t21 51zM296 1376q21 21 52 21q30 0 51 -21t21 -51t-21 -51t-51 -21q-31 0 -52 21q-22 22 -22 51t22 51z" />
    <glyph glyph-name="eth" unicode="&#xf0;" horiz-adv-x="1191" 
d="M987 910q94 -183 96 -386q-2 -158 -61 -278q-60 -121 -172 -190q-111 -68 -266 -68q-146 0 -258 61t-175 172t-63 250q0 143 66 253t176 169q109 59 245 59q123 0 215 -49q93 -50 154 -137q-78 230 -293 420l-250 -160l-41 72l224 143q-101 80 -217 141l61 64
q126 -62 240 -152l243 158l41 -74l-219 -139q159 -146 254 -329zM869 196q108 116 108 304q-1 114 -56 197q-53 81 -144 126q-87 43 -193 43q-114 0 -202 -51t-138 -141q-49 -89 -49 -203q0 -116 49 -204q50 -89 138 -138t202 -49q177 0 285 116z" />
    <glyph glyph-name="ntilde" unicode="&#xf1;" horiz-adv-x="1120" 
d="M900 934q112 -118 112 -352v-582h-105v578q0 182 -85 279t-236 97q-167 0 -262 -119q-97 -121 -97 -323v-512h-104v1038h90l16 -221q46 106 142 170t231 64q187 0 298 -117zM419 1318q-22 -33 -22 -77h-67v16q0 72 40 118t109 46q49 0 76 -17q30 -19 59 -48
q27 -27 45 -39t48 -12q40 0 61 31q20 30 20 75h70v-14q0 -72 -40 -118t-109 -46q-49 0 -75 16q-31 19 -61 49q-27 27 -45 39q-20 13 -47 13q-41 0 -62 -32z" />
    <glyph glyph-name="ograve" unicode="&#xf2;" horiz-adv-x="1173" 
d="M328 55q-113 68 -176 189q-64 123 -64 276q0 154 64 276q62 119 176 187q113 68 258 68q144 0 259 -68q114 -68 177 -187q63 -120 63 -276q0 -154 -63 -276t-177 -189q-113 -67 -259 -67t-258 67zM791 137q89 55 139 156q49 99 49 227t-49 226q-50 99 -139 156
q-88 56 -205 56t-204 -56q-88 -57 -138 -156q-49 -98 -49 -226t49 -227q50 -101 138 -156t204 -55t205 55zM319 1440h123l185 -271h-86z" />
    <glyph glyph-name="oacute" unicode="&#xf3;" horiz-adv-x="1173" 
d="M328 55q-113 68 -176 189q-64 123 -64 276q0 154 64 276q62 119 176 187q113 68 258 68q144 0 259 -68q114 -68 177 -187q63 -120 63 -276q0 -154 -63 -276t-177 -189q-113 -67 -259 -67t-258 67zM791 137q89 55 139 156q49 99 49 227t-49 226q-50 99 -139 156
q-88 56 -205 56t-204 -56q-88 -57 -138 -156q-49 -98 -49 -226t49 -227q50 -101 138 -156t204 -55t205 55zM547 1169l186 271h123l-225 -271h-84z" />
    <glyph glyph-name="ocircumflex" unicode="&#xf4;" horiz-adv-x="1173" 
d="M328 55q-113 68 -176 189q-64 123 -64 276q0 154 64 276q62 119 176 187q113 68 258 68q144 0 259 -68q114 -68 177 -187q63 -120 63 -276q0 -154 -63 -276t-177 -189q-113 -67 -259 -67t-258 67zM791 137q89 55 139 156q49 99 49 227t-49 226q-50 99 -139 156
q-88 56 -205 56t-204 -56q-88 -57 -138 -156q-49 -98 -49 -226t49 -227q50 -101 138 -156t204 -55t205 55zM586 1370l-209 -203h-103l261 273h102l260 -273h-104z" />
    <glyph glyph-name="otilde" unicode="&#xf5;" horiz-adv-x="1173" 
d="M328 55q-113 68 -176 189q-64 123 -64 276q0 154 64 276q62 119 176 187q113 68 258 68q144 0 259 -68q114 -68 177 -187q63 -120 63 -276q0 -154 -63 -276t-177 -189q-113 -67 -259 -67t-258 67zM791 137q89 55 139 156q49 99 49 227t-49 226q-50 99 -139 156
q-88 56 -205 56t-204 -56q-88 -57 -138 -156q-49 -98 -49 -226t49 -227q50 -101 138 -156t204 -55t205 55zM411 1318q-22 -33 -22 -77h-67v16q0 73 39 118q40 46 110 46q49 0 76 -17q30 -19 59 -48q27 -27 45 -39t47 -12q41 0 62 31q20 30 20 75h70v-14q0 -72 -40 -118
t-110 -46q-48 0 -74 16q-31 19 -61 49q-27 27 -45 39q-20 13 -47 13q-41 0 -62 -32z" />
    <glyph glyph-name="odieresis" unicode="&#xf6;" horiz-adv-x="1173" 
d="M328 55q-113 68 -176 189q-64 123 -64 276q0 154 64 276q62 119 176 187q113 68 258 68q144 0 259 -68q114 -68 177 -187q63 -120 63 -276q0 -154 -63 -276t-177 -189q-113 -67 -259 -67t-258 67zM791 137q89 55 139 156q49 99 49 227t-49 226q-50 99 -139 156
q-88 56 -205 56t-204 -56q-88 -57 -138 -156q-49 -98 -49 -226t49 -227q50 -101 138 -156t204 -55t205 55zM362 1376q21 21 52 21q32 0 53 -21q20 -20 20 -51t-20 -51q-21 -21 -53 -21q-31 0 -52 21q-20 20 -20 51t20 51zM706 1376q21 21 52 21q30 0 51 -21q20 -20 20 -51
t-20 -51q-21 -21 -51 -21q-31 0 -52 21q-22 22 -22 51t22 51z" />
    <glyph glyph-name="divide" unicode="&#xf7;" 
d="M486 1014q20 20 57 20q35 0 55 -20t20 -53q0 -37 -20 -57q-21 -21 -55 -21q-36 0 -57 21t-21 57q0 32 21 53zM135 545v88h811v-88h-811zM486 289q20 20 57 20q35 0 55 -20t20 -53q0 -37 -20 -57q-21 -21 -55 -21q-36 0 -57 21t-21 57q0 32 21 53z" />
    <glyph glyph-name="oslash" unicode="&#xf8;" horiz-adv-x="1177" 
d="M973 872q56 -68 84 -157q28 -88 28 -195q0 -154 -63 -276t-177 -189q-113 -67 -259 -67q-196 0 -330 118l-111 -118l-57 55l115 121q-115 145 -115 356q0 154 64 276q62 119 176 187q113 68 258 68q201 0 334 -121l112 121l58 -54zM272 242l578 614q-106 102 -264 102
q-117 0 -204 -56q-88 -57 -138 -156q-49 -98 -49 -226q0 -167 77 -278zM901 797l-575 -617q101 -98 260 -98q116 0 205 55t139 156q49 99 49 227q0 160 -78 277z" />
    <glyph glyph-name="ugrave" unicode="&#xf9;" horiz-adv-x="1103" 
d="M981 1038v-1038h-92l-15 219q-46 -105 -139 -169q-90 -62 -225 -62q-182 0 -290 117q-109 118 -109 352v581h104v-575q0 -185 82 -282t229 -97q162 0 256 120q95 121 95 324v510h104zM281 1440h122l185 -271h-86z" />
    <glyph glyph-name="uacute" unicode="&#xfa;" horiz-adv-x="1103" 
d="M981 1038v-1038h-92l-15 219q-46 -105 -139 -169q-90 -62 -225 -62q-182 0 -290 117q-109 118 -109 352v581h104v-575q0 -185 82 -282t229 -97q162 0 256 120q95 121 95 324v510h104zM508 1169l186 271h123l-225 -271h-84z" />
    <glyph glyph-name="ucircumflex" unicode="&#xfb;" horiz-adv-x="1103" 
d="M981 1038v-1038h-92l-15 219q-46 -105 -139 -169q-90 -62 -225 -62q-182 0 -290 117q-109 118 -109 352v581h104v-575q0 -185 82 -282t229 -97q162 0 256 120q95 121 95 324v510h104zM547 1370l-209 -203h-102l260 273h102l260 -273h-104z" />
    <glyph glyph-name="udieresis" unicode="&#xfc;" horiz-adv-x="1103" 
d="M981 1038v-1038h-92l-15 219q-46 -105 -139 -169q-90 -62 -225 -62q-182 0 -290 117q-109 118 -109 352v581h104v-575q0 -185 82 -282t229 -97q162 0 256 120q95 121 95 324v510h104zM324 1376q21 21 51 21q32 0 53 -21t21 -51t-21 -51t-53 -21q-30 0 -51 21t-21 51
t21 51zM667 1376q21 21 52 21q30 0 51 -21t21 -51t-21 -51t-51 -21q-31 0 -52 21q-22 22 -22 51t22 51z" />
    <glyph glyph-name="yacute" unicode="&#xfd;" horiz-adv-x="976" 
d="M131 1038l361 -915l354 915h112l-497 -1231q-38 -94 -64 -135q-27 -43 -65 -62q-40 -20 -109 -20h-160v97h132q53 0 80 12q28 12 46 41q17 27 46 94l67 162l-416 1042h113zM446 1169l187 271h123l-226 -271h-84z" />
    <glyph glyph-name="thorn" unicode="&#xfe;" horiz-adv-x="1202" 
d="M227 1434v-650q50 122 152 194q103 73 246 73q141 0 253 -65t174 -185t62 -281q0 -156 -62 -276q-63 -122 -174 -189q-110 -67 -253 -67q-146 0 -249 70q-104 71 -149 192v-660h-104v1844h104zM958 746q-50 99 -138 156q-87 56 -204 56q-116 0 -203 -56
q-90 -58 -139 -156t-49 -224q0 -130 49 -229q49 -100 139 -156q88 -55 203 -55q116 0 204 55t138 156q50 102 50 227q0 126 -50 226z" />
    <glyph glyph-name="ydieresis" unicode="&#xff;" horiz-adv-x="976" 
d="M131 1038l361 -915l354 915h112l-497 -1231q-38 -94 -64 -135q-27 -43 -65 -62q-40 -20 -109 -20h-160v97h132q53 0 80 12q28 12 46 41q17 27 46 94l67 162l-416 1042h113zM262 1376q21 21 51 21q33 0 54 -21q20 -20 20 -51t-20 -51q-21 -21 -54 -21q-30 0 -51 21
q-20 20 -20 51t20 51zM605 1376q21 21 52 21t52 -21q20 -20 20 -51t-20 -51q-21 -21 -52 -21t-52 21t-21 51t21 51z" />
    <glyph glyph-name="Amacron" unicode="&#x100;" horiz-adv-x="1306" 
d="M35 0l553 1434h131l553 -1434h-119l-172 438h-659l-172 -438h-115zM354 541h594l-297 772zM391 1683v80h524v-80h-524z" />
    <glyph glyph-name="amacron" unicode="&#x101;" horiz-adv-x="1095" 
d="M1079 96v-96h-61q-90 0 -132 45t-38 127v43q-46 -103 -148 -166q-100 -61 -249 -61q-168 0 -269 80q-100 79 -100 217q0 147 105 228t305 81h352v90q0 130 -81 202t-226 72q-129 0 -210 -57t-102 -153h-104q21 142 131 222q111 81 289 81q193 0 301 -97q106 -96 106 -274
v-483q0 -46 25 -74q24 -27 67 -27h39zM844 504h-361q-143 0 -219 -55t-76 -158q0 -96 73 -155q71 -58 196 -58q179 0 283 95t104 247v84zM274 1288v80h525v-80h-525z" />
    <glyph glyph-name="Abreve" unicode="&#x102;" horiz-adv-x="1306" 
d="M35 0l553 1434h131l553 -1434h-119l-172 438h-659l-172 -438h-115zM354 541h594l-297 772zM479 1835q0 -79 48 -128q48 -50 124 -50q77 0 127 50q49 49 49 128h84q-1 -115 -74 -188q-72 -72 -188 -72q-113 0 -182 71q-71 72 -72 189h84z" />
    <glyph glyph-name="abreve" unicode="&#x103;" horiz-adv-x="1095" 
d="M1079 96v-96h-61q-90 0 -132 45t-38 127v43q-46 -103 -148 -166q-100 -61 -249 -61q-168 0 -269 80q-100 79 -100 217q0 147 105 228t305 81h352v90q0 130 -81 202t-226 72q-129 0 -210 -57t-102 -153h-104q21 142 131 222q111 81 289 81q193 0 301 -97q106 -96 106 -274
v-483q0 -46 25 -74q24 -27 67 -27h39zM844 504h-361q-143 0 -219 -55t-76 -158q0 -96 73 -155q71 -58 196 -58q179 0 283 95t104 247v84zM362 1440q0 -77 49 -128q48 -50 124 -50q77 0 127 50q49 49 49 128h84q-1 -115 -75 -189q-71 -71 -188 -71q-113 0 -182 70
q-69 71 -71 190h83z" />
    <glyph glyph-name="Aogonek" unicode="&#x104;" horiz-adv-x="1306" 
d="M1288 -332v-78h-141q-87 0 -136 43q-50 44 -50 117q0 71 49 130q51 62 141 124l-170 434h-659l-172 -438h-115l553 1434h131l553 -1434q-106 -66 -167 -122q-56 -52 -56 -114q0 -44 30 -70q31 -26 84 -26h125zM354 541h594l-297 772z" />
    <glyph glyph-name="aogonek" unicode="&#x105;" horiz-adv-x="1095" 
d="M1096 -332v-78h-142q-87 0 -136 43q-50 44 -50 117q0 68 50 129q45 55 143 127q-119 27 -113 166v43q-46 -103 -148 -166q-100 -61 -249 -61q-168 0 -269 80q-100 79 -100 217q0 147 105 228t305 81h352v90q0 130 -81 202t-226 72q-129 0 -210 -57t-102 -153h-104
q21 142 131 222q111 81 289 81q193 0 301 -97q106 -96 106 -274v-483q0 -46 25 -74q24 -27 67 -27h39v-96q-106 -66 -167 -122q-56 -52 -56 -114q0 -44 31 -70t84 -26h125zM844 504h-361q-143 0 -219 -55t-76 -158q0 -96 73 -155q71 -58 196 -58q179 0 283 95t104 247v84z
" />
    <glyph glyph-name="Cacute" unicode="&#x106;" horiz-adv-x="1437" 
d="M178 1096q82 166 234 258t350 92q227 0 381 -119q153 -118 198 -334h-110q-45 167 -170 259q-124 91 -305 91q-165 0 -287 -79t-190 -223t-68 -324q0 -181 68 -325q68 -143 190 -222q124 -80 287 -80q184 0 306 90q122 91 167 262h110q-46 -217 -197 -336
q-149 -118 -380 -118q-199 0 -350 91q-152 92 -234 257t-82 381q0 214 82 379zM723 1565l186 270h123l-225 -270h-84z" />
    <glyph glyph-name="cacute" unicode="&#x107;" horiz-adv-x="1107" 
d="M871 81q-119 -93 -291 -93q-147 0 -257 67q-112 68 -173 189q-62 122 -62 278t63 276t175 186q114 67 258 67q172 0 290 -94q118 -93 146 -252h-105q-27 117 -116 185t-219 68q-114 0 -200 -55q-87 -55 -136 -154q-49 -98 -49 -227q0 -128 49 -227q49 -100 136 -157
q85 -56 200 -56q129 0 219 69q89 68 116 185h105q-30 -162 -149 -255zM545 1169l186 271h123l-225 -271h-84z" />
    <glyph glyph-name="Ccircumflex" unicode="&#x108;" horiz-adv-x="1437" 
d="M178 1096q82 166 234 258t350 92q227 0 381 -119q153 -118 198 -334h-110q-45 167 -170 259q-124 91 -305 91q-165 0 -287 -79t-190 -223t-68 -324q0 -181 68 -325q68 -143 190 -222q124 -80 287 -80q184 0 306 90q122 91 167 262h110q-46 -217 -197 -336
q-149 -118 -380 -118q-199 0 -350 91q-152 92 -234 257t-82 381q0 214 82 379zM762 1765l-209 -202h-102l260 272h102l260 -272h-104z" />
    <glyph glyph-name="ccircumflex" unicode="&#x109;" horiz-adv-x="1107" 
d="M871 81q-119 -93 -291 -93q-147 0 -257 67q-112 68 -173 189q-62 122 -62 278t63 276t175 186q114 67 258 67q172 0 290 -94q118 -93 146 -252h-105q-27 117 -116 185t-219 68q-114 0 -200 -55q-87 -55 -136 -154q-49 -98 -49 -227q0 -128 49 -227q49 -100 136 -157
q85 -56 200 -56q129 0 219 69q89 68 116 185h105q-30 -162 -149 -255zM584 1370l-209 -203h-103l260 273h103l260 -273h-104z" />
    <glyph glyph-name="Cdotaccent" unicode="&#x10a;" horiz-adv-x="1437" 
d="M178 1096q82 166 234 258t350 92q227 0 381 -119q153 -118 198 -334h-110q-45 167 -170 259q-124 91 -305 91q-165 0 -287 -79t-190 -223t-68 -324q0 -181 68 -325q68 -143 190 -222q124 -80 287 -80q184 0 306 90q122 91 167 262h110q-46 -217 -197 -336
q-149 -118 -380 -118q-199 0 -350 91q-152 92 -234 257t-82 381q0 214 82 379zM711 1795q22 20 51 20t51 -20q21 -19 21 -50q0 -30 -21 -51t-51 -21t-51 21t-21 51q0 31 21 50z" />
    <glyph glyph-name="cdotaccent" unicode="&#x10b;" horiz-adv-x="1107" 
d="M871 81q-119 -93 -291 -93q-147 0 -257 67q-112 68 -173 189q-62 122 -62 278t63 276t175 186q114 67 258 67q172 0 290 -94q118 -93 146 -252h-105q-27 117 -116 185t-219 68q-114 0 -200 -55q-87 -55 -136 -154q-49 -98 -49 -227q0 -128 49 -227q49 -100 136 -157
q85 -56 200 -56q129 0 219 69q89 68 116 185h105q-30 -162 -149 -255zM532 1400q20 19 52 19q31 0 51 -19t20 -50q0 -32 -20 -52t-51 -20q-32 0 -52 20t-20 52q0 31 20 50z" />
    <glyph glyph-name="Ccaron" unicode="&#x10c;" horiz-adv-x="1437" 
d="M178 1096q82 166 234 258t350 92q227 0 381 -119q153 -118 198 -334h-110q-45 167 -170 259q-124 91 -305 91q-165 0 -287 -79t-190 -223t-68 -324q0 -181 68 -325q68 -143 190 -222q124 -80 287 -80q184 0 306 90q122 91 167 262h110q-46 -217 -197 -336
q-149 -118 -380 -118q-199 0 -350 91q-152 92 -234 257t-82 381q0 214 82 379zM762 1634l209 201h102l-260 -272h-102l-260 272h104z" />
    <glyph glyph-name="ccaron" unicode="&#x10d;" horiz-adv-x="1107" 
d="M871 81q-119 -93 -291 -93q-147 0 -257 67q-112 68 -173 189q-62 122 -62 278t63 276t175 186q114 67 258 67q172 0 290 -94q118 -93 146 -252h-105q-27 117 -116 185t-219 68q-114 0 -200 -55q-87 -55 -136 -154q-49 -98 -49 -227q0 -128 49 -227q49 -100 136 -157
q85 -56 200 -56q129 0 219 69q89 68 116 185h105q-30 -162 -149 -255zM584 1239l209 201h102l-260 -273h-103l-260 273h105z" />
    <glyph glyph-name="Dcaron" unicode="&#x10e;" horiz-adv-x="1349" 
d="M147 1434h385q227 0 388 -88q162 -88 247 -250q86 -163 86 -379t-86 -379q-85 -162 -247 -250q-161 -88 -388 -88h-385v1434zM532 102q290 0 449 165q160 166 160 450q0 287 -159 450q-159 164 -450 164h-274v-1229h274zM604 1634l209 201h102l-260 -272h-102l-260 272
h104z" />
    <glyph glyph-name="dcaron" unicode="&#x10f;" horiz-adv-x="1302" 
d="M1079 1434v-1434h-90l-16 236q-51 -113 -154 -181q-101 -67 -241 -67q-144 0 -253 65q-111 66 -174 186t-63 281q0 153 63 275q62 120 174 188t253 68q143 0 245 -66q103 -66 152 -180v629h104zM790 137q88 55 138 155q49 98 49 226t-49 227q-49 100 -138 157
q-87 56 -204 56t-204 -56q-88 -57 -138 -156q-49 -98 -49 -226t49 -227q50 -101 138 -156t204 -55t204 55zM1262 1434h100l-109 -297h-77z" />
    <glyph glyph-name="Dcroat" unicode="&#x110;" horiz-adv-x="1382" 
d="M952 1346q163 -89 248 -250q86 -163 86 -379t-86 -379q-85 -161 -248 -250q-161 -88 -387 -88h-385v684h-184v94h184v656h385q226 0 387 -88zM1014 267q160 166 160 450q0 287 -159 450q-159 164 -450 164h-274v-553h321v-94h-321v-582h274q290 0 449 165z" />
    <glyph glyph-name="dcroat" unicode="&#x111;" horiz-adv-x="1222" 
d="M1262 1192h-183v-1192h-90l-16 236q-51 -113 -154 -181q-101 -67 -241 -67q-144 0 -253 65q-111 66 -174 186t-63 281q0 153 63 275q62 120 174 188t253 68q143 0 245 -66q103 -66 152 -180v387h-301v90h301v152h104v-152h183v-90zM790 137q88 55 138 155q49 98 49 226
t-49 227q-49 100 -138 157q-87 56 -204 56t-204 -56q-88 -57 -138 -156q-49 -98 -49 -226t49 -227q50 -101 138 -156t204 -55t204 55z" />
    <glyph glyph-name="Emacron" unicode="&#x112;" horiz-adv-x="1118" 
d="M147 1434h883v-103h-772v-549h647v-102h-647v-578h799v-102h-910v1434zM303 1683v80h524v-80h-524z" />
    <glyph glyph-name="emacron" unicode="&#x113;" horiz-adv-x="1134" 
d="M148 797q59 120 170 187t249 67q137 0 244 -59q106 -58 169 -169q62 -110 67 -262q0 -13 -3 -43h-845q-2 -10 -2 -24q1 -121 51 -214q50 -94 135 -146t195 -52q126 0 221 71t125 191h106q-38 -160 -157 -258t-287 -98q-146 0 -259 67t-176 189q-63 121 -63 276t60 277z
M938 606q-15 169 -114 260q-100 92 -255 92q-94 0 -174 -44t-131 -123q-52 -80 -59 -185h733zM301 1288v80h524v-80h-524z" />
    <glyph glyph-name="Ebreve" unicode="&#x114;" horiz-adv-x="1118" 
d="M147 1434h883v-103h-772v-549h647v-102h-647v-578h799v-102h-910v1434zM391 1835q0 -79 48 -128q48 -50 124 -50q77 0 127 50q49 49 49 128h84q-1 -115 -74 -188q-72 -72 -188 -72q-113 0 -182 71q-71 72 -72 189h84z" />
    <glyph glyph-name="ebreve" unicode="&#x115;" horiz-adv-x="1134" 
d="M148 797q59 120 170 187t249 67q137 0 244 -59q106 -58 169 -169q62 -110 67 -262q0 -13 -3 -43h-845q-2 -10 -2 -24q1 -121 51 -214q50 -94 135 -146t195 -52q126 0 221 71t125 191h106q-38 -160 -157 -258t-287 -98q-146 0 -259 67t-176 189q-63 121 -63 276t60 277z
M938 606q-15 169 -114 260q-100 92 -255 92q-94 0 -174 -44t-131 -123q-52 -80 -59 -185h733zM389 1440q0 -78 48 -128t124 -50q77 0 127 50q49 49 49 128h84q-1 -115 -75 -189q-71 -71 -187 -71q-113 0 -182 70q-71 72 -72 190h84z" />
    <glyph glyph-name="Edotaccent" unicode="&#x116;" horiz-adv-x="1118" 
d="M147 1434h883v-103h-772v-549h647v-102h-647v-578h799v-102h-910v1434zM514 1795q22 20 51 20t51 -20q21 -19 21 -50q0 -30 -21 -51t-51 -21t-51 21q-20 20 -20 51t20 50z" />
    <glyph glyph-name="edotaccent" unicode="&#x117;" horiz-adv-x="1134" 
d="M148 797q59 120 170 187t249 67q137 0 244 -59q106 -58 169 -169q62 -110 67 -262q0 -13 -3 -43h-845q-2 -10 -2 -24q1 -121 51 -214q50 -94 135 -146t195 -52q126 0 221 71t125 191h106q-38 -160 -157 -258t-287 -98q-146 0 -259 67t-176 189q-63 121 -63 276t60 277z
M938 606q-15 169 -114 260q-100 92 -255 92q-94 0 -174 -44t-131 -123q-52 -80 -59 -185h733zM512 1400q20 19 51 19t51 -19q21 -20 21 -50q0 -31 -21 -52q-20 -20 -51 -20t-51 20t-20 52q0 31 20 50z" />
    <glyph glyph-name="Eogonek" unicode="&#x118;" horiz-adv-x="1118" 
d="M1073 -332v-78h-141q-87 0 -136 43q-51 45 -51 117q0 69 49 127t136 123h-783v1434h883v-103h-772v-549h647v-102h-647v-578h799v-102q-106 -66 -167 -122q-56 -52 -56 -114q0 -44 30 -70q31 -26 84 -26h125z" />
    <glyph glyph-name="eogonek" unicode="&#x119;" horiz-adv-x="1134" 
d="M199 518q-2 -10 -2 -24q1 -121 51 -214q50 -94 135 -146t195 -52q126 0 221 71t125 191h106q-29 -131 -119 -223q-91 -93 -219 -121q-108 -67 -166 -122q-55 -52 -55 -114q0 -44 31 -70t84 -26h125v-78h-142q-87 0 -136 43q-50 44 -50 117q0 67 44 123q43 54 126 115
q-136 7 -243 78q-106 70 -164 187t-58 267q0 155 60 277q59 120 170 187t249 67q137 0 244 -59q106 -58 169 -169q62 -110 67 -262q0 -13 -3 -43h-845zM395 914q-80 -44 -131 -123q-52 -80 -59 -185h733q-15 169 -114 260q-100 92 -255 92q-94 0 -174 -44z" />
    <glyph glyph-name="Ecaron" unicode="&#x11a;" horiz-adv-x="1118" 
d="M147 1434h883v-103h-772v-549h647v-102h-647v-578h799v-102h-910v1434zM565 1634l209 201h103l-261 -272h-102l-260 272h104z" />
    <glyph glyph-name="ecaron" unicode="&#x11b;" horiz-adv-x="1134" 
d="M148 797q59 120 170 187t249 67q137 0 244 -59q106 -58 169 -169q62 -110 67 -262q0 -13 -3 -43h-845q-2 -10 -2 -24q1 -121 51 -214q50 -94 135 -146t195 -52q126 0 221 71t125 191h106q-38 -160 -157 -258t-287 -98q-146 0 -259 67t-176 189q-63 121 -63 276t60 277z
M938 606q-15 169 -114 260q-100 92 -255 92q-94 0 -174 -44t-131 -123q-52 -80 -59 -185h733zM563 1239l209 201h102l-260 -273h-102l-260 273h104z" />
    <glyph glyph-name="Gcircumflex" unicode="&#x11c;" horiz-adv-x="1513" 
d="M178 1096q83 167 232 258q151 92 350 92q225 0 379 -119q153 -119 200 -334h-108q-49 168 -172 259q-122 91 -303 91q-165 0 -287 -79t-190 -223t-68 -324q0 -183 66 -325q65 -141 189 -222q122 -80 279 -80q156 0 272 65q114 64 178 176q62 109 62 253v61h-471v103h578
v-748h-92l-10 328q-50 -142 -185 -242q-132 -98 -334 -98q-187 0 -335 92t-230 258q-82 165 -82 379t82 379zM758 1765l-209 -202h-103l261 272h102l260 -272h-104z" />
    <glyph glyph-name="gcircumflex" unicode="&#x11d;" horiz-adv-x="1202" 
d="M1079 1038v-975q0 -245 -121 -365q-122 -120 -372 -120q-194 0 -316 88q-123 88 -147 252h108q24 -115 120 -181q95 -65 243 -65q191 0 287 96q94 94 94 300v182q-52 -124 -153 -193q-102 -69 -244 -69q-144 0 -253 65q-111 66 -174 186t-63 281q0 156 63 277t174 187
q113 67 253 67t243 -68t152 -186l16 241h90zM790 137q88 55 138 155q49 98 49 226q0 131 -49 230t-138 155q-88 55 -204 55t-204 -55q-89 -56 -138 -155t-49 -228q0 -128 49 -227q50 -101 138 -156t204 -55t204 55zM584 1370l-209 -203h-103l260 273h103l260 -273h-104z" />
    <glyph glyph-name="Gbreve" unicode="&#x11e;" horiz-adv-x="1513" 
d="M178 1096q83 167 232 258q151 92 350 92q225 0 379 -119q153 -119 200 -334h-108q-49 168 -172 259q-122 91 -303 91q-165 0 -287 -79t-190 -223t-68 -324q0 -183 66 -325q65 -141 189 -222q122 -80 279 -80q156 0 272 65q114 64 178 176q62 109 62 253v61h-471v103h578
v-748h-92l-10 328q-50 -142 -185 -242q-132 -98 -334 -98q-187 0 -335 92t-230 258q-82 165 -82 379t82 379zM584 1835q0 -79 48 -128q48 -50 124 -50q77 0 127 50q49 49 49 128h84q-1 -114 -75 -188q-72 -72 -187 -72q-114 0 -183 71q-70 71 -71 189h84z" />
    <glyph glyph-name="gbreve" unicode="&#x11f;" horiz-adv-x="1202" 
d="M1079 1038v-975q0 -245 -121 -365q-122 -120 -372 -120q-194 0 -316 88q-123 88 -147 252h108q24 -115 120 -181q95 -65 243 -65q191 0 287 96q94 94 94 300v182q-52 -124 -153 -193q-102 -69 -244 -69q-144 0 -253 65q-111 66 -174 186t-63 281q0 156 63 277t174 187
q113 67 253 67t243 -68t152 -186l16 241h90zM790 137q88 55 138 155q49 98 49 226q0 131 -49 230t-138 155q-88 55 -204 55t-204 -55q-89 -56 -138 -155t-49 -228q0 -128 49 -227q50 -101 138 -156t204 -55t204 55zM410 1440q0 -78 48 -128t124 -50q77 0 127 50
q49 49 49 128h84q-1 -115 -75 -189q-71 -71 -187 -71q-114 0 -183 70q-69 71 -71 190h84z" />
    <glyph glyph-name="Gdotaccent" unicode="&#x120;" horiz-adv-x="1513" 
d="M178 1096q83 167 232 258q151 92 350 92q225 0 379 -119q153 -119 200 -334h-108q-49 168 -172 259q-122 91 -303 91q-165 0 -287 -79t-190 -223t-68 -324q0 -183 66 -325q65 -141 189 -222q122 -80 279 -80q156 0 272 65q114 64 178 176q62 109 62 253v61h-471v103h578
v-748h-92l-10 328q-50 -142 -185 -242q-132 -98 -334 -98q-187 0 -335 92t-230 258q-82 165 -82 379t82 379zM707 1795q22 20 51 20t51 -20q20 -19 20 -50t-20 -51q-21 -21 -51 -21t-51 21t-21 51q0 31 21 50z" />
    <glyph glyph-name="gdotaccent" unicode="&#x121;" horiz-adv-x="1202" 
d="M1079 1038v-975q0 -245 -121 -365q-122 -120 -372 -120q-194 0 -316 88q-123 88 -147 252h108q24 -115 120 -181q95 -65 243 -65q191 0 287 96q94 94 94 300v182q-52 -124 -153 -193q-102 -69 -244 -69q-144 0 -253 65q-111 66 -174 186t-63 281q0 156 63 277t174 187
q113 67 253 67t243 -68t152 -186l16 241h90zM790 137q88 55 138 155q49 98 49 226q0 131 -49 230t-138 155q-88 55 -204 55t-204 -55q-89 -56 -138 -155t-49 -228q0 -128 49 -227q50 -101 138 -156t204 -55t204 55zM532 1400q20 19 52 19q31 0 51 -19t20 -50q0 -32 -20 -52
t-51 -20q-32 0 -52 20t-20 52q0 31 20 50z" />
    <glyph glyph-name="Gcommaaccent" unicode="&#x122;" horiz-adv-x="1513" 
d="M178 1096q83 167 232 258q151 92 350 92q225 0 379 -119q153 -119 200 -334h-108q-49 168 -172 259q-122 91 -303 91q-165 0 -287 -79t-190 -223t-68 -324q0 -183 66 -325q65 -141 189 -222q122 -80 279 -80q156 0 272 65q114 64 178 176q62 109 62 253v61h-471v103h578
v-748h-92l-10 328q-50 -142 -185 -242q-132 -98 -334 -98q-187 0 -335 92t-230 258q-82 165 -82 379t82 379zM690 -109h103l-121 -288h-78z" />
    <glyph glyph-name="gcommaaccent" unicode="&#x123;" horiz-adv-x="1202" 
d="M1079 1038v-975q0 -245 -121 -365q-122 -120 -372 -120q-194 0 -316 88q-123 88 -147 252h108q24 -115 120 -181q95 -65 243 -65q191 0 287 96q94 94 94 300v182q-52 -124 -153 -193q-102 -69 -244 -69q-144 0 -253 65q-111 66 -174 186t-63 281q0 156 63 277t174 187
q113 67 253 67t243 -68t152 -186l16 241h90zM790 137q88 55 138 155q49 98 49 226q0 131 -49 230t-138 155q-88 55 -204 55t-204 -55q-89 -56 -138 -155t-49 -228q0 -128 49 -227q50 -101 138 -156t204 -55t204 55zM618 1151h-102l115 289h82z" />
    <glyph glyph-name="Hcircumflex" unicode="&#x124;" horiz-adv-x="1345" 
d="M147 1436h111v-654h829v654h111v-1436h-111v680h-829v-680h-111v1436zM672 1765l-209 -202h-103l261 272h102l260 -272h-104z" />
    <glyph glyph-name="hcircumflex" unicode="&#x125;" horiz-adv-x="1122" 
d="M900 934q112 -118 112 -352v-582h-105v578q0 182 -85 279t-236 97q-167 0 -262 -119q-97 -121 -97 -323v-512h-104v1434h104v-641q46 118 142 188t233 70q187 0 298 -117zM174 1745l-209 -203h-102l260 273h102l260 -273h-104z" />
    <glyph glyph-name="Hbar" unicode="&#x126;" horiz-adv-x="1363" 
d="M1366 1149v-94h-160v-1055h-110v664h-828v-664h-110v1055h-162v94h162v287h110v-287h828v287h110v-287h160zM1096 766v289h-828v-289h828z" />
    <glyph glyph-name="hbar" unicode="&#x127;" horiz-adv-x="1140" 
d="M919 934q111 -117 111 -352v-582h-104v578q0 182 -85 279t-237 97q-167 0 -262 -119q-96 -120 -96 -323v-512h-105v1192h-180v90h180v152h105v-152h303v-90h-303v-399q47 119 141 188q96 70 234 70q187 0 298 -117z" />
    <glyph glyph-name="Itilde" unicode="&#x128;" horiz-adv-x="405" 
d="M147 1434h111v-1434h-111v1434zM28 1713q-22 -33 -22 -77h-67v17q0 72 39 117q41 47 110 47q48 0 76 -18q30 -19 59 -48q27 -27 45 -39t47 -12q41 0 62 32q20 30 20 74h70v-14q0 -72 -40 -118t-110 -46q-46 0 -74 17q-31 19 -61 49q-27 27 -45 39t-47 12q-41 0 -62 -32z
" />
    <glyph glyph-name="itilde" unicode="&#x129;" horiz-adv-x="350" 
d="M123 1038h104v-1038h-104v1038zM1 1318q-21 -32 -21 -77h-68v16q0 72 40 118t109 46q49 0 76 -17q33 -21 60 -48t45 -39t47 -12q40 0 61 31q21 32 21 75h69v-14q0 -72 -40 -118t-109 -46q-49 0 -75 16q-28 17 -60 49q-27 27 -45 39q-19 13 -48 13q-41 0 -62 -32z" />
    <glyph glyph-name="Imacron" unicode="&#x12a;" horiz-adv-x="405" 
d="M147 1434h111v-1434h-111v1434zM-59 1683v80h524v-80h-524z" />
    <glyph glyph-name="imacron" unicode="&#x12b;" horiz-adv-x="350" 
d="M123 1038h104v-1038h-104v1038zM-86 1288v80h524v-80h-524z" />
    <glyph glyph-name="Ibreve" unicode="&#x12c;" horiz-adv-x="405" 
d="M147 1434h111v-1434h-111v1434zM29 1835q0 -79 48 -128q48 -50 124 -50q77 0 127 50q49 49 49 128h84q-1 -114 -75 -188q-72 -72 -187 -72q-114 0 -183 71q-70 71 -71 189h84z" />
    <glyph glyph-name="ibreve" unicode="&#x12d;" horiz-adv-x="350" 
d="M123 1038h104v-1038h-104v1038zM2 1440q0 -78 48 -128t124 -50q77 0 127 50q49 49 49 128h84q-1 -115 -75 -189q-71 -71 -187 -71q-113 0 -182 70q-71 72 -72 190h84z" />
    <glyph glyph-name="Iogonek" unicode="&#x12e;" horiz-adv-x="405" 
d="M274 -332v-78h-141q-87 0 -136 43q-50 44 -50 117t52 132q54 62 148 128v1424h111v-1434q-106 -66 -167 -122q-56 -52 -56 -114q0 -44 31 -70t84 -26h124z" />
    <glyph glyph-name="iogonek" unicode="&#x12f;" horiz-adv-x="350" 
d="M122 1292q-22 22 -22 54q0 31 22 53q20 20 52 20q33 0 53 -20q21 -21 21 -53q0 -33 -21 -54q-20 -20 -53 -20q-32 0 -52 20zM35 -306q31 -26 84 -26h125v-78h-142q-87 0 -136 43q-50 44 -50 117t53 134t154 130v1024h104v-1038q-106 -66 -167 -122q-56 -52 -56 -114
q0 -44 31 -70z" />
    <glyph glyph-name="Idotaccent" unicode="&#x130;" horiz-adv-x="405" 
d="M147 1434h111v-1434h-111v1434zM152 1795q22 20 51 20t51 -20q20 -19 20 -50t-20 -51q-21 -21 -51 -21t-51 21t-21 51q0 31 21 50z" />
    <glyph glyph-name="dotlessi" unicode="&#x131;" horiz-adv-x="350" 
d="M123 1038h104v-1038h-104v1038z" />
    <glyph glyph-name="IJ" unicode="&#x132;" horiz-adv-x="1220" 
d="M252 508q0 -196 93 -307t263 -111q181 0 272 100t91 330v914h110v-912q0 -281 -120 -407q-121 -127 -353 -127q-223 0 -346 135q-123 134 -121 385h111zM141 1434h111v-588h-111v588z" />
    <glyph glyph-name="ij" unicode="&#x133;" horiz-adv-x="712" 
d="M227 1399q21 -21 21 -53q0 -33 -21 -54q-20 -20 -53 -20q-32 0 -52 20q-22 22 -22 54q0 31 22 53q20 20 52 20q33 0 53 -20zM123 1038h104v-1038h-104v1038zM590 1399q20 -20 20 -53q0 -34 -20 -54t-53 -20t-53 20q-21 21 -21 54q0 32 21 53q20 20 53 20t53 -20z
M342 -313q79 0 111 32t32 111v1208h105v-1206q0 -123 -58 -183q-57 -59 -186 -59h-127v97h123z" />
    <glyph glyph-name="Jcircumflex" unicode="&#x134;" horiz-adv-x="694" 
d="M547 1434v-1135q0 -299 -299 -299h-191v104h176q106 0 155 49q48 48 48 154v1127h111zM489 1765l-208 -202h-103l260 272h103l260 -272h-105z" />
    <glyph glyph-name="jcircumflex" unicode="&#x135;" horiz-adv-x="362" 
d="M-8 -313q78 0 110 32q33 33 33 111v1208h105v-1206q0 -123 -58 -183q-57 -59 -186 -59h-127v97h123zM186 1370l-209 -203h-102l260 273h103l260 -273h-105z" />
    <glyph glyph-name="Kcommaaccent" unicode="&#x136;" horiz-adv-x="1249" 
d="M147 1434h111v-904l793 904h135l-520 -600l567 -834h-133l-514 750l-328 -375v-375h-111v1434zM594 -109h102l-121 -288h-77z" />
    <glyph glyph-name="kcommaaccent" unicode="&#x137;" horiz-adv-x="1017" 
d="M123 1434h104v-1022l607 626h127l-416 -430l450 -608h-127l-397 532l-244 -249v-283h-104v1434zM487 -109h103l-121 -288h-78z" />
    <glyph glyph-name="Lacute" unicode="&#x139;" horiz-adv-x="991" 
d="M147 0v1434h111v-1332h686v-102h-797zM164 1565l186 270h123l-225 -270h-84z" />
    <glyph glyph-name="lacute" unicode="&#x13a;" horiz-adv-x="350" 
d="M123 1434h104v-1434h-104v1434zM135 1544l187 271h122l-225 -271h-84z" />
    <glyph glyph-name="Lcommaaccent" unicode="&#x13b;" horiz-adv-x="991" 
d="M147 0v1434h111v-1332h686v-102h-797zM487 -109h103l-121 -288h-78z" />
    <glyph glyph-name="lcommaaccent" unicode="&#x13c;" horiz-adv-x="350" 
d="M123 1434h104v-1434h-104v1434zM121 -109h102l-121 -288h-77z" />
    <glyph glyph-name="Lcaron" unicode="&#x13d;" horiz-adv-x="991" 
d="M147 0v1434h111v-1332h686v-102h-797zM496 1434h100l-109 -297h-77z" />
    <glyph glyph-name="lcaron" unicode="&#x13e;" horiz-adv-x="448" 
d="M123 1434h104v-1434h-104v1434zM410 1434h100l-109 -297h-77z" />
    <glyph glyph-name="Ldot" unicode="&#x13f;" horiz-adv-x="991" 
d="M147 0v1434h111v-1332h686v-102h-797zM643 802q20 19 51 19t51 -19q21 -20 21 -50q0 -31 -21 -52q-20 -20 -51 -20t-51 20t-20 52q0 31 20 50z" />
    <glyph glyph-name="ldot" unicode="&#x140;" horiz-adv-x="557" 
d="M123 1434h104v-1434h-104v1434zM399 796q20 19 52 19q31 0 51 -19t20 -51q0 -31 -20 -51t-51 -20q-32 0 -52 20t-20 51q0 32 20 51z" />
    <glyph glyph-name="Lslash" unicode="&#x141;" horiz-adv-x="1026" 
d="M293 102h686v-102h-797v637l-186 -98v100l186 98v697h111v-637l340 180v-100l-340 -181v-594z" />
    <glyph glyph-name="lslash" unicode="&#x142;" horiz-adv-x="540" 
d="M530 967v-101l-206 -106v-760h-105v707l-211 -109v100l211 109v627h105v-574z" />
    <glyph glyph-name="Nacute" unicode="&#x143;" horiz-adv-x="1355" 
d="M147 0v1434h105l848 -1231v1231h108v-1434h-104l-848 1233v-1233h-109zM633 1565l186 270h123l-225 -270h-84z" />
    <glyph glyph-name="nacute" unicode="&#x144;" horiz-adv-x="1120" 
d="M900 934q112 -118 112 -352v-582h-105v578q0 182 -85 279t-236 97q-167 0 -262 -119q-97 -121 -97 -323v-512h-104v1038h90l16 -221q46 106 142 170t231 64q187 0 298 -117zM555 1169l186 271h123l-225 -271h-84z" />
    <glyph glyph-name="Ncommaaccent" unicode="&#x145;" horiz-adv-x="1355" 
d="M147 0v1434h105l848 -1231v1231h108v-1434h-104l-848 1233v-1233h-109zM625 -109h102l-121 -288h-78z" />
    <glyph glyph-name="ncommaaccent" unicode="&#x146;" horiz-adv-x="1120" 
d="M900 934q112 -118 112 -352v-582h-105v578q0 182 -85 279t-236 97q-167 0 -262 -119q-97 -121 -97 -323v-512h-104v1038h90l16 -221q46 106 142 170t231 64q187 0 298 -117zM514 -109h102l-120 -288h-78z" />
    <glyph glyph-name="Ncaron" unicode="&#x147;" horiz-adv-x="1355" 
d="M147 0v1434h105l848 -1231v1231h108v-1434h-104l-848 1233v-1233h-109zM672 1634l209 201h102l-260 -272h-102l-261 272h105z" />
    <glyph glyph-name="ncaron" unicode="&#x148;" horiz-adv-x="1120" 
d="M900 934q112 -118 112 -352v-582h-105v578q0 182 -85 279t-236 97q-167 0 -262 -119q-97 -121 -97 -323v-512h-104v1038h90l16 -221q46 106 142 170t231 64q187 0 298 -117zM594 1239l209 201h102l-260 -273h-102l-260 273h104z" />
    <glyph glyph-name="napostrophe" unicode="&#x149;" horiz-adv-x="1441" 
d="M257 1394q36 -49 36 -120q0 -102 -63 -167t-167 -69v62q73 1 114 50q40 47 40 112q0 35 -18 53q-16 -25 -52 -25q-29 0 -51 20q-20 19 -20 54q0 34 24 57q25 23 66 23q55 0 91 -50zM1220 934q111 -117 111 -352v-582h-104v578q0 182 -85 279t-237 97q-167 0 -262 -119
q-96 -120 -96 -323v-512h-105v1038h90l17 -221q47 107 141 170q96 64 232 64q187 0 298 -117z" />
    <glyph glyph-name="Eng" unicode="&#x14a;" horiz-adv-x="1355" 
d="M1208 1434v-1598q0 -129 -58 -187q-59 -59 -187 -59h-129v101h122q78 0 111 33t33 110v174l-844 1225v-1233h-109v1434h105l848 -1231v1231h108z" />
    <glyph glyph-name="eng" unicode="&#x14b;" horiz-adv-x="1120" 
d="M900 934q112 -118 112 -352v-750q0 -123 -58 -183q-57 -59 -186 -59h-133v97h127q78 0 111 32q34 33 34 111v748q0 182 -85 279t-236 97q-167 0 -262 -119q-97 -121 -97 -323v-512h-104v1038h90l14 -237q44 114 140 182q97 68 235 68q187 0 298 -117z" />
    <glyph glyph-name="Omacron" unicode="&#x14c;" horiz-adv-x="1533" 
d="M1351 341q-86 -168 -238 -260q-153 -93 -347 -93t-347 93q-152 92 -238 260q-85 166 -85 376t85 376q86 168 238 260q153 93 347 93t347 -93q152 -92 238 -260q85 -166 85 -376t-85 -376zM282 392q71 -143 196 -222q127 -80 288 -80t289 80q126 79 197 222q71 144 71 325
q0 180 -71 324q-72 145 -197 223q-127 79 -289 79q-163 0 -288 -79t-196 -223t-71 -324q0 -181 71 -325zM506 1683v80h524v-80h-524z" />
    <glyph glyph-name="omacron" unicode="&#x14d;" horiz-adv-x="1173" 
d="M328 55q-113 68 -176 189q-64 123 -64 276q0 154 64 276q62 119 176 187q113 68 258 68q144 0 259 -68q114 -68 177 -187q63 -120 63 -276q0 -154 -63 -276t-177 -189q-113 -67 -259 -67t-258 67zM791 137q89 55 139 156q49 99 49 227t-49 226q-50 99 -139 156
q-88 56 -205 56t-204 -56q-88 -57 -138 -156q-49 -98 -49 -226t49 -227q50 -101 138 -156t204 -55t205 55zM324 1288v80h524v-80h-524z" />
    <glyph glyph-name="Obreve" unicode="&#x14e;" horiz-adv-x="1533" 
d="M1351 341q-86 -168 -238 -260q-153 -93 -347 -93t-347 93q-152 92 -238 260q-85 166 -85 376t85 376q86 168 238 260q153 93 347 93t347 -93q152 -92 238 -260q85 -166 85 -376t-85 -376zM282 392q71 -143 196 -222q127 -80 288 -80t289 80q126 79 197 222q71 144 71 325
q0 180 -71 324q-72 145 -197 223q-127 79 -289 79q-163 0 -288 -79t-196 -223t-71 -324q0 -181 71 -325zM594 1835q0 -79 48 -128q48 -50 124 -50q77 0 127 50q49 49 49 128h84q-1 -114 -75 -188q-72 -72 -187 -72q-113 0 -182 71q-71 72 -72 189h84z" />
    <glyph glyph-name="obreve" unicode="&#x14f;" horiz-adv-x="1173" 
d="M328 55q-113 68 -176 189q-64 123 -64 276q0 154 64 276q62 119 176 187q113 68 258 68q144 0 259 -68q114 -68 177 -187q63 -120 63 -276q0 -154 -63 -276t-177 -189q-113 -67 -259 -67t-258 67zM791 137q89 55 139 156q49 99 49 227t-49 226q-50 99 -139 156
q-88 56 -205 56t-204 -56q-88 -57 -138 -156q-49 -98 -49 -226t49 -227q50 -101 138 -156t204 -55t205 55zM412 1440q0 -78 48 -128t124 -50q77 0 127 50q49 49 49 128h84q-1 -115 -75 -189q-71 -71 -187 -71q-114 0 -183 70q-69 71 -71 190h84z" />
    <glyph glyph-name="Ohungarumlaut" unicode="&#x150;" horiz-adv-x="1533" 
d="M1351 341q-86 -168 -238 -260q-153 -93 -347 -93t-347 93q-152 92 -238 260q-85 166 -85 376t85 376q86 168 238 260q153 93 347 93t347 -93q152 -92 238 -260q85 -166 85 -376t-85 -376zM282 392q71 -143 196 -222q127 -80 288 -80t289 80q126 79 197 222q71 144 71 325
q0 180 -71 324q-72 145 -197 223q-127 79 -289 79q-163 0 -288 -79t-196 -223t-71 -324q0 -181 71 -325zM543 1563l186 272h121l-223 -272h-84zM879 1563l186 272h119l-221 -272h-84z" />
    <glyph glyph-name="ohungarumlaut" unicode="&#x151;" horiz-adv-x="1173" 
d="M328 55q-113 68 -176 189q-64 123 -64 276q0 154 64 276q62 119 176 187q113 68 258 68q144 0 259 -68q114 -68 177 -187q63 -120 63 -276q0 -154 -63 -276t-177 -189q-113 -67 -259 -67t-258 67zM791 137q89 55 139 156q49 99 49 227t-49 226q-50 99 -139 156
q-88 56 -205 56t-204 -56q-88 -57 -138 -156q-49 -98 -49 -226t49 -227q50 -101 138 -156t204 -55t205 55zM360 1167l187 273h121l-224 -273h-84zM696 1167l187 273h118l-221 -273h-84z" />
    <glyph glyph-name="OE" unicode="&#x152;" horiz-adv-x="2314" 
d="M2253 102v-102h-910v354q-73 -172 -220 -269q-146 -97 -347 -97q-198 0 -353 93q-156 94 -241 259q-86 167 -86 377t86 377q85 165 241 259q155 93 353 93q201 0 347 -97t220 -270v355h883v-103h-772v-549h647v-102h-647v-578h799zM1073 170q130 80 200 222
q70 141 70 325q0 180 -70 323q-71 144 -200 224q-128 79 -295 79q-169 0 -297 -79t-199 -224t-71 -323q0 -181 71 -325q71 -143 199 -222q130 -80 297 -80q165 0 295 80z" />
    <glyph glyph-name="oe" unicode="&#x153;" horiz-adv-x="2015" 
d="M1079 518q-2 -10 -2 -24q1 -120 50 -214q48 -92 135 -146q85 -52 196 -52q126 0 220 71q93 71 126 191h105q-34 -158 -155 -258q-119 -98 -288 -98q-155 0 -271 77t-171 211q-56 -133 -172 -211q-115 -77 -266 -77q-146 0 -258 67q-113 68 -176 189q-64 123 -64 278
q0 154 64 276q63 120 176 186q114 67 258 67q154 0 270 -76q117 -76 172 -209q55 133 166 209q110 76 254 76q137 0 244 -59q106 -58 169 -169q61 -108 66 -262l-2 -43h-846zM791 138q89 57 139 156q49 98 49 224q0 131 -49 230q-49 100 -139 155q-89 55 -205 55
q-117 0 -204 -56q-88 -57 -138 -156q-49 -98 -49 -224q0 -128 49 -227q49 -100 138 -157q87 -56 204 -56t205 56zM1274 914q-80 -44 -131 -123q-53 -82 -60 -185h736q-15 169 -115 260q-101 92 -256 92q-94 0 -174 -44z" />
    <glyph glyph-name="Racute" unicode="&#x154;" horiz-adv-x="1218" 
d="M678 1434q205 0 328 -114q122 -113 122 -304q0 -158 -91 -264q-92 -107 -244 -134l340 -618h-125l-326 598h-424v-598h-111v1434h531zM258 700h412q157 0 252 86q94 85 94 230q0 144 -93 229q-94 86 -251 86h-414v-631zM547 1565l186 270h123l-225 -270h-84z" />
    <glyph glyph-name="racute" unicode="&#x155;" horiz-adv-x="638" 
d="M594 1038v-100h-68q-167 0 -233 -114t-66 -298v-526h-104v1038h90l16 -207q38 97 111 152t207 55h47zM305 1169l187 271h122l-225 -271h-84z" />
    <glyph glyph-name="Rcommaaccent" unicode="&#x156;" horiz-adv-x="1218" 
d="M678 1434q205 0 328 -114q122 -113 122 -304q0 -158 -91 -264q-92 -107 -244 -134l340 -618h-125l-326 598h-424v-598h-111v1434h531zM258 700h412q157 0 252 86q94 85 94 230q0 144 -93 229q-94 86 -251 86h-414v-631zM555 -109h102l-120 -288h-78z" />
    <glyph glyph-name="rcommaaccent" unicode="&#x157;" horiz-adv-x="638" 
d="M594 1038v-100h-68q-167 0 -233 -114t-66 -298v-526h-104v1038h90l16 -207q38 97 111 152t207 55h47zM121 -109h102l-121 -288h-77z" />
    <glyph glyph-name="Rcaron" unicode="&#x158;" horiz-adv-x="1218" 
d="M678 1434q205 0 328 -114q122 -113 122 -304q0 -158 -91 -264q-92 -107 -244 -134l340 -618h-125l-326 598h-424v-598h-111v1434h531zM258 700h412q157 0 252 86q94 85 94 230q0 144 -93 229q-94 86 -251 86h-414v-631zM586 1634l209 201h102l-260 -272h-102l-261 272
h105z" />
    <glyph glyph-name="rcaron" unicode="&#x159;" horiz-adv-x="638" 
d="M594 1038v-100h-68q-167 0 -233 -114t-66 -298v-526h-104v1038h90l16 -207q38 97 111 152t207 55h47zM344 1239l209 201h102l-260 -273h-102l-260 273h104z" />
    <glyph glyph-name="Sacute" unicode="&#x15a;" horiz-adv-x="1222" 
d="M207 442q11 -162 125 -257q115 -95 297 -95q177 0 281 79q106 80 106 216q0 99 -57 156q-59 59 -144 85q-92 28 -225 50q-144 24 -240 60q-97 37 -160 111q-63 75 -63 204q0 121 59 209q60 90 169 139q108 49 253 49q212 0 347 -112t151 -296l-109 -2q-18 142 -123 226
t-266 84q-169 0 -270 -77q-100 -76 -100 -214q0 -96 53 -152t134 -80q89 -26 222 -49q142 -22 245 -60q101 -37 168 -116q66 -78 66 -207q0 -121 -62 -211q-64 -93 -175 -143q-113 -51 -262 -51q-158 0 -274 56q-118 57 -184 160q-67 105 -73 238h111zM580 1565l186 270h123
l-225 -270h-84z" />
    <glyph glyph-name="sacute" unicode="&#x15b;" horiz-adv-x="1009" 
d="M190 319q6 -112 97 -177q89 -64 237 -64q130 0 213 55q84 55 84 146q0 71 -40 111q-39 39 -103 57q-59 17 -170 34q-130 18 -213 42t-135 79q-54 57 -54 154q0 83 51 153q50 69 137 106q88 38 198 38q179 0 289 -79q111 -80 126 -229h-104q-15 101 -97 159
q-83 59 -208 59q-129 0 -209 -56t-80 -143q0 -68 40 -105q38 -36 97 -51q40 -10 166 -28q128 -17 219 -46q85 -27 140 -88t55 -161q0 -135 -116 -216q-115 -81 -286 -81q-196 0 -315 87t-123 244h104zM465 1169l186 271h123l-225 -271h-84z" />
    <glyph glyph-name="Scircumflex" unicode="&#x15c;" horiz-adv-x="1222" 
d="M207 442q11 -162 125 -257q115 -95 297 -95q177 0 281 79q106 80 106 216q0 99 -57 156q-59 59 -144 85q-92 28 -225 50q-144 24 -240 60q-97 37 -160 111q-63 75 -63 204q0 121 59 209q60 90 169 139q108 49 253 49q212 0 347 -112t151 -296l-109 -2q-18 142 -123 226
t-266 84q-169 0 -270 -77q-100 -76 -100 -214q0 -96 53 -152t134 -80q89 -26 222 -49q142 -22 245 -60q101 -37 168 -116q66 -78 66 -207q0 -121 -62 -211q-64 -93 -175 -143q-113 -51 -262 -51q-158 0 -274 56q-118 57 -184 160q-67 105 -73 238h111zM619 1765l-209 -202
h-103l260 272h103l260 -272h-105z" />
    <glyph glyph-name="scircumflex" unicode="&#x15d;" horiz-adv-x="1009" 
d="M190 319q6 -112 97 -177q89 -64 237 -64q130 0 213 55q84 55 84 146q0 71 -40 111q-39 39 -103 57q-59 17 -170 34q-130 18 -213 42t-135 79q-54 57 -54 154q0 83 51 153q50 69 137 106q88 38 198 38q179 0 289 -79q111 -80 126 -229h-104q-15 101 -97 159
q-83 59 -208 59q-129 0 -209 -56t-80 -143q0 -68 40 -105q38 -36 97 -51q40 -10 166 -28q128 -17 219 -46q85 -27 140 -88t55 -161q0 -135 -116 -216q-115 -81 -286 -81q-196 0 -315 87t-123 244h104zM504 1370l-209 -203h-102l260 273h102l260 -273h-104z" />
    <glyph glyph-name="Scedilla" unicode="&#x15e;" horiz-adv-x="1222" 
d="M1067 186q-60 -90 -167 -142q-106 -51 -249 -56l-20 -88h33q75 0 122 -41q48 -42 48 -107q0 -74 -49 -118t-126 -44h-167v66h151q48 0 79 25q30 24 30 69q0 40 -30 64t-75 24h-90l37 150q-220 8 -354 132q-134 125 -144 322h111q11 -162 125 -257q115 -95 297 -95
q177 0 281 79q106 80 106 216q0 99 -57 156q-59 59 -144 85q-92 28 -225 50q-144 24 -240 60q-97 37 -160 111q-63 75 -63 204q0 121 59 209q60 90 169 139q108 49 253 49q212 0 347 -112t151 -296l-109 -2q-18 142 -123 226t-266 84q-169 0 -270 -77q-100 -76 -100 -214
q0 -96 53 -152t134 -80q89 -26 222 -49q142 -22 245 -60q101 -37 168 -116q66 -78 66 -207q0 -119 -59 -207z" />
    <glyph glyph-name="scedilla" unicode="&#x15f;" horiz-adv-x="1009" 
d="M822 78q-105 -81 -261 -88l-20 -90h32q76 0 123 -41t47 -107q0 -74 -48 -118q-49 -44 -126 -44h-168v66h152q48 0 79 25q30 24 30 69q0 40 -30 64t-75 24h-90l37 150q-189 5 -301 91q-113 87 -117 240h104q6 -112 97 -177q89 -64 237 -64q130 0 213 55q84 55 84 146
q0 71 -40 111q-39 39 -103 57q-59 17 -170 34q-130 18 -213 42t-135 79q-54 57 -54 154q0 83 51 153q50 69 137 106q88 38 198 38q179 0 289 -79q111 -80 126 -229h-104q-15 101 -97 159q-83 59 -208 59q-129 0 -209 -56t-80 -143q0 -68 40 -105q38 -36 97 -51
q40 -10 166 -28q128 -17 219 -46q85 -27 140 -88t55 -161q0 -127 -104 -207z" />
    <glyph glyph-name="Scaron" unicode="&#x160;" horiz-adv-x="1222" 
d="M207 442q11 -162 125 -257q115 -95 297 -95q177 0 281 79q106 80 106 216q0 99 -57 156q-59 59 -144 85q-92 28 -225 50q-144 24 -240 60q-97 37 -160 111q-63 75 -63 204q0 121 59 209q60 90 169 139q108 49 253 49q212 0 347 -112t151 -296l-109 -2q-18 142 -123 226
t-266 84q-169 0 -270 -77q-100 -76 -100 -214q0 -96 53 -152t134 -80q89 -26 222 -49q142 -22 245 -60q101 -37 168 -116q66 -78 66 -207q0 -121 -62 -211q-64 -93 -175 -143q-113 -51 -262 -51q-158 0 -274 56q-118 57 -184 160q-67 105 -73 238h111zM619 1634l208 201h103
l-260 -272h-103l-260 272h105z" />
    <glyph glyph-name="scaron" unicode="&#x161;" horiz-adv-x="1009" 
d="M190 319q6 -112 97 -177q89 -64 237 -64q130 0 213 55q84 55 84 146q0 71 -40 111q-39 39 -103 57q-59 17 -170 34q-130 18 -213 42t-135 79q-54 57 -54 154q0 83 51 153q50 69 137 106q88 38 198 38q179 0 289 -79q111 -80 126 -229h-104q-15 101 -97 159
q-83 59 -208 59q-129 0 -209 -56t-80 -143q0 -68 40 -105q38 -36 97 -51q40 -10 166 -28q128 -17 219 -46q85 -27 140 -88t55 -161q0 -135 -116 -216q-115 -81 -286 -81q-196 0 -315 87t-123 244h104zM504 1239l209 201h102l-260 -273h-102l-260 273h104z" />
    <glyph glyph-name="uni0162" unicode="&#x162;" horiz-adv-x="1187" 
d="M47 1434h1094v-103h-492v-1331h-110v1331h-492v103zM541 -109h102l-121 -288h-78z" />
    <glyph glyph-name="uni0163" unicode="&#x163;" horiz-adv-x="612" 
d="M193 942h-197v96h197v291h104v-291h276v-96h-276v-698q0 -80 33 -114t110 -34h152v-96h-156q-130 0 -187 57q-56 56 -56 185v700zM344 -109h102l-120 -288h-78z" />
    <glyph glyph-name="Tcaron" unicode="&#x164;" horiz-adv-x="1187" 
d="M47 1434h1094v-103h-492v-1331h-110v1331h-492v103zM596 1634l209 201h102l-260 -272h-102l-260 272h104z" />
    <glyph glyph-name="tcaron" unicode="&#x165;" horiz-adv-x="612" 
d="M193 942h-197v96h197v291h104v-291h276v-96h-276v-698q0 -80 33 -114t110 -34h152v-96h-156q-130 0 -187 57q-56 56 -56 185v700zM500 1458h100l-108 -297h-78z" />
    <glyph glyph-name="Tbar" unicode="&#x166;" horiz-adv-x="1187" 
d="M1141 1331h-492v-579h262v-97h-262v-655h-110v655h-263v97h263v579h-492v103h1094v-103z" />
    <glyph glyph-name="tbar" unicode="&#x167;" horiz-adv-x="645" 
d="M600 96v-96h-158q-130 0 -186 57q-55 56 -55 185v299h-197v90h197v311h-197v96h197v291h104v-291h277v-96h-277v-311h277v-90h-277v-297q0 -80 33 -114t111 -34h151z" />
    <glyph glyph-name="Utilde" unicode="&#x168;" horiz-adv-x="1331" 
d="M252 1434v-848q0 -251 100 -373q100 -123 312 -123t314 123q101 122 101 373v848h111v-842q0 -604 -526 -604q-523 0 -523 604v842h111zM490 1713q-21 -31 -21 -77h-68v17q0 71 40 117q41 47 110 47q47 0 76 -18q30 -19 59 -48q27 -27 45 -39t47 -12q41 0 62 32
q20 30 20 74h70v-14q0 -72 -40 -118t-110 -46q-46 0 -74 17q-31 19 -61 49q-27 27 -45 39t-47 12q-42 0 -63 -32z" />
    <glyph glyph-name="utilde" unicode="&#x169;" horiz-adv-x="1103" 
d="M981 1038v-1038h-92l-15 219q-46 -105 -139 -169q-90 -62 -225 -62q-182 0 -290 117q-109 118 -109 352v581h104v-575q0 -185 82 -282t229 -97q162 0 256 120q95 121 95 324v510h104zM372 1318q-22 -33 -22 -77h-67v16q0 72 40 118t109 46q49 0 76 -17q30 -19 59 -48
q27 -27 45 -39t47 -12q41 0 62 31q20 30 20 75h70v-14q0 -72 -40 -118t-109 -46q-49 0 -75 16q-31 19 -61 49q-27 27 -45 39q-20 13 -47 13q-41 0 -62 -32z" />
    <glyph glyph-name="Umacron" unicode="&#x16a;" horiz-adv-x="1331" 
d="M252 1434v-848q0 -251 100 -373q100 -123 312 -123t314 123q101 122 101 373v848h111v-842q0 -604 -526 -604q-523 0 -523 604v842h111zM403 1683v80h525v-80h-525z" />
    <glyph glyph-name="umacron" unicode="&#x16b;" horiz-adv-x="1103" 
d="M981 1038v-1038h-92l-15 219q-46 -105 -139 -169q-90 -62 -225 -62q-182 0 -290 117q-109 118 -109 352v581h104v-575q0 -185 82 -282t229 -97q162 0 256 120q95 121 95 324v510h104zM285 1288v80h524v-80h-524z" />
    <glyph glyph-name="Ubreve" unicode="&#x16c;" horiz-adv-x="1331" 
d="M252 1434v-848q0 -251 100 -373q100 -123 312 -123t314 123q101 122 101 373v848h111v-842q0 -604 -526 -604q-523 0 -523 604v842h111zM492 1835q0 -79 48 -128q48 -50 124 -50q77 0 127 50q49 49 49 128h84q-1 -114 -75 -188q-72 -72 -187 -72q-114 0 -183 71
q-70 71 -71 189h84z" />
    <glyph glyph-name="ubreve" unicode="&#x16d;" horiz-adv-x="1103" 
d="M981 1038v-1038h-92l-15 219q-46 -105 -139 -169q-90 -62 -225 -62q-182 0 -290 117q-109 118 -109 352v581h104v-575q0 -185 82 -282t229 -97q162 0 256 120q95 121 95 324v510h104zM373 1440q0 -78 48 -128t124 -50q77 0 127 50q49 49 49 128h84q-1 -115 -75 -189
q-71 -71 -187 -71q-114 0 -183 70q-69 71 -71 190h84z" />
    <glyph glyph-name="Uring" unicode="&#x16e;" horiz-adv-x="1331" 
d="M252 1434v-848q0 -251 100 -373q100 -123 312 -123t314 123q101 122 101 373v848h111v-842q0 -604 -526 -604q-523 0 -523 604v842h111zM505 1772q65 65 161 65q95 0 160 -65q67 -67 67 -158t-67 -158q-65 -65 -160 -65q-96 0 -161 65q-67 67 -67 158t67 158zM777 1727
q-47 47 -111 47q-65 0 -112 -47q-46 -46 -46 -113q0 -68 46 -114t112 -46q65 0 111 46t46 114q0 67 -46 113z" />
    <glyph glyph-name="uring" unicode="&#x16f;" horiz-adv-x="1103" 
d="M981 1038v-1038h-92l-15 219q-46 -105 -139 -169q-90 -62 -225 -62q-182 0 -290 117q-109 118 -109 352v581h104v-575q0 -185 82 -282t229 -97q162 0 256 120q95 121 95 324v510h104zM386 1524q65 65 161 65t161 -65q66 -66 66 -158t-66 -158q-65 -65 -161 -65t-161 65
q-67 67 -67 158t67 158zM658 1480q-46 46 -111 46q-66 0 -112 -46t-46 -114t46 -114t112 -46q65 0 111 46q47 47 47 114t-47 114z" />
    <glyph glyph-name="Uhungarumlaut" unicode="&#x170;" horiz-adv-x="1331" 
d="M252 1434v-848q0 -251 100 -373q100 -123 312 -123t314 123q101 122 101 373v848h111v-842q0 -604 -526 -604q-523 0 -523 604v842h111zM440 1563l187 272h121l-224 -272h-84zM776 1563l187 272h118l-221 -272h-84z" />
    <glyph glyph-name="uhungarumlaut" unicode="&#x171;" horiz-adv-x="1103" 
d="M981 1038v-1038h-92l-15 219q-46 -105 -139 -169q-90 -62 -225 -62q-182 0 -290 117q-109 118 -109 352v581h104v-575q0 -185 82 -282t229 -97q162 0 256 120q95 121 95 324v510h104zM322 1167l186 273h121l-223 -273h-84zM657 1167l187 273h119l-222 -273h-84z" />
    <glyph glyph-name="Uogonek" unicode="&#x172;" horiz-adv-x="1331" 
d="M1190 1434v-842q0 -534 -412 -596q-105 -65 -162 -119q-55 -52 -55 -113q0 -44 31 -70t84 -26h125v-78h-142q-87 0 -136 43q-50 44 -50 117q0 64 44 122q40 53 124 116q-500 12 -500 604v842h111v-848q0 -251 100 -373q100 -123 312 -123t314 123q101 122 101 373v848
h111z" />
    <glyph glyph-name="uogonek" unicode="&#x173;" horiz-adv-x="1103" 
d="M997 -332v-78h-141q-87 0 -136 43q-50 44 -50 117q0 76 56 138q59 65 161 135l-13 196q-46 -105 -139 -169q-90 -62 -225 -62q-182 0 -290 117q-109 118 -109 352v581h104v-575q0 -185 82 -282t229 -97q162 0 256 120q95 121 95 324v510h104v-1038q-106 -66 -167 -122
q-56 -52 -56 -114q0 -44 30 -70q31 -26 84 -26h125z" />
    <glyph glyph-name="Wcircumflex" unicode="&#x174;" horiz-adv-x="1996" 
d="M59 1434h117l383 -1289l387 1289h113l377 -1289l387 1289h114l-436 -1434h-133l-371 1249l-370 -1249h-133zM999 1765l-208 -202h-103l260 272h103l260 -272h-105z" />
    <glyph glyph-name="wcircumflex" unicode="&#x175;" horiz-adv-x="1591" 
d="M23 1038h110l303 -913l314 913h98l295 -913l319 913h107l-369 -1038h-113l-292 872l-306 -872l-114 -2zM799 1370l-209 -203h-103l261 273h102l260 -273h-104z" />
    <glyph glyph-name="Ycircumflex" unicode="&#x176;" horiz-adv-x="1265" 
d="M29 1436h129l475 -787l479 787h125l-549 -908v-528h-110v528zM629 1765l-209 -202h-103l261 272h102l260 -272h-104z" />
    <glyph glyph-name="ycircumflex" unicode="&#x177;" horiz-adv-x="976" 
d="M131 1038l361 -915l354 915h112l-497 -1231q-38 -94 -64 -135q-27 -43 -65 -62q-40 -20 -109 -20h-160v97h132q53 0 80 12q28 12 46 41q17 27 46 94l67 162l-416 1042h113zM485 1370l-209 -203h-102l260 273h103l260 -273h-105z" />
    <glyph glyph-name="Ydieresis" unicode="&#x178;" horiz-adv-x="1265" 
d="M29 1436h129l475 -787l479 787h125l-549 -908v-528h-110v528zM406 1772q20 20 51 20q33 0 53 -20t20 -52q0 -31 -20 -51t-53 -20q-31 0 -51 20q-21 21 -21 51q0 31 21 52zM749 1772q20 20 52 20q31 0 51 -20t20 -52q0 -31 -20 -51t-51 -20q-32 0 -52 20q-22 22 -22 51
q0 30 22 52z" />
    <glyph glyph-name="Zacute" unicode="&#x179;" horiz-adv-x="1241" 
d="M111 1434h1048v-82l-946 -1250h963v-102h-1110v82l946 1249h-901v103zM588 1565l186 270h123l-225 -270h-84z" />
    <glyph glyph-name="zacute" unicode="&#x17a;" horiz-adv-x="954" 
d="M74 1038h807v-82l-699 -860h727v-96h-864v82l696 860h-667v96zM440 1169l187 271h123l-226 -271h-84z" />
    <glyph glyph-name="Zdotaccent" unicode="&#x17b;" horiz-adv-x="1241" 
d="M111 1434h1048v-82l-946 -1250h963v-102h-1110v82l946 1249h-901v103zM575 1795q22 20 52 20q29 0 51 -20q20 -19 20 -50t-20 -51q-21 -21 -51 -21q-31 0 -52 21q-20 20 -20 51t20 50z" />
    <glyph glyph-name="zdotaccent" unicode="&#x17c;" horiz-adv-x="954" 
d="M74 1038h807v-82l-699 -860h727v-96h-864v82l696 860h-667v96zM428 1400q20 19 51 19t51 -19q21 -20 21 -50q0 -31 -21 -52q-20 -20 -51 -20t-51 20t-20 52q0 31 20 50z" />
    <glyph glyph-name="Zcaron" unicode="&#x17d;" horiz-adv-x="1241" 
d="M111 1434h1048v-82l-946 -1250h963v-102h-1110v82l946 1249h-901v103zM627 1634l209 201h102l-260 -272h-103l-260 272h105z" />
    <glyph glyph-name="zcaron" unicode="&#x17e;" horiz-adv-x="954" 
d="M74 1038h807v-82l-699 -860h727v-96h-864v82l696 860h-667v96zM479 1239l209 201h103l-261 -273h-102l-260 273h104z" />
    <glyph glyph-name="florin" unicode="&#x192;" horiz-adv-x="991" 
d="M643 1300q-39 -38 -45 -116l-39 -439h262v-96h-270l-55 -641q-7 -113 -72 -170q-62 -55 -184 -55h-189v96h176q83 0 121 37q39 38 45 117l53 616h-251v96h260l41 463q8 114 71 170q64 56 183 56h190v-97h-176q-83 0 -121 -37z" />
    <glyph glyph-name="AEacute" unicode="&#x1fc;" horiz-adv-x="1918" 
d="M1636 1835l-225 -270h-84l186 270h123zM1059 102h799v-102h-910v399h-567l-250 -399h-117l881 1434h936v-103h-772v-549h647v-102h-647v-578zM434 498h514v839z" />
    <glyph glyph-name="aeacute" unicode="&#x1fd;" horiz-adv-x="1875" 
d="M1198 1434l-225 -271h-84l186 271h123zM940 516v-22q0 -122 49 -214q50 -94 135 -146t197 -52q126 0 220 71q95 72 124 191h107q-34 -159 -156 -258q-120 -98 -289 -98q-148 0 -260 73q-113 74 -170 205q-46 -124 -164 -201t-272 -77q-174 0 -277 80q-102 79 -102 221
q0 145 105 227q104 82 305 82h352v86q0 130 -81 202t-226 72q-129 0 -210 -57t-102 -153h-104q21 142 131 222q111 81 289 81q149 0 245 -60q98 -61 132 -174q61 112 160 172q103 62 231 62q136 0 243 -59q106 -58 169 -169q62 -110 67 -264q0 -23 -2 -43h-846zM1137 914
q-80 -44 -131 -126q-53 -85 -60 -186h733q-12 168 -112 262t-256 94q-94 0 -174 -44zM844 508h-363q-141 0 -217 -55t-76 -158q0 -100 73 -159q71 -58 202 -58q109 0 197 44t136 122t48 176v88z" />
    <glyph glyph-name="Scommaaccent" unicode="&#x218;" horiz-adv-x="1222" 
d="M207 442q11 -162 125 -257q115 -95 297 -95q177 0 281 79q106 80 106 216q0 99 -57 156q-59 59 -144 85q-92 28 -225 50q-144 24 -240 60q-97 37 -160 111q-63 75 -63 204q0 121 59 209q60 90 169 139q108 49 253 49q212 0 347 -112t151 -296l-109 -2q-18 142 -123 226
t-266 84q-169 0 -270 -77q-100 -76 -100 -214q0 -96 53 -152t134 -80q89 -26 222 -49q142 -22 245 -60q101 -37 168 -116q66 -78 66 -207q0 -121 -62 -211q-64 -93 -175 -143q-113 -51 -262 -51q-158 0 -274 56q-118 57 -184 160q-67 105 -73 238h111zM569 -109h103
l-121 -288h-78z" />
    <glyph glyph-name="scommaaccent" unicode="&#x219;" horiz-adv-x="1009" 
d="M190 319q6 -112 97 -177q89 -64 237 -64q130 0 213 55q84 55 84 146q0 71 -40 111q-39 39 -103 57q-59 17 -170 34q-130 18 -213 42t-135 79q-54 57 -54 154q0 83 51 153q50 69 137 106q88 38 198 38q179 0 289 -79q111 -80 126 -229h-104q-15 101 -97 159
q-83 59 -208 59q-129 0 -209 -56t-80 -143q0 -68 40 -105q38 -36 97 -51q40 -10 166 -28q128 -17 219 -46q85 -27 140 -88t55 -161q0 -135 -116 -216q-115 -81 -286 -81q-196 0 -315 87t-123 244h104zM479 -109h103l-121 -288h-78z" />
    <glyph glyph-name="uni021A" unicode="&#x21a;" horiz-adv-x="1187" 
d="M47 1434h1094v-103h-492v-1331h-110v1331h-492v103zM541 -109h102l-121 -288h-78z" />
    <glyph glyph-name="uni021B" unicode="&#x21b;" horiz-adv-x="612" 
d="M193 942h-197v96h197v291h104v-291h276v-96h-276v-698q0 -80 33 -114t110 -34h152v-96h-156q-130 0 -187 57q-56 56 -56 185v700zM344 -109h102l-120 -288h-78z" />
    <glyph glyph-name="uni0237" unicode="&#x237;" horiz-adv-x="362" 
d="M-8 -313q78 0 110 32q33 33 33 111v1208h105v-1206q0 -123 -58 -183q-57 -59 -186 -59h-127v97h123z" />
    <glyph glyph-name="uni02BC" unicode="&#x2bc;" horiz-adv-x="649" 
d="M315 1434h101l-109 -297h-78z" />
    <glyph glyph-name="circumflex" unicode="&#x2c6;" horiz-adv-x="819" 
d="M410 1364l-209 -203h-103l260 273h103l260 -273h-105z" />
    <glyph glyph-name="caron" unicode="&#x2c7;" horiz-adv-x="819" 
d="M410 1233l208 201h103l-260 -273h-103l-260 273h105z" />
    <glyph glyph-name="breve" unicode="&#x2d8;" horiz-adv-x="819" 
d="M236 1434q0 -78 48 -128q49 -51 124 -51q76 0 127 51q49 49 49 128h84q-1 -115 -75 -189q-71 -71 -187 -71q-114 0 -183 70q-69 71 -71 190h84z" />
    <glyph glyph-name="dotaccent" unicode="&#x2d9;" horiz-adv-x="819" 
d="M358 1394q20 19 52 19q31 0 51 -19t20 -51q0 -31 -20 -51t-51 -20q-32 0 -52 20t-20 51q0 32 20 51z" />
    <glyph glyph-name="ring" unicode="&#x2da;" horiz-adv-x="819" 
d="M249 1518q65 65 161 65q95 0 160 -65q67 -67 67 -158t-67 -158q-65 -65 -160 -65q-96 0 -161 65q-67 67 -67 158t67 158zM521 1474q-46 46 -111 46q-66 0 -112 -46t-46 -114t46 -114t112 -46q65 0 111 46t46 114t-46 114z" />
    <glyph glyph-name="ogonek" unicode="&#x2db;" horiz-adv-x="819" 
d="M156 -112q54 60 166 139l88 -27q-106 -66 -167 -122q-57 -52 -57 -114q0 -44 31 -70t84 -26h125v-78h-141q-88 0 -137 43q-50 44 -50 117q0 74 58 138z" />
    <glyph glyph-name="tilde" unicode="&#x2dc;" horiz-adv-x="819" 
d="M234 1312q-21 -32 -21 -77h-68v16q0 72 40 118t110 46q49 0 75 -16q28 -17 60 -49q27 -27 45 -39q19 -13 47 -13q41 0 62 32q20 30 20 75h70v-14q0 -72 -40 -118t-110 -46q-48 0 -74 16q-31 19 -61 49q-27 27 -45 39t-47 12q-42 0 -63 -31z" />
    <glyph glyph-name="hungarumlaut" unicode="&#x2dd;" horiz-adv-x="829" 
d="M184 1161l187 273h121l-224 -273h-84zM520 1161l187 273h118l-221 -273h-84z" />
    <glyph glyph-name="gravecomb" unicode="&#x300;" horiz-adv-x="0" 
d="M-676 1434h123l184 -271h-86z" />
    <glyph glyph-name="acutecomb" unicode="&#x301;" horiz-adv-x="0" 
d="M-449 1163l187 271h123l-226 -271h-84z" />
    <glyph glyph-name="uni0302" unicode="&#x302;" horiz-adv-x="0" 
d="M-410 1364l-208 -203h-103l260 273h103l260 -273h-105z" />
    <glyph glyph-name="tildecomb" unicode="&#x303;" horiz-adv-x="0" 
d="M-585 1312q-21 -32 -21 -77h-68v16q0 72 40 118t110 46q48 0 75 -17q33 -21 60 -48t45 -39q20 -13 47 -13q40 0 61 32t21 75h70v-14q0 -72 -40 -118t-110 -46q-49 0 -75 16q-28 17 -60 49q-27 27 -45 39t-47 12q-42 0 -63 -31z" />
    <glyph glyph-name="uni0304" unicode="&#x304;" horiz-adv-x="0" 
d="M-672 1282v80h525v-80h-525z" />
    <glyph glyph-name="uni0306" unicode="&#x306;" horiz-adv-x="0" 
d="M-584 1434q0 -78 48 -128q49 -51 124 -51q76 0 127 51q49 49 49 128h84q-1 -116 -74 -189q-71 -71 -188 -71q-113 0 -182 70q-71 72 -72 190h84z" />
    <glyph glyph-name="uni0307" unicode="&#x307;" horiz-adv-x="0" 
d="M-461 1394q20 19 51 19q32 0 52 -19t20 -51q0 -31 -20 -51t-52 -20q-31 0 -51 20t-20 51q0 32 20 51z" />
    <glyph glyph-name="uni0308" unicode="&#x308;" horiz-adv-x="0" 
d="M-633 1370q21 21 51 21q33 0 54 -21q20 -20 20 -51t-20 -51q-21 -21 -54 -21q-30 0 -51 21q-20 20 -20 51t20 51zM-290 1370q21 21 52 21t52 -21q20 -20 20 -51t-20 -51q-21 -21 -52 -21t-52 21t-21 51t21 51z" />
    <glyph glyph-name="uni030A" unicode="&#x30a;" horiz-adv-x="0" 
d="M-570 1518q65 65 160 65q96 0 161 -65q67 -67 67 -158t-67 -158q-65 -65 -161 -65q-95 0 -160 65q-67 67 -67 158t67 158zM-298 1474q-46 46 -112 46q-65 0 -111 -46t-46 -114t46 -114t111 -46q66 0 112 46t46 114t-46 114z" />
    <glyph glyph-name="uni030B" unicode="&#x30b;" horiz-adv-x="0" 
d="M-635 1161l186 273h121l-223 -273h-84zM-299 1161l186 273h119l-221 -273h-84z" />
    <glyph glyph-name="uni030C" unicode="&#x30c;" horiz-adv-x="0" 
d="M-410 1233l209 201h103l-260 -273h-103l-260 273h105z" />
    <glyph glyph-name="uni0312" unicode="&#x312;" horiz-adv-x="0" 
d="M-375 1145h-102l115 289h81z" />
    <glyph glyph-name="uni0326" unicode="&#x326;" horiz-adv-x="0" 
d="M-463 -109h103l-121 -288h-78z" />
    <glyph glyph-name="uni0327" unicode="&#x327;" horiz-adv-x="0" 
d="M-373 20l-28 -120h32q76 0 123 -41t47 -107q0 -74 -48 -118q-49 -44 -126 -44h-168v66h152q48 0 79 25q29 23 29 69q0 41 -29 64q-30 24 -75 24h-90l45 182h57z" />
    <glyph glyph-name="uni0328" unicode="&#x328;" horiz-adv-x="0" 
d="M-664 -112q54 60 166 139l88 -27q-106 -66 -167 -122q-56 -52 -56 -114q0 -44 31 -70t84 -26h125v-78h-142q-87 0 -136 43q-50 44 -50 117q0 75 57 138z" />
    <glyph glyph-name="pi" unicode="&#x3c0;" horiz-adv-x="1232" 
d="M1196 1038v-96h-184v-942h-105v942h-581v-942h-107v942h-182v96h1159z" />
    <glyph glyph-name="uni0E3F" unicode="&#xe3f;" horiz-adv-x="1277" 
d="M1077 627q90 -85 90 -238q0 -183 -130 -286t-375 -103h-35v-205h-76v205h-404v1434h404v206h76v-206h26q213 0 333 -97q118 -96 118 -268q0 -130 -73 -218q-72 -87 -208 -114q163 -24 254 -110zM258 1333v-551h293v551h-293zM627 1333v-551h32q157 0 246 74q88 73 88 203
t-87 202t-247 72h-32zM258 100h293v582h-293v-582zM954 178q101 78 101 215q0 141 -103 215t-290 74h-35v-582h35q192 0 292 78z" />
    <glyph glyph-name="Wgrave" unicode="&#x1e80;" horiz-adv-x="1996" 
d="M59 1434h117l383 -1289l387 1289h113l377 -1289l387 1289h114l-436 -1434h-133l-371 1249l-370 -1249h-133zM733 1835h123l184 -270h-86z" />
    <glyph glyph-name="wgrave" unicode="&#x1e81;" horiz-adv-x="1591" 
d="M23 1038h110l303 -913l314 913h98l295 -913l319 913h107l-369 -1038h-113l-292 872l-306 -872l-114 -2zM532 1440h123l185 -271h-86z" />
    <glyph glyph-name="Wacute" unicode="&#x1e82;" horiz-adv-x="1996" 
d="M59 1434h117l383 -1289l387 1289h113l377 -1289l387 1289h114l-436 -1434h-133l-371 1249l-370 -1249h-133zM961 1565l186 270h123l-226 -270h-83z" />
    <glyph glyph-name="wacute" unicode="&#x1e83;" horiz-adv-x="1591" 
d="M23 1038h110l303 -913l314 913h98l295 -913l319 913h107l-369 -1038h-113l-292 872l-306 -872l-114 -2zM760 1169l186 271h123l-225 -271h-84z" />
    <glyph glyph-name="Wdieresis" unicode="&#x1e84;" horiz-adv-x="1996" 
d="M59 1434h117l383 -1289l387 1289h113l377 -1289l387 1289h114l-436 -1434h-133l-371 1249l-370 -1249h-133zM776 1772q20 20 51 20q34 0 54 -20t20 -52q0 -31 -20 -51t-54 -20q-31 0 -51 20t-20 51q0 32 20 52zM1119 1772q20 20 52 20t52 -20t20 -52q0 -31 -20 -51
t-52 -20t-52 20q-21 21 -21 51q0 31 21 52z" />
    <glyph glyph-name="wdieresis" unicode="&#x1e85;" horiz-adv-x="1591" 
d="M23 1038h110l303 -913l314 913h98l295 -913l319 913h107l-369 -1038h-113l-292 872l-306 -872l-114 -2zM575 1376q21 21 52 21q32 0 53 -21q20 -20 20 -51t-20 -51q-21 -21 -53 -21q-31 0 -52 21q-20 20 -20 51t20 51zM919 1376q21 21 52 21q30 0 51 -21q20 -20 20 -51
t-20 -51q-21 -21 -51 -21q-31 0 -52 21q-22 22 -22 51t22 51z" />
    <glyph glyph-name="Ygrave" unicode="&#x1ef2;" horiz-adv-x="1265" 
d="M29 1436h129l475 -787l479 787h125l-549 -908v-528h-110v528zM362 1835h123l185 -270h-86z" />
    <glyph glyph-name="ygrave" unicode="&#x1ef3;" horiz-adv-x="976" 
d="M131 1038l361 -915l354 915h112l-497 -1231q-38 -94 -64 -135q-27 -43 -65 -62q-40 -20 -109 -20h-160v97h132q53 0 80 12q28 12 46 41q17 27 46 94l67 162l-416 1042h113zM219 1440h123l184 -271h-86z" />
    <glyph glyph-name="endash" unicode="&#x2013;" horiz-adv-x="1196" 
d="M121 539v86h954v-86h-954z" />
    <glyph glyph-name="emdash" unicode="&#x2014;" horiz-adv-x="1882" 
d="M121 627h1640v-86h-1640v86z" />
    <glyph glyph-name="quoteleft" unicode="&#x2018;" horiz-adv-x="376" 
d="M120 1091q-36 49 -36 119q0 104 62 167q63 65 167 69v-62q-72 -1 -113 -50q-40 -47 -40 -111q0 -36 18 -54q17 25 51 25q32 0 52 -19t20 -55q0 -34 -25 -57t-65 -23q-54 0 -91 51z" />
    <glyph glyph-name="quoteright" unicode="&#x2019;" horiz-adv-x="376" 
d="M257 1394q36 -49 36 -120q0 -102 -63 -167t-167 -69v62q73 1 114 50q40 47 40 112q0 35 -18 53q-16 -25 -52 -25q-29 0 -51 20q-20 19 -20 54q0 34 24 57q25 23 66 23q55 0 91 -50z" />
    <glyph glyph-name="quotesinglbase" unicode="&#x201a;" horiz-adv-x="376" 
d="M257 93q36 -50 36 -120q0 -103 -63 -167q-62 -64 -167 -68v61q73 1 114 50q40 47 40 112q0 35 -18 53q-15 -24 -52 -24q-31 0 -51 19t-20 54t24 58q23 22 66 22q55 0 91 -50z" />
    <glyph glyph-name="quotedblleft" unicode="&#x201c;" horiz-adv-x="684" 
d="M120 1091q-36 49 -36 119q0 104 62 167q63 65 167 69v-62q-72 -1 -113 -50q-40 -47 -40 -111q0 -36 18 -54q17 25 51 25q32 0 52 -19t20 -55q0 -34 -25 -57t-65 -23q-54 0 -91 51zM427 1091q-36 49 -36 119q0 102 63 167t167 69v-62q-73 -1 -114 -50q-40 -47 -40 -111
q0 -36 18 -54q17 25 52 25q31 0 51 -19t20 -55q0 -34 -24 -57q-25 -23 -66 -23q-54 0 -91 51z" />
    <glyph glyph-name="quotedblright" unicode="&#x201d;" horiz-adv-x="684" 
d="M257 1394q36 -49 36 -120q0 -102 -63 -167t-167 -69v62q73 1 114 50q40 47 40 112q0 35 -18 53q-16 -25 -52 -25q-29 0 -51 20q-20 19 -20 54q0 34 24 57q25 23 66 23q55 0 91 -50zM564 1394q36 -49 36 -120q0 -104 -62 -167q-63 -65 -167 -69v62q72 1 113 50
q40 47 40 112q0 35 -18 53q-16 -25 -51 -25q-30 0 -52 20q-20 19 -20 54q0 34 25 57t65 23q55 0 91 -50z" />
    <glyph glyph-name="quotedblbase" unicode="&#x201e;" horiz-adv-x="684" 
d="M257 93q36 -50 36 -120q0 -103 -63 -167q-62 -64 -167 -68v61q73 1 114 50q40 47 40 112q0 35 -18 53q-15 -24 -52 -24q-31 0 -51 19t-20 54t24 58q23 22 66 22q55 0 91 -50zM564 93q36 -50 36 -120q0 -104 -62 -167q-62 -64 -167 -68v61q72 1 113 50q40 47 40 112
q0 35 -18 53q-15 -24 -51 -24q-32 0 -52 19t-20 54t25 58q23 22 65 22q55 0 91 -50z" />
    <glyph glyph-name="dagger" unicode="&#x2020;" horiz-adv-x="1056" 
d="M977 983v-90h-402v-893h-94v893h-401v90h401v451h94v-451h402z" />
    <glyph glyph-name="daggerdbl" unicode="&#x2021;" horiz-adv-x="1089" 
d="M999 963h-407v-492h407v-92h-407v-379h-94v379h-408v92h408v492h-408v92h408v379h94v-379h407v-92z" />
    <glyph glyph-name="bullet" unicode="&#x2022;" horiz-adv-x="700" 
d="M207 839q55 52 141 52q89 0 145 -52t56 -139q0 -86 -56 -138t-145 -52q-86 0 -141 52t-55 138q0 87 55 139z" />
    <glyph glyph-name="ellipsis" unicode="&#x2026;" horiz-adv-x="1067" 
d="M132 123q20 20 56 20q37 0 57 -20q21 -21 21 -55q0 -36 -21 -57t-57 -21q-35 0 -56 21t-21 57q0 34 21 55zM478 123q20 20 57 20q36 0 56 -20q21 -21 21 -55q0 -36 -21 -57t-56 -21q-36 0 -57 21t-21 57q0 34 21 55zM822 123q20 20 57 20q36 0 56 -20q21 -21 21 -55
q0 -36 -21 -57t-56 -21q-36 0 -57 21t-21 57q0 34 21 55z" />
    <glyph glyph-name="perthousand" unicode="&#x2030;" horiz-adv-x="2596" 
d="M172 1277q45 79 124 124q80 45 175 45q97 0 177 -45q79 -45 124 -124q45 -80 45 -175q0 -96 -45 -175q-45 -80 -124 -123q-80 -44 -177 -44q-95 0 -175 44q-79 43 -124 123q-45 79 -45 175t45 175zM369 0l964 1434h105l-967 -1434h-102zM651 1286q-72 74 -180 74
q-106 0 -178 -74t-72 -184t71 -183t179 -73q107 0 180 73q72 72 72 183q0 110 -72 184zM1030 505q45 79 124 124q80 45 177 45q95 0 175 -45q79 -45 124 -124q45 -80 45 -175q0 -96 -45 -175q-45 -80 -124 -123q-80 -44 -175 -44q-97 0 -177 44q-79 43 -124 123
q-45 79 -45 175t45 175zM1825 505q45 79 124 124t177 45q96 0 176 -45q81 -46 125 -124q45 -80 45 -175q0 -96 -45 -175t-125 -123t-176 -44q-97 0 -177 44q-79 43 -124 123q-45 79 -45 175t45 175zM1509 514q-72 74 -178 74q-108 0 -180 -74t-72 -184q0 -112 72 -184
t180 -72q109 0 179 72q71 73 71 184q0 110 -72 184zM2304 514q-72 74 -178 74q-108 0 -180 -74q-72 -73 -72 -184q0 -112 72 -184t180 -72t179 72q71 73 71 184q0 110 -72 184z" />
    <glyph glyph-name="guilsinglleft" unicode="&#x2039;" horiz-adv-x="681" 
d="M559 1038l-330 -518l330 -520h-106l-334 520l334 518h106z" />
    <glyph glyph-name="guilsinglright" unicode="&#x203a;" horiz-adv-x="681" 
d="M123 1038h106l334 -518l-334 -520h-106l330 520z" />
    <glyph glyph-name="uni2042" unicode="&#x2042;" horiz-adv-x="1953" 
d="M1286 1274l-262 -100l180 -213l-57 -52l-182 224l-179 -224l-57 52l180 215l-260 100l29 72l254 -111l-2 281h74l-3 -281l254 111zM786 274l-262 -100l181 -213l-58 -51l-182 223l-178 -223l-58 51l181 215l-260 100l28 72l254 -110l-2 280h74l-2 -280l254 110zM1806 274
l-262 -100l180 -213l-57 -51l-182 223l-178 -223l-58 51l181 215l-261 100l29 72l254 -110l-2 280h74l-2 -280l254 110z" />
    <glyph glyph-name="fraction" unicode="&#x2044;" horiz-adv-x="370" 
d="M-313 0l909 1434h88l-909 -1434h-88z" />
    <glyph glyph-name="uni2051" unicode="&#x2051;" horiz-adv-x="933" 
d="M786 1274l-262 -100l181 -213l-58 -52l-182 224l-178 -224l-58 52l181 215l-260 100l28 72l254 -111l-2 281h74l-2 -281l254 111zM786 268l-262 -100l181 -213l-58 -51l-182 223l-178 -223l-58 51l181 215l-260 100l28 72l254 -111l-2 281h74l-2 -281l254 111z" />
    <glyph glyph-name="uni2070" unicode="&#x2070;" horiz-adv-x="690" 
d="M136 1545q80 108 210 108q131 0 209 -108t78 -277q0 -170 -78 -278q-77 -107 -209 -107q-131 0 -210 107t-79 278q0 170 79 277zM500 1493q-57 88 -154 88t-155 -88t-58 -225q0 -138 58 -226t155 -88t154 88t57 226q0 136 -57 225z" />
    <glyph glyph-name="uni2074" unicode="&#x2074;" horiz-adv-x="679" 
d="M420 1638h90v-479h127v-69h-127v-197h-74v197h-393v69zM436 1556l-311 -397h311v397z" />
    <glyph glyph-name="uni2075" unicode="&#x2075;" horiz-adv-x="638" 
d="M537 1569h-385l-17 -277q34 47 85 70q52 24 114 24q110 0 179 -69t69 -180q0 -113 -74 -185q-72 -71 -189 -71q-107 0 -178 59q-71 60 -82 156h74q10 -65 62 -106q50 -40 124 -40q81 0 133 52t52 135t-51 132q-52 50 -136 50q-55 0 -103 -28q-45 -26 -73 -74h-69l20 421
h445v-69z" />
    <glyph glyph-name="uni2076" unicode="&#x2076;" horiz-adv-x="657" 
d="M138 1544q80 109 214 109q94 0 163 -57q68 -56 83 -156h-72q-15 71 -61 110q-47 39 -113 39q-101 0 -161 -86q-60 -85 -60 -229q0 -37 4 -92q4 76 62 134q56 56 155 56q114 0 182 -67t68 -177t-71 -178q-70 -67 -187 -67q-144 0 -214 100q-71 101 -71 270q0 184 79 291z
M476 1261q-50 50 -132 50q-85 0 -135 -49q-51 -50 -51 -131q0 -83 52 -134t134 -51t132 50t50 132q0 83 -50 133z" />
    <glyph glyph-name="uni2077" unicode="&#x2077;" horiz-adv-x="614" 
d="M49 1638h522v-63l-360 -684h-82l360 680l-440 -2v69z" />
    <glyph glyph-name="uni2078" unicode="&#x2078;" horiz-adv-x="657" 
d="M103 1215q48 52 124 67q-69 15 -108 60q-41 47 -41 116q0 84 70 139q71 56 182 56q108 0 179 -56t71 -139q0 -67 -40 -113q-40 -47 -108 -63q77 -15 123 -67q47 -53 47 -125q0 -91 -76 -149t-196 -58q-122 0 -198 58q-77 59 -77 149q0 72 48 125zM455 1550
q-49 39 -125 39q-78 0 -127 -39t-49 -100q0 -63 49 -102q50 -39 127 -39q78 0 126 39t48 102q0 61 -49 100zM469 1205q-56 44 -139 44t-141 -44q-56 -43 -56 -109q0 -64 56 -107t141 -43q84 0 139 42t55 108t-55 109z" />
    <glyph glyph-name="uni2079" unicode="&#x2079;" horiz-adv-x="651" 
d="M518 991q-79 -108 -215 -108q-93 0 -161 56t-83 157h72q15 -71 62 -111q47 -39 112 -39q101 0 161 86t60 230q0 37 -4 92q-4 -77 -61 -134t-156 -57q-111 0 -181 68q-69 67 -69 176q0 110 71 178t187 68q143 0 214 -101t71 -270q0 -182 -80 -291zM181 1275
q50 -50 132 -50q86 0 136 49q51 50 51 131q0 82 -53 133t-134 51q-82 0 -132 -50t-50 -132t50 -132z" />
    <glyph glyph-name="uni2080" unicode="&#x2080;" horiz-adv-x="688" 
d="M134 445q80 108 210 108q131 0 209 -108t78 -277q0 -170 -78 -278q-77 -107 -209 -107q-131 0 -210 107t-79 278q0 170 79 277zM498 393q-57 88 -154 88t-155 -88t-58 -225t58 -225t155 -88t154 88q57 89 57 225t-57 225z" />
    <glyph glyph-name="uni2081" unicode="&#x2081;" horiz-adv-x="344" 
d="M178 -205v527q-8 -19 -37 -19h-141v72h141q17 0 28 14t11 33v119h72v-746h-74z" />
    <glyph glyph-name="uni2082" unicode="&#x2082;" horiz-adv-x="634" 
d="M63 311q0 110 72 176t180 66q117 0 185 -61q69 -62 69 -160q0 -76 -39 -131q-41 -58 -112 -119l-252 -215h412v-72h-523v70l307 256q67 56 98 102q32 47 32 107q0 66 -49 109q-48 42 -126 42q-82 0 -131 -46t-49 -128v-12h-74v16z" />
    <glyph glyph-name="uni2083" unicode="&#x2083;" horiz-adv-x="653" 
d="M143 494q68 59 183 59q114 0 182 -56q70 -58 70 -147q0 -64 -41 -108t-107 -56q78 -15 121 -60q45 -46 45 -120q0 -100 -75 -162q-74 -61 -197 -61q-130 0 -201 61q-72 62 -72 174h74q1 -78 56 -122q53 -43 145 -43q84 0 138 42t54 109q0 68 -55 108t-148 40h-47v55h47
q82 0 134 38q51 37 51 99q0 61 -48 100t-124 39q-81 0 -131 -41t-50 -110h-75q1 102 71 162z" />
    <glyph glyph-name="uni2084" unicode="&#x2084;" horiz-adv-x="679" 
d="M420 541h90v-480h127v-69h-127v-197h-74v197h-393v69zM436 459l-311 -398h311v398z" />
    <glyph glyph-name="uni2085" unicode="&#x2085;" horiz-adv-x="638" 
d="M537 471h-385l-17 -276q33 45 85 69q55 25 114 25q109 0 179 -70q69 -69 69 -180q0 -112 -74 -184t-189 -72q-107 0 -178 59q-71 60 -82 156h74q10 -65 62 -106q49 -39 124 -39q81 0 133 52t52 134q0 83 -51 132q-52 50 -136 50q-57 0 -103 -27q-44 -26 -73 -75h-69
l20 422h445v-70z" />
    <glyph glyph-name="uni2086" unicode="&#x2086;" horiz-adv-x="657" 
d="M138 444q80 109 214 109q95 0 163 -56t83 -157h-72q-15 73 -61 111q-45 38 -113 38q-101 0 -161 -86t-60 -229q0 -37 4 -92q4 76 62 134q56 56 155 56q114 0 182 -67t68 -176q0 -111 -71 -179q-70 -67 -187 -67q-144 0 -214 100q-71 101 -71 271q0 183 79 290zM476 161
q-50 50 -132 50q-85 0 -135 -49q-51 -50 -51 -131q0 -82 52 -133q54 -52 134 -52q81 0 132 51q50 50 50 132t-50 132z" />
    <glyph glyph-name="uni2087" unicode="&#x2087;" horiz-adv-x="614" 
d="M49 543h522v-64l-360 -684h-82l360 680l-440 -2v70z" />
    <glyph glyph-name="uni2088" unicode="&#x2088;" horiz-adv-x="657" 
d="M103 116q46 51 124 66q-68 15 -108 61q-41 47 -41 115q0 85 70 140t182 55q109 0 179 -55q71 -56 71 -140q0 -67 -40 -113q-40 -47 -108 -63q78 -15 123 -66q47 -53 47 -126q0 -91 -76 -149t-196 -58q-122 0 -198 58q-77 59 -77 149q0 74 48 126zM455 451q-48 38 -125 38
q-79 0 -127 -38q-49 -39 -49 -101q0 -63 49 -102t127 -39t126 39t48 102q0 62 -49 101zM469 105q-57 45 -139 45t-141 -45q-56 -43 -56 -109q0 -64 56 -107t141 -43q84 0 139 42t55 108t-55 109z" />
    <glyph glyph-name="uni2089" unicode="&#x2089;" horiz-adv-x="651" 
d="M518 -109q-79 -108 -215 -108q-93 0 -161 56t-83 157h72q15 -71 62 -111q47 -39 112 -39q101 0 161 86t60 230q0 37 -4 92q-4 -77 -61 -134t-156 -57q-111 0 -181 68q-69 67 -69 176q0 110 71 178t187 68q144 0 214 -100q71 -101 71 -271q0 -182 -80 -291zM181 175
q50 -50 132 -50q86 0 136 49q51 49 51 131t-53 133t-134 51q-82 0 -132 -50t-50 -132t50 -132z" />
    <glyph glyph-name="franc" unicode="&#x20a3;" horiz-adv-x="1077" 
d="M1030 1331h-741v-567h618v-102h-618v-293h332v-90h-332v-279h-111v279h-184v90h184v1065h852v-103z" />
    <glyph glyph-name="uni20A8" unicode="&#x20a8;" horiz-adv-x="1286" 
d="M1206 1434l-12 -84h-360q82 -40 129 -117q47 -78 53 -176h162l-15 -84h-147q-12 -140 -102 -236q-89 -95 -232 -119l340 -618h-125l-326 598h-424v102h412q146 0 238 74q91 73 106 199h-756v84h756q-15 128 -105 200q-92 74 -237 74h-414v103h1059z" />
    <glyph glyph-name="Euro" unicode="&#x20ac;" horiz-adv-x="1329" 
d="M49 518v84h137q-4 59 -4 115q0 53 4 86h-137v84h141q27 261 171 410t368 149q211 0 346 -120q136 -121 158 -316h-109q-23 152 -127 243q-107 93 -264 93q-178 0 -294 -122q-115 -121 -136 -337h436l-12 -84h-430q-4 -29 -4 -86q0 -63 6 -115h385l-14 -84h-365
q30 -200 146 -316q114 -114 286 -114q155 0 256 90q100 90 129 244h109q-30 -198 -161 -317q-129 -117 -337 -117q-218 0 -362 140q-145 141 -178 390h-144z" />
    <glyph glyph-name="uni20BF" unicode="&#x20bf;" horiz-adv-x="1269" 
d="M352 1434v215h92v-215h183v215h92v-222q178 -15 276 -107q99 -93 99 -251q0 -131 -71 -217t-202 -115q163 -28 249 -111q89 -86 89 -237q0 -170 -113 -271q-114 -102 -327 -114v-201h-92v197h-183v-197h-94v197h-203v1434h205zM258 782h391q159 0 247 74q87 74 87 203
q0 130 -87 202t-247 72h-391v-551zM258 100h395q193 0 293 78q101 78 101 215q0 138 -103 214q-102 75 -291 75h-395v-582z" />
    <glyph glyph-name="trademark" unicode="&#x2122;" horiz-adv-x="1417" 
d="M70 1434h487v-72h-205v-479h-78v479h-204v72zM637 1434h106l220 -455l221 455h108v-551h-73v463l-226 -463h-63l-221 463v-463h-72v551z" />
    <glyph glyph-name="uni2126" unicode="&#x2126;" horiz-adv-x="1527" 
d="M918 231q197 108 291 245q94 138 94 325q0 156 -70 282t-193 195q-125 70 -276 70q-153 0 -276 -70q-121 -69 -191 -195t-70 -282q0 -188 92 -325q91 -136 291 -245v-231h-487v102h391v93q-205 99 -302 249q-97 151 -97 361q0 188 83 334q82 145 231 226t335 81t335 -81
q148 -81 232 -226t84 -332q0 -213 -98 -363t-303 -249v-93h393v-102h-489v231z" />
    <glyph glyph-name="uni2153" unicode="&#x2153;" horiz-adv-x="1351" 
d="M178 690v527q-8 -19 -37 -19h-141v72h141q17 0 28 14t11 33v119h72v-746h-74zM31 0l909 1434h88l-909 -1434h-88zM852 698q69 60 182 60q114 0 183 -57t69 -146q0 -65 -41 -109q-40 -43 -106 -55q78 -15 121 -60q45 -47 45 -120q0 -101 -75 -162q-74 -61 -198 -61
q-130 0 -201 61t-71 174h74q1 -79 56 -123q53 -43 144 -43q84 0 138 42q55 43 55 110q0 66 -56 107q-55 40 -147 40h-47v56h47q81 0 133 38q51 38 51 99t-48 100t-124 39q-81 0 -131 -41q-49 -40 -49 -110h-76q1 100 72 161z" />
    <glyph glyph-name="uni2155" unicode="&#x2155;" horiz-adv-x="1308" 
d="M178 690v527q-8 -19 -37 -19h-141v72h141q17 0 28 14t11 33v119h72v-746h-74zM31 0l909 1434h88l-909 -1434h-88zM1219 676h-385l-17 -277q34 47 85 70q55 25 114 25q109 0 179 -70q69 -69 69 -180q0 -113 -74 -185q-72 -71 -189 -71q-107 0 -178 59q-71 60 -82 156h74
q10 -65 62 -106q50 -40 124 -40q80 0 133 53q52 52 52 134t-51 132q-52 50 -136 50q-55 0 -103 -28q-45 -26 -73 -74h-69l20 421h445v-69z" />
    <glyph glyph-name="uni2156" unicode="&#x2156;" horiz-adv-x="1599" 
d="M63 1204q0 110 72 176t180 66q115 0 185 -62q69 -62 69 -159q0 -75 -39 -131q-41 -58 -112 -119l-252 -215h412v-72h-523v70l307 256q67 56 98 102q32 47 32 107q0 66 -49 109q-48 42 -126 42q-82 0 -131 -46t-49 -128v-12h-74v16zM322 0l909 1434h88l-909 -1434h-88z
M1509 676h-385l-16 -277q34 47 85 70q55 25 114 25q109 0 179 -70q68 -68 68 -180q0 -113 -73 -185q-72 -71 -189 -71q-107 0 -178 59q-71 60 -82 156h74q10 -66 61 -106q50 -40 125 -40q79 0 132 53t53 134q0 82 -52 132t-135 50q-55 0 -103 -28q-45 -26 -73 -74h-70
l21 421h444v-69z" />
    <glyph glyph-name="uni2157" unicode="&#x2157;" horiz-adv-x="1617" 
d="M143 1391q68 59 183 59q114 0 182 -56q70 -58 70 -147q0 -64 -41 -108t-107 -56q78 -15 121 -60q45 -47 45 -120q0 -101 -75 -162q-74 -61 -197 -61q-130 0 -201 61q-72 61 -72 174h74q1 -78 56 -122q53 -43 145 -43q84 0 138 42t54 109q0 68 -55 108t-148 40h-47v55h47
q82 0 134 38q51 38 51 99t-48 100t-124 39q-81 0 -131 -41t-50 -110h-75q1 102 71 162zM340 0l909 1434h88l-909 -1434h-88zM1528 676h-385l-17 -277q34 47 85 70q55 25 114 25q109 0 179 -70q69 -69 69 -180q0 -113 -74 -185q-72 -71 -188 -71q-107 0 -178 59
q-71 60 -82 156h73q10 -65 62 -106q50 -40 125 -40q79 0 132 53q52 52 52 134t-51 132q-52 50 -135 50q-56 0 -104 -28q-44 -25 -72 -74h-70l20 421h445v-69z" />
    <glyph glyph-name="uni2158" unicode="&#x2158;" horiz-adv-x="1644" 
d="M420 1434h90v-480h127v-69h-127v-197h-74v197h-393v69zM436 1352l-311 -398h311v398zM367 0l909 1434h88l-909 -1434h-88zM1554 676h-385l-16 -277q34 47 85 70q55 25 114 25q109 0 179 -70q68 -68 68 -180q0 -113 -73 -185q-72 -71 -189 -71q-107 0 -178 59
q-71 60 -82 156h74q10 -66 61 -106q50 -40 125 -40q79 0 132 53t53 134q0 82 -52 132t-135 50q-55 0 -103 -28q-45 -26 -73 -74h-69l20 421h444v-69z" />
    <glyph glyph-name="uni2159" unicode="&#x2159;" horiz-adv-x="1292" 
d="M178 690v527q-8 -19 -37 -19h-141v72h141q17 0 28 14t11 33v119h72v-746h-74zM31 0l909 1434h88l-909 -1434h-88zM781 649q80 109 214 109q94 0 163 -57q68 -56 83 -156h-72q-15 71 -61 110t-113 39q-100 0 -160 -86q-61 -87 -61 -229q0 -37 4 -92q4 76 62 134
q56 56 155 56q114 0 182 -67t68 -177q0 -111 -70 -178t-188 -67q-144 0 -214 100q-71 101 -71 270q0 184 79 291zM1119 366q-50 50 -132 50q-85 0 -135 -49q-51 -49 -51 -131q0 -83 52 -134q53 -51 134 -51q82 0 132 50t50 132q0 83 -50 133z" />
    <glyph glyph-name="oneeighth" unicode="&#x215b;" horiz-adv-x="1318" 
d="M178 690v527q-8 -19 -37 -19h-141v72h141q17 0 28 14t11 33v119h72v-746h-74zM31 0l909 1434h88l-909 -1434h-88zM773 321q46 51 124 66q-70 16 -109 60q-40 46 -40 116q0 84 70 139q71 56 181 56q109 0 180 -56q70 -55 70 -139q0 -67 -40 -113q-41 -47 -107 -63
q78 -15 123 -66q47 -53 47 -126q0 -91 -76 -149t-197 -58t-197 58q-77 59 -77 149q0 73 48 126zM1124 655q-50 39 -125 39q-77 0 -127 -39q-49 -39 -49 -100q0 -63 49 -102q50 -39 127 -39q78 0 126 39q49 40 49 102q0 61 -50 100zM1139 310q-56 44 -140 44q-82 0 -140 -44
q-56 -43 -56 -109q0 -64 56 -107t140 -43q85 0 140 42t55 108t-55 109z" />
    <glyph glyph-name="threeeighths" unicode="&#x215c;" horiz-adv-x="1628" 
d="M143 1391q68 59 183 59q114 0 182 -56q70 -58 70 -147q0 -64 -41 -108t-107 -56q78 -15 121 -60q45 -47 45 -120q0 -101 -75 -162q-74 -61 -197 -61q-130 0 -201 61q-72 61 -72 174h74q1 -78 56 -122q53 -43 145 -43q84 0 138 42t54 109q0 68 -55 108t-148 40h-47v55h47
q82 0 134 38q51 38 51 99t-48 100t-124 39q-81 0 -131 -41t-50 -110h-75q1 102 71 162zM340 0l909 1434h88l-909 -1434h-88zM1082 321q46 51 124 66q-69 15 -108 60q-41 47 -41 116q0 84 70 139q71 56 182 56q108 0 179 -56t71 -139q0 -67 -40 -113q-41 -46 -108 -63
q78 -15 123 -66q47 -53 47 -126q0 -91 -76 -149t-196 -58q-122 0 -198 58q-77 59 -77 149q0 73 48 126zM1434 655q-50 39 -125 39q-77 0 -127 -39q-49 -39 -49 -100q0 -63 49 -102q50 -39 127 -39q78 0 126 39t48 102q0 61 -49 100zM1448 310q-56 44 -139 44t-141 -44
q-56 -43 -56 -109q0 -64 56 -107t141 -43q83 0 139 42q55 42 55 108t-55 109z" />
    <glyph glyph-name="fiveeighths" unicode="&#x215d;" horiz-adv-x="1613" 
d="M537 1364h-385l-17 -277q34 47 85 70q55 25 114 25q109 0 179 -70q69 -69 69 -180q0 -112 -74 -184t-189 -72q-107 0 -178 59q-71 60 -82 156h74q10 -65 62 -106q50 -40 124 -40q80 0 133 53q52 52 52 134t-51 132q-52 50 -136 50q-55 0 -103 -28q-45 -26 -73 -74h-69
l20 422h445v-70zM326 0l909 1434h88l-909 -1434h-88zM1070 321q46 51 124 66q-70 16 -109 60q-41 47 -41 116q0 83 71 139t181 56q109 0 180 -56q70 -55 70 -139q0 -67 -40 -113q-41 -47 -107 -63q78 -15 123 -66q47 -53 47 -126q0 -91 -76 -149t-197 -58t-197 58
q-77 59 -77 149q0 73 48 126zM1421 655q-49 39 -125 39q-78 0 -127 -39t-49 -100q0 -63 49 -102t127 -39t126 39t48 102q0 61 -49 100zM1436 310q-56 44 -140 44q-82 0 -140 -44q-56 -43 -56 -109q0 -64 56 -107t140 -43t140 42q55 42 55 108t-55 109z" />
    <glyph glyph-name="seveneighths" unicode="&#x215e;" horiz-adv-x="1589" 
d="M49 1434h522v-64l-360 -684h-82l360 680l-440 -2v70zM301 0l909 1434h88l-909 -1434h-88zM1043 321q46 51 124 66q-69 15 -108 60q-41 47 -41 116q0 83 71 139t181 56q108 0 179 -56t71 -139q0 -67 -40 -113t-108 -63q78 -15 123 -66q47 -53 47 -126q0 -91 -76 -149
t-196 -58q-122 0 -198 58q-77 59 -77 149q0 73 48 126zM1395 655q-49 39 -125 39q-78 0 -127 -39t-49 -100q0 -63 49 -102t127 -39t126 39t48 102q0 61 -49 100zM1409 310q-56 44 -139 44t-141 -44q-56 -43 -56 -109q0 -64 56 -107t141 -43q84 0 139 42t55 108t-55 109z" />
    <glyph glyph-name="arrowleft" unicode="&#x2190;" horiz-adv-x="1150" 
d="M20 549l529 530l65 -65l-417 -416h831v-96h-831l417 -418l-65 -66z" />
    <glyph glyph-name="arrowup" unicode="&#x2191;" horiz-adv-x="1298" 
d="M1180 524l-68 -67l-416 420v-877h-96v877l-416 -418l-65 65l528 527z" />
    <glyph glyph-name="arrowright" unicode="&#x2192;" horiz-adv-x="1150" 
d="M1130 551l-528 -531l-65 66l417 418h-831v96h831l-417 416l65 65z" />
    <glyph glyph-name="arrowdown" unicode="&#x2193;" horiz-adv-x="1298" 
d="M1180 514l-533 -526l-528 526l65 66l416 -418v876h96v-876l416 420z" />
    <glyph glyph-name="arrowboth" unicode="&#x2194;" horiz-adv-x="1746" 
d="M1133 1055l503 -506l-503 -506l-66 66l395 393h-1177l395 -393l-66 -66l-503 506l503 506l66 -66l-395 -391h1177l-395 391z" />
    <glyph glyph-name="arrowupdn" unicode="&#x2195;" horiz-adv-x="1232" 
d="M111 961l505 503l506 -503l-65 -66l-393 395v-1153l393 395l65 -65l-506 -504l-505 504l65 65l391 -395v1153l-391 -395z" />
    <glyph glyph-name="uni2196" unicode="&#x2196;" horiz-adv-x="1001" 
d="M119 1038h747v-92l-592 4l592 -590l-69 -67l-590 592l4 -596h-92v749z" />
    <glyph glyph-name="uni2197" unicode="&#x2197;" horiz-adv-x="1001" 
d="M883 1038v-749h-92l4 596l-590 -592l-70 67l592 590l-592 -4v92h748z" />
    <glyph glyph-name="uni2198" unicode="&#x2198;" horiz-adv-x="1001" 
d="M135 90l594 -4l-594 590l70 69l590 -593l-4 596h92v-750h-748v92z" />
    <glyph glyph-name="uni2199" unicode="&#x2199;" horiz-adv-x="1001" 
d="M211 748l-2 -594l588 591l69 -67l-594 -590l596 4v-94h-749v750h92z" />
    <glyph glyph-name="partialdiff" unicode="&#x2202;" horiz-adv-x="1193" 
d="M156 725q63 109 172 169q108 60 241 60q127 0 232 -51q103 -50 155 -143q-52 231 -223 399q-169 166 -491 195v92q289 -18 481 -157q189 -137 277 -341q87 -203 87 -422q0 -160 -60 -281q-60 -122 -173 -190q-112 -67 -268 -67q-145 0 -256 62q-112 63 -175 174t-63 251
t64 250zM871 195q108 114 108 305q0 112 -54 196q-53 82 -144 127q-87 43 -195 43q-112 0 -201 -50q-86 -48 -137 -139q-49 -88 -49 -202t49 -203q50 -91 137 -141q89 -51 201 -51q176 0 285 115z" />
    <glyph glyph-name="emptyset" unicode="&#x2205;" horiz-adv-x="1255" 
d="M1118 934q41 -100 41 -209q0 -149 -69 -271q-70 -122 -192 -192q-122 -69 -269 -69q-106 0 -194 33q-90 34 -163 98l-108 -117l-58 55l111 119q-59 74 -88 159q-31 90 -31 185q0 146 70 269t191 192q122 69 270 69q175 0 315 -98l107 115l57 -55l-104 -111
q74 -74 114 -172zM289 459l585 624q-106 80 -245 80q-120 0 -215 -58q-96 -59 -153 -159q-56 -99 -56 -221q0 -149 84 -266zM843 345q95 57 153 159q57 100 57 221q0 85 -31 167q-29 77 -86 140l-594 -635q120 -110 287 -110q117 0 214 58z" />
    <glyph glyph-name="uni2206" unicode="&#x2206;" horiz-adv-x="1351" 
d="M51 0v90l555 1344h137l555 -1344v-90h-1247zM170 100h1004l-504 1219z" />
    <glyph glyph-name="product" unicode="&#x220f;" horiz-adv-x="1466" 
d="M1403 1434v-103h-191v-1548h-110v1548h-737v-1548h-111v1548h-191v103h1340z" />
    <glyph glyph-name="summation" unicode="&#x2211;" horiz-adv-x="1251" 
d="M86 -125l604 752l-561 714v93h1024v-101h-879l525 -669v-72l-574 -711h944v-98h-1083v92z" />
    <glyph glyph-name="minus" unicode="&#x2212;" 
d="M135 545v88h811v-88h-811z" />
    <glyph glyph-name="radical" unicode="&#x221a;" horiz-adv-x="1142" 
d="M203 795l-140 -66l-34 84l231 107l318 -791l393 1305h104l-434 -1434h-113z" />
    <glyph glyph-name="infinity" unicode="&#x221e;" horiz-adv-x="1593" 
d="M980 274q-82 61 -185 222q-103 -161 -185 -222t-190 -61q-152 0 -243 102q-91 101 -91 260q0 160 91 261q91 102 243 102q109 0 191 -61q83 -62 184 -220q103 159 185 220t191 61q151 0 243 -102q91 -101 91 -261q0 -159 -91 -260q-92 -102 -243 -102q-109 0 -191 61z
M581 364q69 57 160 209q-96 158 -161 213q-69 58 -156 58q-108 0 -175 -73t-67 -196t66 -195q67 -73 176 -73q88 0 157 57zM1008 366q70 -59 157 -59q109 0 176 73q66 72 66 195t-67 196t-175 73q-87 0 -157 -58q-72 -59 -160 -208q90 -152 160 -212z" />
    <glyph glyph-name="integral" unicode="&#x222b;" horiz-adv-x="778" 
d="M193 -121q77 0 111 33t34 111v1169q0 124 57 183t185 59h133v-97h-127q-79 0 -111 -32q-33 -33 -33 -111v-1169q0 -126 -57 -184t-186 -58h-133v96h127z" />
    <glyph glyph-name="approxequal" unicode="&#x2248;" 
d="M147 211q0 115 61 185q60 69 159 69q63 0 107 -23q48 -25 95 -65q43 -35 72 -51q29 -17 68 -17q69 0 104 44t35 116h88q0 -117 -59 -185q-60 -69 -160 -69q-64 0 -108 23q-48 25 -95 65q-44 35 -72 51q-29 17 -67 17q-68 2 -103 -42q-34 -43 -34 -118h-91zM147 641
q0 115 61 185q60 69 159 69q63 0 107 -23q48 -25 95 -65q43 -35 72 -51q29 -17 68 -17q69 0 104 44t35 116h88q0 -117 -59 -185q-60 -69 -160 -69q-64 0 -108 23q-48 25 -95 65q-44 35 -72 51q-29 17 -67 17q-68 2 -103 -42q-34 -43 -34 -118h-91z" />
    <glyph glyph-name="notequal" unicode="&#x2260;" 
d="M926 727h-285l-113 -332h398v-88h-426l-74 -213h-92l72 213h-250v88h280l113 332h-393v90h424l69 207h94l-69 -207h252v-90z" />
    <glyph glyph-name="lessequal" unicode="&#x2264;" 
d="M162 612v103l760 354v-102l-643 -303l643 -302v-104zM162 0v90h760v-90h-760z" />
    <glyph glyph-name="greaterequal" unicode="&#x2265;" 
d="M922 715v-103l-760 -354v104l643 302l-643 303v102zM162 0v90h760v-90h-760z" />
    <glyph glyph-name="dotmath" unicode="&#x22c5;" horiz-adv-x="376" 
d="M132 651q21 21 56 21q36 0 57 -21t21 -55q0 -35 -21 -56q-22 -22 -57 -22q-34 0 -56 22q-21 21 -21 56q0 34 21 55z" />
    <glyph glyph-name="filledbox" unicode="&#x25a0;" horiz-adv-x="1736" 
d="M147 1434h1442v-1434h-1442v1434z" />
    <glyph glyph-name="uni25A1" unicode="&#x25a1;" horiz-adv-x="1730" 
d="M147 1434h1436v-1434h-1436v1434zM254 1335v-1237h1223v1237h-1223z" />
    <glyph glyph-name="uni25AF" unicode="&#x25af;" horiz-adv-x="1220" 
d="M147 1434h926v-1434h-926v1434zM254 1335v-1237h711v1237h-711z" />
    <glyph glyph-name="triagup" unicode="&#x25b2;" horiz-adv-x="1810" 
d="M907 1458l838 -1458h-1679z" />
    <glyph glyph-name="uni25B3" unicode="&#x25b3;" horiz-adv-x="1810" 
d="M907 1458l838 -1458h-1679zM907 1260l-674 -1164h1344z" />
    <glyph glyph-name="uni25B6" unicode="&#x25b6;" horiz-adv-x="1071" 
d="M123 1036l913 -524l-913 -524v1048z" />
    <glyph glyph-name="uni25B7" unicode="&#x25b7;" horiz-adv-x="1079" 
d="M123 1049l921 -529l-921 -530v1059zM205 127l684 393l-684 393v-786z" />
    <glyph glyph-name="uni25C0" unicode="&#x25c0;" horiz-adv-x="1071" 
d="M948 1036v-1048l-913 524z" />
    <glyph glyph-name="uni25C1" unicode="&#x25c1;" horiz-adv-x="1079" 
d="M956 1049v-1059l-921 530zM874 127v786l-684 -393z" />
    <glyph glyph-name="lozenge" unicode="&#x25ca;" horiz-adv-x="1185" 
d="M657 1434l418 -717l-418 -719h-129l-417 719l417 717h129zM594 86l360 631l-360 631l-363 -631z" />
    <glyph glyph-name="circle" unicode="&#x25cb;" horiz-adv-x="1662" 
d="M1203 1350q165 -95 264 -264q98 -167 98 -369q0 -203 -98 -370t-264 -263q-167 -96 -372 -96q-204 0 -372 96q-167 95 -265 263q-98 167 -98 370q0 202 98 369q99 169 265 264q168 96 372 96q205 0 372 -96zM498 1289q-151 -87 -236 -237q-86 -151 -86 -335t86 -335
t236 -238t333 -87t333 87q151 88 237 238q86 151 86 335t-86 335q-85 149 -237 237q-150 87 -333 87t-333 -87z" />
    <glyph glyph-name="uni25CF" unicode="&#x25cf;" horiz-adv-x="1652" 
d="M454 1351q-169 -96 -263 -262q-95 -167 -95 -372t95 -372q94 -166 263 -262q167 -95 371 -95q205 0 372 95t262 262t95 372t-95 372t-262 262t-372 95q-204 0 -371 -95z" />
    <glyph glyph-name="uni25FD" unicode="&#x25fd;" horiz-adv-x="1284" 
d="M123 1038h1038v-1040h-1038v1040zM207 956v-876h868v876h-868z" />
    <glyph glyph-name="uni25FE" unicode="&#x25fe;" horiz-adv-x="1284" 
d="M123 1038h1038v-1038h-1038v1038z" />
    <glyph glyph-name="uni262E" unicode="&#x262e;" horiz-adv-x="1656" 
d="M191 1091q94 165 263 261q166 94 373 94q208 0 374 -94q168 -95 262 -261q96 -169 96 -374t-96 -374q-94 -166 -262 -261q-166 -94 -374 -94q-207 0 -373 94q-169 96 -263 261q-95 167 -95 374t95 374zM786 1352q-168 -7 -306 -94q-136 -85 -214 -226t-78 -315
q0 -118 40 -219q42 -105 112 -181l446 459v576zM868 776l447 -459q69 74 111 180q40 102 40 220q0 175 -76 315q-76 139 -214 226q-138 86 -308 94v-576zM868 82q122 6 226 49q105 44 182 119l-408 420v-588zM381 250q77 -75 182 -119q104 -43 223 -49v586z" />
    <glyph glyph-name="uni26AA" unicode="&#x26aa;" horiz-adv-x="1230" 
d="M881 975q120 -68 191 -191q71 -122 71 -264t-71 -264q-70 -121 -191 -191q-122 -71 -267 -71q-142 0 -264 71q-121 70 -191 191q-71 122 -71 264t71 264q71 123 191 191q121 69 264 69q146 0 267 -69zM389 907q-104 -61 -163 -163q-60 -104 -60 -224q0 -123 60 -225
q60 -103 163 -163q102 -60 225 -60q124 0 227 60t164 163q60 102 60 225t-60 225t-164 162q-103 60 -227 60q-123 0 -225 -60z" />
    <glyph glyph-name="uni26AB" unicode="&#x26ab;" horiz-adv-x="1230" 
d="M881 975q120 -68 191 -191q71 -122 71 -264t-71 -264q-70 -121 -191 -191q-122 -71 -267 -71q-142 0 -264 71q-121 70 -191 191q-71 122 -71 264t71 264q71 123 191 191q121 69 264 69q146 0 267 -69z" />
    <glyph glyph-name="uni2713" unicode="&#x2713;" horiz-adv-x="2199" 
d="M66 715l75 78l639 -639l1276 1280l78 -78l-1354 -1356z" />
    <glyph glyph-name="uni2715" unicode="&#x2715;" horiz-adv-x="1613" 
d="M168 1434l639 -637l639 637l76 -78l-639 -637l639 -641l-76 -76l-639 637l-639 -637l-76 76l639 641l-639 637z" />
    <glyph glyph-name="uni2780" unicode="&#x2780;" horiz-adv-x="1662" 
d="M1203 1350q165 -95 264 -264q98 -167 98 -369q0 -203 -98 -370t-264 -263q-167 -96 -372 -96q-204 0 -372 96q-167 95 -265 263q-98 167 -98 370q0 202 98 369q99 169 265 264q168 96 372 96q205 0 372 -96zM498 1289q-151 -87 -236 -237q-86 -151 -86 -335t86 -335
t236 -238t333 -87t333 87q151 88 237 238q86 151 86 335t-86 335q-85 149 -237 237q-150 87 -333 87t-333 -87zM807 344v526q-7 -18 -37 -18h-141v72h141q17 0 28 14t11 33v119h72v-746h-74z" />
    <glyph glyph-name="uni2781" unicode="&#x2781;" horiz-adv-x="1662" 
d="M1203 1350q165 -95 264 -264q98 -167 98 -369q0 -203 -98 -370t-264 -263q-167 -96 -372 -96q-204 0 -372 96q-167 95 -265 263q-98 167 -98 370q0 202 98 369q99 169 265 264q168 96 372 96q205 0 372 -96zM498 1289q-151 -87 -236 -237q-86 -151 -86 -335t86 -335
t236 -238t333 -87t333 87q151 88 237 238q86 151 86 335t-86 335q-85 149 -237 237q-150 87 -333 87t-333 -87zM569 860q0 110 72 176t180 66q115 0 185 -62q69 -62 69 -159q0 -75 -39 -131q-41 -58 -112 -119l-252 -215h411v-72h-522v70l307 256q67 56 98 102t31 107
q0 67 -48 109t-126 42q-82 0 -131 -46t-49 -128v-12h-74v16z" />
    <glyph glyph-name="uni2782" unicode="&#x2782;" horiz-adv-x="1662" 
d="M1203 1350q165 -95 264 -264q98 -167 98 -369q0 -203 -98 -370t-264 -263q-167 -96 -372 -96q-204 0 -372 96q-167 95 -265 263q-98 167 -98 370q0 202 98 369q99 169 265 264q168 96 372 96q205 0 372 -96zM498 1289q-151 -87 -236 -237q-86 -151 -86 -335t86 -335
t236 -238t333 -87t333 87q151 88 237 238q86 151 86 335t-86 335q-85 149 -237 237q-150 87 -333 87t-333 -87zM647 1042q69 60 182 60q115 0 183 -56q69 -57 69 -147q0 -64 -41 -108t-106 -56q78 -15 121 -60q45 -47 45 -120q0 -101 -75 -162q-74 -61 -198 -61
q-129 0 -200 61q-72 61 -72 174h74q1 -79 56 -123q53 -43 144 -43q85 0 139 42t54 110q0 67 -55 107t-148 40h-47v56h47q81 0 133 38t52 99q0 60 -49 100q-48 39 -124 39q-81 0 -131 -41q-49 -40 -49 -110h-76q1 100 72 161z" />
    <glyph glyph-name="uni2783" unicode="&#x2783;" horiz-adv-x="1662" 
d="M1203 1350q165 -95 264 -264q98 -167 98 -369q0 -203 -98 -370t-264 -263q-167 -96 -372 -96q-204 0 -372 96q-167 95 -265 263q-98 167 -98 370q0 202 98 369q99 169 265 264q168 96 372 96q205 0 372 -96zM498 1289q-151 -87 -236 -237q-86 -151 -86 -335t86 -335
t236 -238t333 -87t333 87q151 88 237 238q86 151 86 335t-86 335q-85 149 -237 237q-150 87 -333 87t-333 -87zM874 1090h91v-480h127v-69h-127v-197h-74v197h-393v69zM891 1008l-311 -398h311v398z" />
    <glyph glyph-name="uni2784" unicode="&#x2784;" horiz-adv-x="1662" 
d="M1203 1350q165 -95 264 -264q98 -167 98 -369q0 -203 -98 -370t-264 -263q-167 -96 -372 -96q-204 0 -372 96q-167 95 -265 263q-98 167 -98 370q0 202 98 369q99 169 265 264q168 96 372 96q205 0 372 -96zM498 1289q-151 -87 -236 -237q-86 -151 -86 -335t86 -335
t236 -238t333 -87t333 87q151 88 237 238q86 151 86 335t-86 335q-85 149 -237 237q-150 87 -333 87t-333 -87zM1057 1020h-385l-17 -277q34 47 85 70q55 25 114 25q109 0 179 -70q69 -69 69 -180q0 -113 -74 -185q-72 -71 -188 -71q-107 0 -178 59q-71 60 -82 156h73
q10 -65 62 -106q50 -40 125 -40q79 0 132 53q52 52 52 134t-51 132q-52 50 -135 50q-56 0 -104 -28q-44 -25 -72 -74h-70l20 422h445v-70z" />
    <glyph glyph-name="uni2785" unicode="&#x2785;" horiz-adv-x="1662" 
d="M1203 1350q165 -95 264 -264q98 -167 98 -369q0 -203 -98 -370t-264 -263q-167 -96 -372 -96q-204 0 -372 96q-167 95 -265 263q-98 167 -98 370q0 202 98 369q99 169 265 264q168 96 372 96q205 0 372 -96zM498 1289q-151 -87 -236 -237q-86 -151 -86 -335t86 -335
t236 -238t333 -87t333 87q151 88 237 238q86 151 86 335t-86 335q-85 149 -237 237q-150 87 -333 87t-333 -87zM624 993q80 109 214 109q94 0 162 -56t83 -157h-71q-15 70 -62 110q-47 39 -112 39q-101 0 -161 -86q-61 -87 -61 -229q0 -24 5 -92q4 77 61 134q56 56 156 56
q113 0 181 -67t68 -176q0 -112 -70 -179t-188 -67q-144 0 -214 100t-70 270q0 184 79 291zM962 710q-50 50 -133 50q-85 0 -135 -49q-51 -49 -51 -131q0 -83 52 -134q53 -51 134 -51q83 0 133 50t50 133q0 82 -50 132z" />
    <glyph glyph-name="uni2786" unicode="&#x2786;" horiz-adv-x="1662" 
d="M1203 1350q165 -95 264 -264q98 -167 98 -369q0 -203 -98 -370t-264 -263q-167 -96 -372 -96q-204 0 -372 96q-167 95 -265 263q-98 167 -98 370q0 202 98 369q99 169 265 264q168 96 372 96q205 0 372 -96zM498 1289q-151 -87 -236 -237q-86 -151 -86 -335t86 -335
t236 -238t333 -87t333 87q151 88 237 238q86 151 86 335t-86 335q-85 149 -237 237q-150 87 -333 87t-333 -87zM582 1092h522v-64l-361 -684h-81l360 680l-440 -2v70z" />
    <glyph glyph-name="uni2787" unicode="&#x2787;" horiz-adv-x="1662" 
d="M1203 1350q165 -95 264 -264q98 -167 98 -369q0 -203 -98 -370t-264 -263q-167 -96 -372 -96q-204 0 -372 96q-167 95 -265 263q-98 167 -98 370q0 202 98 369q99 169 265 264q168 96 372 96q205 0 372 -96zM498 1289q-151 -87 -236 -237q-86 -151 -86 -335t86 -335
t236 -238t333 -87t333 87q151 88 237 238q86 151 86 335t-86 335q-85 149 -237 237q-150 87 -333 87t-333 -87zM605 665q46 51 124 66q-68 15 -108 61q-41 47 -41 115q0 85 70 140t181 55q110 0 180 -55t70 -140q0 -67 -40 -113q-41 -47 -107 -63q78 -15 123 -66
q47 -53 47 -126q0 -91 -76 -149t-197 -58t-197 58q-77 59 -77 149q0 73 48 126zM956 999q-50 39 -125 39q-77 0 -126 -39q-50 -39 -50 -100q0 -63 50 -102t126 -39q78 0 126 39q49 40 49 102q0 61 -50 100zM971 654q-56 44 -140 44q-82 0 -140 -44q-56 -43 -56 -109
q0 -64 56 -107t140 -43q85 0 140 42t55 108t-55 109z" />
    <glyph glyph-name="uni2788" unicode="&#x2788;" horiz-adv-x="1662" 
d="M1203 1350q165 -95 264 -264q98 -167 98 -369q0 -203 -98 -370t-264 -263q-167 -96 -372 -96q-204 0 -372 96q-167 95 -265 263q-98 167 -98 370q0 202 98 369q99 169 265 264q168 96 372 96q205 0 372 -96zM498 1289q-151 -87 -236 -237q-86 -151 -86 -335t86 -335
t236 -238t333 -87t333 87q151 88 237 238q86 151 86 335t-86 335q-85 149 -237 237q-150 87 -333 87t-333 -87zM1024 440q-80 -108 -215 -108q-93 0 -161 56t-83 157h72q15 -73 61 -111q47 -39 113 -39q101 0 161 86t60 230q0 37 -4 92q-4 -77 -61 -134t-156 -57
q-111 0 -181 68q-69 68 -69 176q0 110 71 178t187 68q143 0 214 -101t71 -270q0 -182 -80 -291zM687 724q50 -50 132 -50q85 0 135 49q52 50 52 131q0 82 -53 133q-52 51 -134 51t-132 -50t-50 -132t50 -132z" />
    <glyph glyph-name="uni278A" unicode="&#x278a;" horiz-adv-x="1652" 
d="M454 1349q-168 -95 -263 -263q-95 -167 -95 -371q0 -205 95 -372q94 -166 263 -262q167 -95 371 -95q205 0 372 95t262 262t95 372q0 204 -95 371q-96 169 -262 263q-167 95 -372 95q-204 0 -371 -95zM801 342v526q-7 -18 -37 -18h-141v72h141q17 0 28 14t11 33v118h71
v-745h-73z" />
    <glyph glyph-name="uni278B" unicode="&#x278b;" horiz-adv-x="1652" 
d="M454 1351q-169 -96 -263 -262q-95 -167 -95 -372t95 -372q94 -166 263 -262q167 -95 371 -95q205 0 372 95t262 262t95 372t-95 372t-262 262t-372 95q-204 0 -371 -95zM563 860q0 110 72 176t180 66q114 0 184 -62t70 -159q0 -75 -39 -131q-41 -58 -112 -119l-252 -215
h411v-72h-522v70l307 256q65 55 97 102t32 107q0 67 -48 109t-126 42q-82 0 -131 -46t-49 -128v-12h-74v16z" />
    <glyph glyph-name="uni278C" unicode="&#x278c;" horiz-adv-x="1652" 
d="M454 1351q-169 -96 -263 -262q-95 -167 -95 -372t95 -372q94 -166 263 -262q167 -95 371 -95q205 0 372 95t262 262t95 372t-95 372t-262 262t-372 95q-204 0 -371 -95zM641 1042q69 60 182 60q115 0 183 -56q69 -57 69 -147q0 -64 -41 -108t-106 -56q78 -15 121 -60
q45 -47 45 -120q0 -101 -75 -162q-74 -61 -198 -61q-129 0 -200 61q-72 61 -72 174h74q1 -79 56 -123q53 -43 144 -43q85 0 139 42t54 110q0 67 -55 107t-148 40h-47v56h47q81 0 133 38q51 38 51 99t-48 100t-124 39q-81 0 -131 -41q-49 -40 -49 -110h-76q1 100 72 161z" />
    <glyph glyph-name="uni278D" unicode="&#x278d;" horiz-adv-x="1652" 
d="M454 1351q-169 -96 -263 -262q-95 -167 -95 -372t95 -372q94 -166 263 -262q167 -95 371 -95q205 0 372 95t262 262t95 372t-95 372t-262 262t-372 95q-204 0 -371 -95zM868 1090h90v-480h127v-69h-127v-197h-73v197h-393v69zM885 1008l-312 -398h312v398z" />
    <glyph glyph-name="uni278E" unicode="&#x278e;" horiz-adv-x="1652" 
d="M454 1351q-169 -96 -263 -262q-95 -167 -95 -372t95 -372q94 -166 263 -262q167 -95 371 -95q205 0 372 95t262 262t95 372t-95 372t-262 262t-372 95q-204 0 -371 -95zM1051 1020h-385l-17 -277q34 47 85 70q55 25 114 25q109 0 179 -70q69 -69 69 -180q0 -113 -74 -185
q-72 -71 -188 -71q-108 0 -179 59q-71 60 -82 156h74q10 -65 62 -106q50 -40 125 -40q79 0 132 53q52 52 52 134t-51 132q-52 50 -136 50q-55 0 -103 -28q-45 -26 -73 -74h-69l20 422h445v-70z" />
    <glyph glyph-name="uni278F" unicode="&#x278f;" horiz-adv-x="1652" 
d="M454 1351q-169 -96 -263 -262q-95 -167 -95 -372t95 -372q94 -166 263 -262q167 -95 371 -95q205 0 372 95t262 262t95 372t-95 372t-262 262t-372 95q-204 0 -371 -95zM617 993q80 109 214 109q95 0 163 -56t83 -157h-71q-15 70 -62 110q-46 39 -113 39q-100 0 -160 -86
q-61 -87 -61 -229q0 -37 4 -92q4 76 62 134q56 56 155 56q114 0 182 -67t68 -176q0 -112 -70 -179t-188 -67q-144 0 -214 100t-70 270q0 185 78 291zM955 710q-50 50 -132 50q-85 0 -135 -49q-51 -49 -51 -131q0 -83 52 -134q53 -51 134 -51q82 0 132 50q51 51 51 133
q0 81 -51 132z" />
    <glyph glyph-name="uni2790" unicode="&#x2790;" horiz-adv-x="1652" 
d="M454 1351q-169 -96 -263 -262q-95 -167 -95 -372t95 -372q94 -166 263 -262q167 -95 371 -95q205 0 372 95t262 262t95 372t-95 372t-262 262t-372 95q-204 0 -371 -95zM575 1092h523v-64l-361 -684h-82l361 680l-441 -2v70z" />
    <glyph glyph-name="uni2791" unicode="&#x2791;" horiz-adv-x="1652" 
d="M454 1351q-169 -96 -263 -262q-95 -167 -95 -372t95 -372q94 -166 263 -262q167 -95 371 -95q205 0 372 95t262 262t95 372t-95 372t-262 262t-372 95q-204 0 -371 -95zM599 665q46 51 124 66q-69 15 -109 61q-41 47 -41 115q0 84 71 140q70 55 181 55q110 0 180 -55
t70 -140q0 -67 -40 -113q-41 -47 -107 -63q78 -15 123 -66q47 -53 47 -126q0 -91 -76 -149t-197 -58t-197 58q-77 59 -77 149q0 73 48 126zM950 999q-50 39 -125 39q-77 0 -127 -39q-49 -39 -49 -100q0 -63 49 -102q50 -39 127 -39q78 0 126 39t48 102q0 61 -49 100z
M965 654q-56 44 -140 44q-82 0 -140 -44q-56 -43 -56 -109q0 -64 56 -107t140 -43q85 0 140 42t55 108t-55 109z" />
    <glyph glyph-name="uni2792" unicode="&#x2792;" horiz-adv-x="1652" 
d="M454 1351q-169 -96 -263 -262q-95 -167 -95 -372t95 -372q94 -166 263 -262q167 -95 371 -95q205 0 372 95t262 262t95 372t-95 372t-262 262t-372 95q-204 0 -371 -95zM1018 440q-80 -108 -215 -108q-93 0 -161 56t-83 157h72q15 -73 61 -111q46 -39 113 -39
q101 0 161 86t60 230q0 37 -4 92q-4 -77 -61 -134t-156 -57q-111 0 -181 68q-69 68 -69 176q0 110 71 178t187 68q143 0 214 -101t71 -270q0 -182 -80 -291zM681 724q50 -50 132 -50q85 0 135 49q51 49 51 131t-52 133q-53 51 -134 51q-82 0 -132 -50t-50 -132t50 -132z" />
    <glyph glyph-name="fl" unicode="&#xfb02;" horiz-adv-x="952" 
d="M193 1038v154q0 124 57 183t186 59h174v-97h-170q-78 0 -110 -32q-33 -33 -33 -111v-156h311v-96h-311v-942h-104v942h-197v96h197zM725 1434h104v-1434h-104v1434z" />
    <glyph glyph-name="u1F10B" unicode="&#x1f10b;" horiz-adv-x="1662" 
d="M1203 1350q165 -95 264 -264q98 -167 98 -369q0 -203 -98 -370t-264 -263q-167 -96 -372 -96q-204 0 -372 96q-167 95 -265 263q-98 167 -98 370q0 202 98 369q99 169 265 264q168 96 372 96q205 0 372 -96zM498 1289q-151 -87 -236 -237q-86 -151 -86 -335t86 -335
t236 -238t333 -87t333 87q151 88 237 238q86 151 86 335t-86 335q-85 149 -237 237q-150 87 -333 87t-333 -87zM622 994q80 108 209 108q131 0 209 -108t78 -277q0 -170 -78 -278q-77 -107 -209 -107q-130 0 -209 107t-79 278q0 170 79 277zM985 942q-57 88 -154 88
q-96 0 -154 -88q-59 -89 -59 -225t59 -225t154 -89q97 0 154 89q57 88 57 225t-57 225z" />
    <glyph glyph-name="u1F10C" unicode="&#x1f10c;" horiz-adv-x="1652" 
d="M454 1351q-169 -96 -263 -262q-95 -167 -95 -372t95 -372q94 -166 263 -262q167 -95 371 -95q205 0 372 95t262 262t95 372t-95 372t-262 262t-372 95q-204 0 -371 -95zM615 994q79 108 210 108t209 -108t78 -277q0 -170 -78 -278q-77 -107 -209 -107q-131 0 -210 107
q-78 106 -78 278q0 171 78 277zM979 942q-57 88 -154 88q-96 0 -154 -88q-59 -89 -59 -225t59 -225t154 -89q97 0 154 89q57 88 57 225t-57 225z" />
    <glyph glyph-name="J.ss06" horiz-adv-x="1150" 
d="M182 508q0 -196 93 -307t264 -111q180 0 271 100t91 330v914h111v-912q0 -280 -121 -407t-352 -127q-223 0 -346 135q-123 134 -121 385h110z" />
    <glyph glyph-name="Jcircumflex.ss06" horiz-adv-x="1150" 
d="M182 508q0 -196 93 -307t264 -111q180 0 271 100t91 330v914h111v-912q0 -280 -121 -407t-352 -127q-223 0 -346 135q-123 134 -121 385h110zM958 1765l-208 -202h-103l260 272h103l260 -272h-105z" />
    <glyph glyph-name="Q.ss07" horiz-adv-x="1533" 
d="M1345 330q-92 -170 -251 -260l143 -230h-113l-118 189q-112 -41 -240 -41q-194 0 -347 93q-152 92 -238 260q-85 166 -85 376t85 376q86 168 238 260q153 93 347 93t347 -93q152 -92 238 -260q85 -166 85 -376q0 -218 -91 -387zM950 121l-192 307h112l168 -268
q133 76 209 222t76 335q0 180 -71 324q-72 145 -197 223q-127 79 -289 79q-163 0 -288 -79t-196 -223t-71 -324q0 -181 71 -325q71 -143 196 -222q127 -80 288 -80q96 0 184 31z" />
    <glyph glyph-name="a.ss01" horiz-adv-x="1202" 
d="M1079 1038v-1038h-90l-16 238q-51 -112 -154 -182q-101 -68 -241 -68q-144 0 -253 65q-111 66 -174 186t-63 281q0 153 63 275q62 120 174 188t253 68q139 0 243 -67q102 -66 152 -179l16 233h90zM790 137q88 55 138 155q49 98 49 226t-49 227q-49 100 -138 157
q-87 56 -204 56t-204 -56q-88 -57 -138 -156q-49 -98 -49 -226t49 -227q50 -101 138 -156t204 -55t204 55z" />
    <glyph glyph-name="a.ss02" horiz-adv-x="1054" 
d="M837 955q107 -94 107 -267v-688h-90l-10 203q-50 -97 -148 -157q-95 -58 -241 -58q-169 0 -272 80q-101 79 -101 215q0 149 105 230t300 81h353v100q0 124 -82 194t-228 70q-124 0 -204 -57t-101 -153h-104q21 141 130 222q110 81 284 81q192 0 302 -96zM840 504h-363
q-137 0 -213 -57t-76 -160q0 -95 74 -152t201 -57q174 0 273 90t104 238v98z" />
    <glyph glyph-name="aacute.ss01" horiz-adv-x="1202" 
d="M1079 1038v-1038h-90l-16 238q-51 -112 -154 -182q-101 -68 -241 -68q-144 0 -253 65q-111 66 -174 186t-63 281q0 153 63 275q62 120 174 188t253 68q139 0 243 -67q102 -66 152 -179l16 233h90zM790 137q88 55 138 155q49 98 49 226t-49 227q-49 100 -138 157
q-87 56 -204 56t-204 -56q-88 -57 -138 -156q-49 -98 -49 -226t49 -227q50 -101 138 -156t204 -55t204 55zM547 1169l186 271h123l-225 -271h-84z" />
    <glyph glyph-name="aacute.ss02" horiz-adv-x="1054" 
d="M837 955q107 -94 107 -267v-688h-90l-10 203q-50 -97 -148 -157q-95 -58 -241 -58q-169 0 -272 80q-101 79 -101 215q0 149 105 230t300 81h353v100q0 124 -82 194t-228 70q-124 0 -204 -57t-101 -153h-104q21 141 130 222q110 81 284 81q192 0 302 -96zM840 504h-363
q-137 0 -213 -57t-76 -160q0 -95 74 -152t201 -57q174 0 273 90t104 238v98zM492 1169l186 271h123l-226 -271h-83z" />
    <glyph glyph-name="abreve.ss01" horiz-adv-x="1202" 
d="M1079 1038v-1038h-90l-16 238q-51 -112 -154 -182q-101 -68 -241 -68q-144 0 -253 65q-111 66 -174 186t-63 281q0 153 63 275q62 120 174 188t253 68q139 0 243 -67q102 -66 152 -179l16 233h90zM790 137q88 55 138 155q49 98 49 226t-49 227q-49 100 -138 157
q-87 56 -204 56t-204 -56q-88 -57 -138 -156q-49 -98 -49 -226t49 -227q50 -101 138 -156t204 -55t204 55zM412 1440q0 -78 48 -128t124 -50q77 0 127 50q49 49 49 128h84q-1 -115 -75 -189q-71 -71 -187 -71q-114 0 -183 70q-69 71 -71 190h84z" />
    <glyph glyph-name="abreve.ss02" horiz-adv-x="1054" 
d="M837 955q107 -94 107 -267v-688h-90l-10 203q-50 -97 -148 -157q-95 -58 -241 -58q-169 0 -272 80q-101 79 -101 215q0 149 105 230t300 81h353v100q0 124 -82 194t-228 70q-124 0 -204 -57t-101 -153h-104q21 141 130 222q110 81 284 81q192 0 302 -96zM840 504h-363
q-137 0 -213 -57t-76 -160q0 -95 74 -152t201 -57q174 0 273 90t104 238v98zM356 1440q0 -78 48 -128t124 -50q77 0 127 50t50 128h83q-1 -116 -74 -189q-71 -71 -188 -71q-113 0 -182 70q-71 72 -72 190h84z" />
    <glyph glyph-name="acircumflex.ss01" horiz-adv-x="1202" 
d="M1079 1038v-1038h-90l-16 238q-51 -112 -154 -182q-101 -68 -241 -68q-144 0 -253 65q-111 66 -174 186t-63 281q0 153 63 275q62 120 174 188t253 68q139 0 243 -67q102 -66 152 -179l16 233h90zM790 137q88 55 138 155q49 98 49 226t-49 227q-49 100 -138 157
q-87 56 -204 56t-204 -56q-88 -57 -138 -156q-49 -98 -49 -226t49 -227q50 -101 138 -156t204 -55t204 55zM586 1370l-209 -203h-103l261 273h102l260 -273h-104z" />
    <glyph glyph-name="acircumflex.ss02" horiz-adv-x="1054" 
d="M837 955q107 -94 107 -267v-688h-90l-10 203q-50 -97 -148 -157q-95 -58 -241 -58q-169 0 -272 80q-101 79 -101 215q0 149 105 230t300 81h353v100q0 124 -82 194t-228 70q-124 0 -204 -57t-101 -153h-104q21 141 130 222q110 81 284 81q192 0 302 -96zM840 504h-363
q-137 0 -213 -57t-76 -160q0 -95 74 -152t201 -57q174 0 273 90t104 238v98zM530 1370l-208 -203h-103l260 273h103l260 -273h-105z" />
    <glyph glyph-name="adieresis.ss01" horiz-adv-x="1202" 
d="M1079 1038v-1038h-90l-16 238q-51 -112 -154 -182q-101 -68 -241 -68q-144 0 -253 65q-111 66 -174 186t-63 281q0 153 63 275q62 120 174 188t253 68q139 0 243 -67q102 -66 152 -179l16 233h90zM790 137q88 55 138 155q49 98 49 226t-49 227q-49 100 -138 157
q-87 56 -204 56t-204 -56q-88 -57 -138 -156q-49 -98 -49 -226t49 -227q50 -101 138 -156t204 -55t204 55zM362 1376q21 21 52 21q32 0 53 -21q20 -20 20 -51t-20 -51q-21 -21 -53 -21q-31 0 -52 21q-20 20 -20 51t20 51zM706 1376q21 21 52 21q30 0 51 -21q20 -20 20 -51
t-20 -51q-21 -21 -51 -21q-31 0 -52 21q-22 22 -22 51t22 51z" />
    <glyph glyph-name="adieresis.ss02" horiz-adv-x="1054" 
d="M837 955q107 -94 107 -267v-688h-90l-10 203q-50 -97 -148 -157q-95 -58 -241 -58q-169 0 -272 80q-101 79 -101 215q0 149 105 230t300 81h353v100q0 124 -82 194t-228 70q-124 0 -204 -57t-101 -153h-104q21 141 130 222q110 81 284 81q192 0 302 -96zM840 504h-363
q-137 0 -213 -57t-76 -160q0 -95 74 -152t201 -57q174 0 273 90t104 238v98zM307 1376q21 21 51 21q33 0 54 -21q20 -20 20 -51t-20 -51q-21 -21 -54 -21q-30 0 -51 21q-20 20 -20 51t20 51zM650 1376q21 21 52 21t52 -21q20 -20 20 -51t-20 -51q-21 -21 -52 -21t-52 21
t-21 51t21 51z" />
    <glyph glyph-name="agrave.ss01" horiz-adv-x="1202" 
d="M1079 1038v-1038h-90l-16 238q-51 -112 -154 -182q-101 -68 -241 -68q-144 0 -253 65q-111 66 -174 186t-63 281q0 153 63 275q62 120 174 188t253 68q139 0 243 -67q102 -66 152 -179l16 233h90zM790 137q88 55 138 155q49 98 49 226t-49 227q-49 100 -138 157
q-87 56 -204 56t-204 -56q-88 -57 -138 -156q-49 -98 -49 -226t49 -227q50 -101 138 -156t204 -55t204 55zM319 1440h123l185 -271h-86z" />
    <glyph glyph-name="agrave.ss02" horiz-adv-x="1054" 
d="M837 955q107 -94 107 -267v-688h-90l-10 203q-50 -97 -148 -157q-95 -58 -241 -58q-169 0 -272 80q-101 79 -101 215q0 149 105 230t300 81h353v100q0 124 -82 194t-228 70q-124 0 -204 -57t-101 -153h-104q21 141 130 222q110 81 284 81q192 0 302 -96zM840 504h-363
q-137 0 -213 -57t-76 -160q0 -95 74 -152t201 -57q174 0 273 90t104 238v98zM264 1440h123l184 -271h-86z" />
    <glyph glyph-name="amacron.ss01" horiz-adv-x="1202" 
d="M1079 1038v-1038h-90l-16 238q-51 -112 -154 -182q-101 -68 -241 -68q-144 0 -253 65q-111 66 -174 186t-63 281q0 153 63 275q62 120 174 188t253 68q139 0 243 -67q102 -66 152 -179l16 233h90zM790 137q88 55 138 155q49 98 49 226t-49 227q-49 100 -138 157
q-87 56 -204 56t-204 -56q-88 -57 -138 -156q-49 -98 -49 -226t49 -227q50 -101 138 -156t204 -55t204 55zM324 1288v80h524v-80h-524z" />
    <glyph glyph-name="amacron.ss02" horiz-adv-x="1054" 
d="M837 955q107 -94 107 -267v-688h-90l-10 203q-50 -97 -148 -157q-95 -58 -241 -58q-169 0 -272 80q-101 79 -101 215q0 149 105 230t300 81h353v100q0 124 -82 194t-228 70q-124 0 -204 -57t-101 -153h-104q21 141 130 222q110 81 284 81q192 0 302 -96zM840 504h-363
q-137 0 -213 -57t-76 -160q0 -95 74 -152t201 -57q174 0 273 90t104 238v98zM268 1288v80h525v-80h-525z" />
    <glyph glyph-name="aogonek.ss01" horiz-adv-x="1202" 
d="M1096 -332v-78h-142q-87 0 -136 43q-50 44 -50 117q0 77 56 137q58 63 163 138l-14 213q-51 -112 -154 -182q-101 -68 -241 -68q-144 0 -253 65q-111 66 -174 186t-63 281q0 153 63 275q62 120 174 188t253 68q139 0 243 -67q102 -66 152 -179l16 233h90v-1038
q-106 -66 -167 -122q-56 -52 -56 -114q0 -44 31 -70t84 -26h125zM790 137q88 55 138 155q49 98 49 226t-49 227q-49 100 -138 157q-87 56 -204 56t-204 -56q-88 -57 -138 -156q-49 -98 -49 -226t49 -227q50 -101 138 -156t204 -55t204 55z" />
    <glyph glyph-name="aogonek.ss02" horiz-adv-x="1054" 
d="M963 -332v-78h-142q-87 0 -136 43q-50 44 -50 117q0 77 56 137q61 66 161 136l-8 180q-50 -97 -148 -157q-95 -58 -241 -58q-169 0 -272 80q-101 79 -101 215q0 149 105 230t300 81h353v100q0 124 -82 194t-228 70q-124 0 -204 -57t-101 -153h-104q21 141 130 222
q110 81 284 81q192 0 302 -96q107 -94 107 -267v-688h2q-106 -66 -167 -122q-56 -52 -56 -114q0 -44 31 -70t84 -26h125zM840 504h-363q-137 0 -213 -57t-76 -160q0 -95 74 -152t201 -57q174 0 273 90t104 238v98z" />
    <glyph glyph-name="aring.ss01" horiz-adv-x="1202" 
d="M1079 1038v-1038h-90l-16 238q-51 -112 -154 -182q-101 -68 -241 -68q-144 0 -253 65q-111 66 -174 186t-63 281q0 153 63 275q62 120 174 188t253 68q139 0 243 -67q102 -66 152 -179l16 233h90zM790 137q88 55 138 155q49 98 49 226t-49 227q-49 100 -138 157
q-87 56 -204 56t-204 -56q-88 -57 -138 -156q-49 -98 -49 -226t49 -227q50 -101 138 -156t204 -55t204 55zM425 1524q65 65 161 65q95 0 160 -65q67 -67 67 -158t-67 -158q-65 -65 -160 -65q-96 0 -161 65q-67 67 -67 158t67 158zM697 1480q-46 46 -111 46q-66 0 -112 -46
t-46 -114t46 -114t112 -46q65 0 111 46t46 114t-46 114z" />
    <glyph glyph-name="aring.ss02" horiz-adv-x="1054" 
d="M837 955q107 -94 107 -267v-688h-90l-10 203q-50 -97 -148 -157q-95 -58 -241 -58q-169 0 -272 80q-101 79 -101 215q0 149 105 230t300 81h353v100q0 124 -82 194t-228 70q-124 0 -204 -57t-101 -153h-104q21 141 130 222q110 81 284 81q192 0 302 -96zM840 504h-363
q-137 0 -213 -57t-76 -160q0 -95 74 -152t201 -57q174 0 273 90t104 238v98zM370 1524q65 65 160 65q96 0 161 -65q67 -67 67 -158t-67 -158q-65 -65 -161 -65q-95 0 -160 65q-67 67 -67 158t67 158zM642 1480q-46 46 -112 46q-65 0 -111 -46t-46 -114t46 -114t111 -46
q66 0 112 46t46 114t-46 114z" />
    <glyph glyph-name="atilde.ss01" horiz-adv-x="1202" 
d="M1079 1038v-1038h-90l-16 238q-51 -112 -154 -182q-101 -68 -241 -68q-144 0 -253 65q-111 66 -174 186t-63 281q0 153 63 275q62 120 174 188t253 68q139 0 243 -67q102 -66 152 -179l16 233h90zM790 137q88 55 138 155q49 98 49 226t-49 227q-49 100 -138 157
q-87 56 -204 56t-204 -56q-88 -57 -138 -156q-49 -98 -49 -226t49 -227q50 -101 138 -156t204 -55t204 55zM411 1318q-22 -33 -22 -77h-67v16q0 73 39 118q40 46 110 46q49 0 76 -17q30 -19 59 -48q27 -27 45 -39t47 -12q41 0 62 31q20 30 20 75h70v-14q0 -72 -40 -118
t-110 -46q-48 0 -74 16q-31 19 -61 49q-27 27 -45 39q-20 13 -47 13q-41 0 -62 -32z" />
    <glyph glyph-name="atilde.ss02" horiz-adv-x="1054" 
d="M837 955q107 -94 107 -267v-688h-90l-10 203q-50 -97 -148 -157q-95 -58 -241 -58q-169 0 -272 80q-101 79 -101 215q0 149 105 230t300 81h353v100q0 124 -82 194t-228 70q-124 0 -204 -57t-101 -153h-104q21 141 130 222q110 81 284 81q192 0 302 -96zM840 504h-363
q-137 0 -213 -57t-76 -160q0 -95 74 -152t201 -57q174 0 273 90t104 238v98zM355 1318q-21 -32 -21 -77h-68v16q0 72 40 118t110 46q49 0 76 -17q30 -19 59 -48q27 -27 45 -39t47 -12q41 0 62 31q20 30 20 75h70v-14q0 -72 -40 -118t-110 -46q-49 0 -75 16q-28 17 -60 49
q-27 27 -45 39q-19 13 -47 13q-42 0 -63 -32z" />
    <glyph glyph-name="f.calt" horiz-adv-x="532" 
d="M180 1375q57 59 185 59h176v-97h-170q-79 0 -111 -32q-33 -33 -33 -111v-156h312v-96h-312v-942h-104v1192q0 124 57 183z" />
    <glyph glyph-name="i.ss03" horiz-adv-x="395" 
d="M273 1399q22 -22 22 -53q0 -32 -22 -54q-20 -20 -52 -20q-33 0 -53 20q-21 21 -21 54q0 32 21 53q20 20 53 20q32 0 52 -20zM168 942h-162v96h266v-1038h-104v942z" />
    <glyph glyph-name="dotlessi.ss03" horiz-adv-x="395" 
d="M6 1038h266v-1038h-104v942h-162v96z" />
    <glyph glyph-name="iacute.ss03" horiz-adv-x="395" 
d="M6 1038h266v-1038h-104v942h-162v96zM178 1169l187 271h122l-225 -271h-84z" />
    <glyph glyph-name="ibreve.ss03" horiz-adv-x="395" 
d="M6 1038h266v-1038h-104v942h-162v96zM43 1440q0 -78 48 -128t124 -50q77 0 127 50q49 49 49 128h84q-1 -115 -75 -189q-71 -71 -187 -71q-113 0 -182 70q-71 72 -72 190h84z" />
    <glyph glyph-name="icircumflex.ss03" horiz-adv-x="395" 
d="M6 1038h266v-1038h-104v942h-162v96zM217 1370l-209 -203h-102l260 273h102l260 -273h-104z" />
    <glyph glyph-name="idieresis.ss03" horiz-adv-x="395" 
d="M6 1038h266v-1038h-104v942h-162v96zM-6 1376q21 21 51 21q32 0 53 -21t21 -51t-21 -51t-53 -21q-30 0 -51 21t-21 51t21 51zM337 1376q21 21 52 21q30 0 51 -21t21 -51t-21 -51t-51 -21q-31 0 -52 21q-22 22 -22 51t22 51z" />
    <glyph glyph-name="i.loclTRK" horiz-adv-x="350" 
d="M123 1038h104v-1038h-104v1038zM125 1400q20 19 51 19t51 -19q21 -20 21 -50q0 -31 -21 -52q-20 -20 -51 -20t-51 20q-21 21 -21 52q0 30 21 50z" />
    <glyph glyph-name="i.loclTRK.ss03" horiz-adv-x="395" 
d="M6 1038h266v-1038h-104v942h-162v96zM166 1400q20 19 51 19t51 -19q21 -20 21 -50q0 -31 -21 -52q-20 -20 -51 -20t-51 20q-21 21 -21 52q0 30 21 50z" />
    <glyph glyph-name="igrave.ss03" horiz-adv-x="395" 
d="M6 1038h266v-1038h-104v942h-162v96zM-49 1440h123l184 -271h-86z" />
    <glyph glyph-name="ij.ss03" horiz-adv-x="749" 
d="M227 1399q21 -21 21 -53q0 -33 -21 -54q-20 -20 -53 -20q-32 0 -52 20q-22 22 -22 54q0 31 22 53q20 20 52 20q33 0 53 -20zM123 1038h104v-1038h-104v1038zM522 1399q20 20 53 20q32 0 52 -20t20 -53q0 -34 -20 -54t-52 -20q-33 0 -53 20t-20 54q0 33 20 53zM379 -313
q78 0 110 32q33 33 33 111v1112h-164v96h269v-1206q0 -123 -58 -183q-57 -59 -184 -59h-145v97h139z" />
    <glyph glyph-name="ij.ss04" horiz-adv-x="700" 
d="M227 1399q21 -21 21 -53q0 -33 -21 -54q-20 -20 -53 -20q-32 0 -52 20q-22 22 -22 54q0 31 22 53q20 20 52 20q33 0 53 -20zM123 1038h104v-1038h-104v1038zM472 1399q20 20 52 20q34 0 54 -20t20 -53q0 -34 -20 -54t-54 -20q-32 0 -52 20q-21 21 -21 54q0 32 21 53z
M473 1038h105v-1448h-105v1448z" />
    <glyph glyph-name="imacron.ss01" horiz-adv-x="395" 
d="M6 1038h266v-1038h-104v942h-162v96zM-45 1288v80h524v-80h-524z" />
    <glyph glyph-name="iogonek.ss03" horiz-adv-x="395" 
d="M168 1292q-21 21 -21 54q0 32 21 53q20 20 53 20q32 0 52 -20q22 -22 22 -53q0 -32 -22 -54q-20 -20 -52 -20q-33 0 -53 20zM82 -306q31 -26 84 -26h125v-78h-141q-88 0 -137 43q-50 44 -50 117t53 134q54 62 152 130v928h-162v96h266v-1038h2q-103 -64 -166 -122
q-57 -52 -57 -114q0 -44 31 -70z" />
    <glyph glyph-name="itilde.ss03" horiz-adv-x="395" 
d="M6 1038h266v-1038h-104v942h-162v96zM42 1318q-22 -33 -22 -77h-67v16q0 72 40 118t109 46q49 0 76 -17q33 -21 60 -48t45 -39t47 -12q40 0 61 31q21 32 21 75h69v-14q0 -72 -40 -118t-109 -46q-49 0 -75 16q-28 17 -60 49q-27 27 -45 39q-20 13 -48 13q-41 0 -62 -32z
" />
    <glyph glyph-name="j.short" horiz-adv-x="362" 
d="M134 1399q20 20 52 20q34 0 54 -20t20 -53q0 -34 -20 -54t-54 -20q-32 0 -52 20q-21 21 -21 54q0 32 21 53zM-8 -313q78 0 110 32q33 33 33 111v1208h105v-1206q0 -123 -58 -183q-57 -59 -186 -59h-59v97h55z" />
    <glyph glyph-name="j.ss03" horiz-adv-x="399" 
d="M172 1399q20 20 53 20q31 0 51 -20q21 -21 21 -53q0 -33 -21 -54q-20 -20 -51 -20q-33 0 -53 20t-20 54q0 33 20 53zM29 -313q78 0 110 32q33 33 33 111v1112h-164v96h268v-1206q0 -124 -57 -183t-184 -59h-146v97h140z" />
    <glyph glyph-name="j.ss04" horiz-adv-x="350" 
d="M122 1399q20 20 52 20q33 0 53 -20q21 -21 21 -53q0 -33 -21 -54q-20 -20 -53 -20q-32 0 -52 20q-22 22 -22 54q0 31 22 53zM123 1038h104v-1448h-104v1448z" />
    <glyph glyph-name="uni0237.short" horiz-adv-x="362" 
d="M-8 -313q78 0 110 32q33 33 33 111v1208h105v-1206q0 -123 -58 -183q-57 -59 -186 -59h-59v97h55z" />
    <glyph glyph-name="uni0237.ss03" horiz-adv-x="399" 
d="M29 -313q78 0 110 32q33 33 33 111v1112h-164v96h268v-1206q0 -124 -57 -183t-184 -59h-146v97h140z" />
    <glyph glyph-name="uni0237.ss04" horiz-adv-x="350" 
d="M123 1038h104v-1448h-104v1448z" />
    <glyph glyph-name="jcircumflex.short" horiz-adv-x="362" 
d="M-8 -313q78 0 110 32q33 33 33 111v1208h105v-1206q0 -123 -58 -183q-57 -59 -186 -59h-59v97h55zM188 1370l-208 -203h-103l260 273h103l260 -273h-105z" />
    <glyph glyph-name="jcircumflex.ss03" horiz-adv-x="399" 
d="M29 -313q78 0 110 32q33 33 33 111v1112h-164v96h268v-1206q0 -124 -57 -183t-184 -59h-146v97h140zM225 1370l-209 -203h-102l260 273h102l261 -273h-105z" />
    <glyph glyph-name="jcircumflex.ss04" horiz-adv-x="350" 
d="M123 1038h104v-1448h-104v1448zM176 1370l-209 -203h-102l260 273h102l260 -273h-104z" />
    <glyph glyph-name="t.calt" horiz-adv-x="542" 
d="M123 1329h104v-291h277v-96h-277v-698q0 -80 33 -114t111 -34h151v-96h-157q-131 0 -187 57q-55 56 -55 185v1087z" />
    <glyph glyph-name="t.ss05" horiz-adv-x="591" 
d="M-4 1038h199v291h104v-291h272v-96h-272v-942h-104v942h-199v96z" />
    <glyph glyph-name="tbar.calt" horiz-adv-x="542" 
d="M227 942v-311h277v-90h-277v-297q0 -80 33 -114t111 -34h151v-96h-157q-131 0 -187 57q-55 56 -55 185v1087h104v-291h277v-96h-277z" />
    <glyph glyph-name="tbar.ss05" horiz-adv-x="616" 
d="M580 942h-273v-319h273v-91h-273v-532h-104v532h-199v91h199v319h-199v96h199v291h104v-291h273v-96z" />
    <glyph glyph-name="tcaron.calt" horiz-adv-x="542" 
d="M123 1329h104v-291h277v-96h-277v-698q0 -80 33 -114t111 -34h151v-96h-157q-131 0 -187 57q-55 56 -55 185v1087zM426 1458h100l-108 -297h-78z" />
    <glyph glyph-name="tcaron.ss05" horiz-adv-x="591" 
d="M-4 1038h199v291h104v-291h272v-96h-272v-942h-104v942h-199v96zM502 1444h100l-108 -297h-78z" />
    <glyph glyph-name="uni0163.calt" horiz-adv-x="542" 
d="M123 1329h104v-291h277v-96h-277v-698q0 -80 33 -114t111 -34h151v-96h-157q-131 0 -187 57q-55 56 -55 185v1087zM258 -109h102l-120 -288h-78z" />
    <glyph glyph-name="uni0163.ss05" horiz-adv-x="591" 
d="M-4 1038h199v291h104v-291h272v-96h-272v-942h-104v942h-199v96zM193 -109h102l-121 -288h-78z" />
    <glyph glyph-name="uni021B.calt" horiz-adv-x="542" 
d="M123 1329h104v-291h277v-96h-277v-698q0 -80 33 -114t111 -34h151v-96h-157q-131 0 -187 57q-55 56 -55 185v1087zM258 -109h102l-120 -288h-78z" />
    <glyph glyph-name="uni021B.ss05" horiz-adv-x="591" 
d="M-4 1038h199v291h104v-291h272v-96h-272v-942h-104v942h-199v96zM193 -109h102l-121 -288h-78z" />
    <glyph glyph-name="y.ss01" horiz-adv-x="1103" 
d="M981 1038v-1020q0 -208 -113 -324t-336 -116q-180 0 -290 85t-131 245h108q23 -114 106 -175q84 -61 216 -61q162 0 249 89q87 88 87 257v224q-47 -117 -139 -184q-92 -66 -224 -66q-182 0 -292 114q-109 113 -109 347v585h104v-579q0 -178 83 -275q82 -96 230 -96
q160 0 253 120q94 121 94 320v510h104z" />
    <glyph glyph-name="yacute.ss01" horiz-adv-x="1103" 
d="M981 1038v-1020q0 -208 -113 -324t-336 -116q-180 0 -290 85t-131 245h108q23 -114 106 -175q84 -61 216 -61q162 0 249 89q87 88 87 257v224q-47 -117 -139 -184q-92 -66 -224 -66q-182 0 -292 114q-109 113 -109 347v585h104v-579q0 -178 83 -275q82 -96 230 -96
q160 0 253 120q94 121 94 320v510h104zM508 1169l186 271h123l-225 -271h-84z" />
    <glyph glyph-name="ycircumflex.ss01" horiz-adv-x="1103" 
d="M981 1038v-1020q0 -208 -113 -324t-336 -116q-180 0 -290 85t-131 245h108q23 -114 106 -175q84 -61 216 -61q162 0 249 89q87 88 87 257v224q-47 -117 -139 -184q-92 -66 -224 -66q-182 0 -292 114q-109 113 -109 347v585h104v-579q0 -178 83 -275q82 -96 230 -96
q160 0 253 120q94 121 94 320v510h104zM547 1370l-209 -203h-102l260 273h102l260 -273h-104z" />
    <glyph glyph-name="ydieresis.ss01" horiz-adv-x="1103" 
d="M981 1038v-1020q0 -208 -113 -324t-336 -116q-180 0 -290 85t-131 245h108q23 -114 106 -175q84 -61 216 -61q162 0 249 89q87 88 87 257v224q-47 -117 -139 -184q-92 -66 -224 -66q-182 0 -292 114q-109 113 -109 347v585h104v-579q0 -178 83 -275q82 -96 230 -96
q160 0 253 120q94 121 94 320v510h104zM324 1376q21 21 51 21q32 0 53 -21t21 -51t-21 -51t-53 -21q-30 0 -51 21t-21 51t21 51zM667 1376q21 21 52 21q30 0 51 -21t21 -51t-21 -51t-51 -21q-31 0 -52 21q-22 22 -22 51t22 51z" />
    <glyph glyph-name="ygrave.ss01" horiz-adv-x="1103" 
d="M981 1038v-1020q0 -208 -113 -324t-336 -116q-180 0 -290 85t-131 245h108q23 -114 106 -175q84 -61 216 -61q162 0 249 89q87 88 87 257v224q-47 -117 -139 -184q-92 -66 -224 -66q-182 0 -292 114q-109 113 -109 347v585h104v-579q0 -178 83 -275q82 -96 230 -96
q160 0 253 120q94 121 94 320v510h104zM281 1440h122l185 -271h-86z" />
    <glyph glyph-name="w_w_w" horiz-adv-x="4472" 
d="M4344 1038h106l-368 -1038h-113l-293 872l-305 -872l-115 -2l-301 889l-315 -887h-113l-293 872l-305 -872l-114 -2l-302 887l-313 -885h-113l-292 872l-306 -872l-114 -2l-352 1040h110l303 -913l314 913h98l295 -913l319 913h111l303 -913l313 913h99l295 -913l319 913
h113l303 -913l313 913h98l295 -913z" />
    <glyph glyph-name="zero.osf" horiz-adv-x="1255" 
d="M168 790q69 122 191 191q123 70 270 70q146 0 269 -70t192 -191t69 -270q0 -150 -69 -271q-70 -122 -192 -192q-122 -69 -269 -69q-148 0 -270 69q-121 69 -191 192t-70 271q0 147 70 270zM996 741q-58 101 -152 159q-95 58 -215 58t-215 -58q-96 -58 -153 -159
q-56 -99 -56 -221t56 -221q57 -101 153 -159q95 -58 215 -58q117 0 214 58q95 57 153 159q57 101 57 221t-57 221z" />
    <glyph glyph-name="one.osf" horiz-adv-x="546" 
d="M205 768q46 0 70 29t24 80v161h102v-1038h-104v702q-33 -30 -92 -30h-199v96h199z" />
    <glyph glyph-name="two.osf" horiz-adv-x="1028" 
d="M942 92v-92h-866v88l473 301q132 83 193 153t61 167q0 112 -83 181q-81 68 -216 68q-138 0 -224 -80q-87 -81 -87 -210v-31h-107v31q0 111 52 197t149 136t219 50q121 0 211 -43q92 -44 143 -120t51 -177q0 -112 -65 -193t-205 -170l-405 -256h706z" />
    <glyph glyph-name="three.osf" horiz-adv-x="1146" 
d="M956 242q91 -86 91 -230q0 -114 -62 -205q-61 -89 -171 -139q-108 -49 -253 -49q-224 0 -356 115t-133 315h104q1 -159 106 -248q103 -88 279 -88q167 0 273 84t106 221q0 130 -104 203q-106 74 -279 74h-106v96h100q163 0 258 79q96 80 96 200q0 129 -95 207
q-93 77 -245 77q-157 0 -254 -83q-96 -83 -98 -220h-104q0 119 57 209q57 89 162 139q106 50 239 50q130 0 234 -48q98 -45 155 -130q56 -83 56 -189q0 -132 -82 -221q-83 -91 -223 -113q160 -21 249 -106z" />
    <glyph glyph-name="four.osf" horiz-adv-x="1177" 
d="M780 1038h129v-942h232v-96h-232v-369h-102v369h-754v96zM807 926l-637 -830h637v830z" />
    <glyph glyph-name="five.osf" horiz-adv-x="1179" 
d="M865 501q104 -60 161 -168t57 -243q0 -150 -64 -256q-65 -107 -174 -161t-241 -54q-142 0 -248 58t-166 156q-59 97 -67 216h106q7 -88 56 -168q46 -75 129 -122q82 -46 190 -46q100 0 186 45q85 45 136 130q51 86 51 202q0 110 -46 195q-47 86 -131 135q-85 49 -196 49
q-125 0 -215 -59q-92 -60 -137 -168l-105 4l52 792h796v-98h-702l-41 -567q51 89 150 139q98 49 225 49q135 0 238 -60z" />
    <glyph glyph-name="six.osf" horiz-adv-x="1200" 
d="M936 1317q114 -105 141 -277h-104q-28 128 -114 208q-85 79 -228 79q-214 0 -322 -163q-108 -164 -108 -435q0 -94 18 -184q5 52 8 63q30 142 147 229q115 85 275 85q135 0 237 -60q101 -59 155 -165q55 -107 55 -240q0 -137 -60 -244t-167 -166q-106 -59 -246 -59
q-141 0 -243 62q-105 64 -167 175q-52 97 -80 221q-29 130 -29 265q0 321 135 517q133 193 394 193q190 0 303 -104zM439 783q-85 -47 -132 -129q-47 -83 -47 -189q0 -173 100 -279t265 -106q164 0 264 103t100 272q0 167 -96 271q-96 103 -260 103q-109 0 -194 -46z" />
    <glyph glyph-name="seven.osf" horiz-adv-x="1019" 
d="M33 1038h930v-92l-687 -1315h-116l686 1311h-813v96z" />
    <glyph glyph-name="eight.osf" horiz-adv-x="1193" 
d="M1005 606q91 -94 91 -237q0 -110 -62 -198q-62 -87 -174 -135t-262 -48q-152 0 -264 48t-174 135q-62 88 -62 198q0 141 91 235t237 121q-126 30 -207 117q-80 86 -80 215q0 107 57 189q58 84 160 129q104 46 242 46q139 0 241 -46q101 -46 159 -129q57 -82 57 -189
q0 -125 -81 -212q-82 -88 -204 -118q144 -27 235 -121zM344 854q99 -78 254 -78q153 0 252 78q98 77 98 203q0 122 -98 201t-252 79q-156 0 -254 -77t-98 -203t98 -203zM799 113q92 40 140 107q50 70 50 157q0 86 -51 155t-140 110q-87 40 -200 40q-114 0 -203 -40
q-92 -42 -140 -108q-50 -70 -50 -157t50 -157q48 -67 140 -107q90 -39 203 -39q111 0 201 39z" />
    <glyph glyph-name="nine.osf" horiz-adv-x="1200" 
d="M1067 595q29 -128 29 -263q0 -322 -134 -518q-134 -195 -395 -195q-189 0 -303 105q-115 106 -143 278h104q28 -129 115 -210q85 -79 229 -79q216 0 324 164q108 163 108 436q0 105 -20 185q-2 -35 -12 -68q-29 -141 -145 -225q-113 -82 -273 -82q-136 0 -237 58
q-100 57 -155 164t-55 241t60 241t167 165q109 59 247 59t242 -62t167 -176q52 -93 80 -218zM306 317q98 -102 261 -102q167 0 270 103t103 268q0 166 -100 269t-267 103q-164 0 -264 -103t-100 -269q0 -168 97 -269z" />
    <glyph glyph-name="one.osf.ss08" horiz-adv-x="1228" 
d="M1102 90v-90h-934v90h407v619q-33 -33 -92 -33h-270v86h270q47 0 71 29t24 77v170h102v-948h422z" />
    <glyph glyph-name="seven.osf.ss08" horiz-adv-x="1087" 
d="M82 1038h948v-92l-686 -1315h-115l684 1311h-739v-283h-92v379z" />
    <glyph glyph-name="four.osf.ss09" horiz-adv-x="1062" 
d="M780 1038h135v-1407h-106v369h-756v96zM809 926l-639 -830h639v830z" />
    <glyph glyph-name="zero.osf.zero" horiz-adv-x="1255" 
d="M898 981q123 -70 192 -191t69 -270q0 -150 -69 -271q-70 -122 -192 -192q-122 -69 -269 -69q-148 0 -270 69q-121 69 -191 192t-70 271q0 147 70 270q69 122 191 191q123 70 270 70q146 0 269 -70zM414 900q-96 -58 -153 -159q-56 -99 -56 -221q0 -159 94 -280l606 616
q-56 48 -128 76q-68 26 -148 26q-120 0 -215 -58zM843 140q95 57 153 159q57 101 57 221q0 163 -97 283l-604 -619q54 -46 128 -75q70 -27 149 -27q117 0 214 58z" />
    <glyph glyph-name="one.ss08" horiz-adv-x="1056" 
d="M983 98v-98h-915v98h413v967q-27 -29 -82 -29h-256v97h246q47 0 71 28q23 27 23 80v193h105v-1336h395z" />
    <glyph glyph-name="seven.ss08" horiz-adv-x="1134" 
d="M1079 1434v-78l-735 -1356h-115l734 1335h-781v-282h-90v381h987z" />
    <glyph glyph-name="four.ss09" horiz-adv-x="1118" 
d="M803 1434h133v-1434h-107v375h-780v98zM829 1319l-661 -846h661v846z" />
    <glyph glyph-name="zero.tf" horiz-adv-x="1228" 
d="M111 752q0 203 61 361t176 247q113 88 266 88q154 0 267 -88q115 -89 176 -247t61 -361v-66q0 -203 -61 -361t-176 -247q-113 -88 -267 -88q-153 0 -266 88q-115 89 -176 247t-61 361v66zM1014 748q0 178 -49 313q-50 137 -140 214q-91 77 -211 77t-211 -77
q-89 -75 -139 -214q-49 -135 -49 -313v-58q0 -177 49 -312q50 -137 139 -213q91 -77 211 -77t211 77t140 213q49 135 49 312v58z" />
    <glyph glyph-name="one.tf" horiz-adv-x="1228" 
d="M1100 98v-98h-916v98h414v967q-27 -29 -82 -29h-256v97h246q47 0 71 28q23 27 23 80v193h105v-1336h395z" />
    <glyph glyph-name="two.tf" horiz-adv-x="1228" 
d="M674 598q82 73 143 138q53 56 92 132q37 73 37 158q0 152 -96 239t-260 87q-160 0 -256 -98t-96 -263v-28h-107v34q0 136 56 236q57 103 161 159q103 56 242 56q217 0 342 -113t125 -303q0 -100 -41 -187q-40 -85 -104 -152q-67 -70 -169 -165l-477 -430h807v-98h-954v92
z" />
    <glyph glyph-name="three.tf" horiz-adv-x="1228" 
d="M1015 629q97 -90 97 -240q0 -117 -63 -208q-62 -89 -179 -142q-114 -51 -262 -51q-227 0 -363 115t-136 317h108q1 -155 111 -246q108 -90 286 -90q112 0 199 40q90 41 138 110q50 71 50 161q0 138 -106 214q-107 77 -295 77h-111v92h105q171 0 271 83t100 212
q0 123 -99 200q-100 77 -254 77q-159 0 -258 -81t-100 -220h-107q1 186 128 291q127 106 333 106q142 0 246 -46q105 -47 162 -130q57 -84 57 -193q0 -136 -82 -225q-84 -91 -223 -115q149 -18 247 -108z" />
    <glyph glyph-name="four.tf" horiz-adv-x="1228" 
d="M59 473l746 961h127v-959h244v-98h-244v-377h-109v377h-764v96zM174 475h649v836z" />
    <glyph glyph-name="five.tf" horiz-adv-x="1228" 
d="M891 889q104 -61 163 -170q58 -107 58 -246q0 -151 -66 -261q-65 -107 -179 -166q-109 -56 -242 -56q-147 0 -254 58q-109 59 -169 159q-62 103 -69 221h107q15 -146 116 -244t269 -98q99 0 187 44q86 43 139 132t53 209q0 109 -46 198q-45 87 -130 136t-195 49
q-115 0 -218 -54t-147 -171l-104 4l51 801h805v-99h-707l-41 -573q62 94 165 141q105 47 214 47q136 0 240 -61z" />
    <glyph glyph-name="six.tf" horiz-adv-x="1228" 
d="M135 452q-26 121 -26 265q0 217 60 382q60 164 177 256q116 91 285 91q186 0 305 -105t147 -276h-108q-27 132 -115 209q-88 78 -233 78q-207 0 -317 -170q-109 -169 -109 -447q0 -98 20 -184q0 36 4 55q28 150 144 243q113 91 282 91q140 0 243 -59q107 -61 164 -167
q58 -107 58 -249q0 -138 -60 -246t-169 -170q-107 -61 -250 -61q-145 0 -253 63t-171 180q-51 94 -78 221zM910 740q-100 106 -267 106q-112 0 -198 -49q-87 -49 -135 -137q-48 -87 -48 -197q0 -170 104 -276q104 -105 271 -105q168 0 270 106q103 108 103 277t-100 275z
" />
    <glyph glyph-name="seven.tf" horiz-adv-x="1230" 
d="M121 1434h991v-78l-743 -1356h-117l743 1335h-874v99z" />
    <glyph glyph-name="eight.tf" horiz-adv-x="1228" 
d="M1017 617q97 -97 97 -242q0 -113 -61 -201q-61 -87 -175 -137q-113 -49 -266 -49q-150 0 -263 49q-114 50 -175 137q-61 88 -61 201q0 144 95 242q94 97 251 124q-134 22 -220 113q-85 89 -85 221q0 110 56 194q57 86 161 132q106 47 241 47q136 0 242 -47
q104 -46 161 -132q56 -84 56 -194q0 -129 -86 -221t-219 -113q154 -27 251 -124zM358 871q97 -78 254 -78q158 0 255 78q100 80 100 204t-100 203q-99 78 -255 78q-155 0 -254 -78q-98 -77 -98 -203q0 -125 98 -204zM815 116q91 38 141 106q52 70 52 157t-52 159
q-50 69 -141 110q-89 40 -203 40q-116 0 -203 -40q-92 -42 -140 -110q-50 -71 -50 -159q0 -87 50 -157q48 -67 141 -106q91 -38 202 -38q112 0 203 38z" />
    <glyph glyph-name="nine.tf" horiz-adv-x="1228" 
d="M1089 984q27 -124 27 -255q0 -350 -137 -546q-137 -195 -387 -195q-185 0 -310 102q-124 101 -151 283h107q29 -138 120 -214q92 -77 238 -77q202 0 313 163q112 164 113 451q2 95 -18 187q0 -33 -5 -58q-28 -148 -143 -240q-113 -91 -281 -91q-139 0 -242 59
q-107 61 -164 167q-58 107 -58 249q0 138 60 246q59 107 170 169q110 62 251 62q144 0 252 -66q109 -66 170 -180q49 -97 75 -216zM315 694q98 -104 267 -104q112 0 198 48t134 135q49 89 49 200q0 167 -102 272q-103 106 -267 107q-172 0 -275 -106q-102 -105 -102 -277
q0 -171 98 -275z" />
    <glyph glyph-name="seven.tf.ss08" horiz-adv-x="1228" 
d="M1108 1434v-78l-735 -1356h-115l733 1335h-780v-282h-90v381h987z" />
    <glyph glyph-name="four.tf.ss09" horiz-adv-x="1228" 
d="M856 1434h133v-1434h-106v375h-781v98zM883 1319l-662 -846h662v846z" />
    <glyph glyph-name="zero.tf.zero" horiz-adv-x="1228" 
d="M881 1360q115 -89 176 -247t61 -361v-66q0 -203 -61 -361t-176 -247q-113 -88 -267 -88q-153 0 -266 88q-115 89 -176 247t-61 361v66q0 203 61 361t176 247q113 88 266 88q154 0 267 -88zM215 690q0 -158 41 -287l684 717q-51 110 -134 171q-84 61 -192 61
q-120 0 -211 -77q-89 -75 -139 -214q-49 -135 -49 -313v-58zM1014 748q0 150 -39 284l-684 -719q53 -109 135 -167t188 -58q120 0 211 77t140 213q49 135 49 312v58z" />
    <glyph glyph-name="zero.tosf" horiz-adv-x="1228" 
d="M164 790q68 122 186 191q120 70 264 70q145 0 265 -70q118 -69 186 -191t68 -272q0 -147 -68 -269q-69 -124 -186 -192q-119 -69 -265 -69t-264 69q-117 68 -186 192q-68 122 -68 269q0 150 68 272zM973 739q-55 101 -150 159q-94 58 -209 58q-114 0 -208 -58t-150 -159
q-55 -100 -55 -221t55 -221q56 -101 150 -158q95 -57 208 -57q114 0 209 57q94 57 150 158q55 100 55 221t-55 221z" />
    <glyph glyph-name="one.tosf" horiz-adv-x="1228" 
d="M1102 90v-90h-934v90h407v619q-33 -33 -92 -33h-270v86h270q47 0 71 29t24 77v170h102v-948h422z" />
    <glyph glyph-name="two.tosf" horiz-adv-x="1228" 
d="M1057 92v-92h-867v88l474 301q132 83 193 153t61 167q0 112 -83 181q-81 68 -217 68q-138 0 -224 -80q-87 -81 -87 -210v-31h-106v31q0 111 52 197q52 87 148 136q97 50 220 50q120 0 210 -43q94 -45 144 -120q51 -76 51 -177q0 -112 -65 -193t-205 -170l-406 -256h707z
" />
    <glyph glyph-name="three.tosf" horiz-adv-x="1228" 
d="M1009 233q97 -90 97 -239q0 -115 -64 -208q-62 -90 -178 -142t-262 -52q-226 0 -363 116t-137 317h109q1 -155 111 -246q108 -90 286 -90q112 0 199 40q90 41 138 110q50 71 50 161q0 138 -106 214q-107 77 -295 77h-111v92h105q171 0 271 83q99 82 99 212q0 124 -98 200
t-254 76q-159 0 -258 -81t-100 -220h-107q2 187 128 292q127 106 333 106q142 0 246 -46q105 -46 162 -131q57 -84 57 -192q0 -136 -82 -225q-84 -91 -223 -115q148 -18 247 -109z" />
    <glyph glyph-name="four.tosf" horiz-adv-x="1228" 
d="M780 1038h129v-942h232v-96h-232v-369h-102v369h-754v96zM807 926l-637 -830h637v830z" />
    <glyph glyph-name="five.tosf" horiz-adv-x="1228" 
d="M882 503q103 -60 160 -168q58 -110 58 -243q0 -149 -65 -256t-174 -161t-240 -54q-142 0 -248 58t-166 156q-61 98 -68 216h107q7 -90 55 -168q46 -75 129 -122q82 -46 191 -46q99 0 185 45q85 45 136 130t51 202q0 110 -46 195q-47 86 -131 135q-85 49 -195 49
q-125 0 -215 -59q-94 -61 -138 -168l-104 4l51 792h797v-98h-703l-41 -567q50 89 151 139q98 49 224 49q135 0 239 -60z" />
    <glyph glyph-name="six.tosf" horiz-adv-x="1228" 
d="M950 1317q115 -106 142 -277h-105q-28 128 -114 208q-85 79 -228 79q-213 0 -321 -163q-109 -165 -109 -435q0 -94 18 -184q5 45 9 63q30 143 146 229q115 85 276 85q134 0 236 -60t156 -165t54 -240q0 -139 -59 -244q-60 -107 -167 -166q-106 -59 -247 -59t-243 62
q-105 64 -167 175q-52 97 -80 221q-28 125 -28 265q0 323 134 517q133 193 394 193q190 0 303 -104zM454 783q-86 -47 -132 -129q-48 -85 -48 -189q0 -172 101 -279q100 -106 264 -106t264 103q101 104 101 272q0 166 -97 271q-96 103 -260 103q-108 0 -193 -46z" />
    <glyph glyph-name="seven.tosf" horiz-adv-x="1228" 
d="M119 1038h930v-92l-687 -1315h-116l686 1311h-813v96z" />
    <glyph glyph-name="eight.tosf" horiz-adv-x="1228" 
d="M1023 606q91 -94 91 -237q0 -112 -61 -198q-61 -87 -174 -135t-263 -48q-152 0 -264 48t-174 135q-61 86 -61 198q0 141 91 235t236 121q-124 29 -206 117q-80 86 -80 215q0 108 56 189q57 83 161 129t241 46q139 0 241 -46q103 -46 160 -129q56 -81 56 -189
q0 -125 -81 -212q-82 -88 -204 -118q144 -27 235 -121zM362 854q99 -78 254 -78q153 0 252 78t99 203q0 121 -99 201q-98 79 -252 79q-156 0 -254 -77t-98 -203t98 -203zM817 113q92 40 140 107q51 71 51 157q0 85 -52 155q-51 69 -140 110q-87 40 -200 40t-202 -40
q-94 -42 -141 -108q-50 -70 -50 -157t50 -157q48 -67 141 -107q90 -39 202 -39q111 0 201 39z" />
    <glyph glyph-name="nine.tosf" horiz-adv-x="1228" 
d="M1081 595q29 -128 29 -263q0 -322 -134 -518q-134 -195 -394 -195q-189 0 -303 105q-116 107 -144 278h105q28 -130 114 -210q85 -79 230 -79q215 0 323 164q109 165 109 436q0 101 -21 185q-2 -35 -12 -68q-30 -142 -144 -225q-113 -82 -274 -82q-135 0 -236 58
q-102 58 -156 164q-54 105 -54 241t59 241q60 107 167 165q109 59 247 59q139 0 243 -62q102 -61 166 -176q52 -93 80 -218zM321 317q97 -102 261 -102q166 0 269 103t103 268q0 166 -100 269t-266 103q-164 0 -264 -103q-101 -104 -101 -269q0 -166 98 -269z" />
    <glyph glyph-name="seven.tosf.ss08" horiz-adv-x="1228" 
d="M125 1038h948v-92l-686 -1315h-115l684 1311h-739v-283h-92v379z" />
    <glyph glyph-name="four.tosf.ss09" horiz-adv-x="1228" 
d="M856 1040h133v-1433h-106v375h-781v98zM883 926l-662 -846h662v846z" />
    <glyph glyph-name="zero.tosf.zero" horiz-adv-x="1228" 
d="M879 981q118 -69 186 -191t68 -272q0 -147 -68 -269q-69 -124 -186 -192q-119 -69 -265 -69t-264 69q-117 68 -186 192q-68 122 -68 269q0 150 68 272t186 191q120 70 264 70q145 0 265 -70zM406 898q-94 -58 -150 -159q-55 -100 -55 -221q0 -156 88 -272l598 604
q-112 106 -273 106q-114 0 -208 -58zM824 139q96 58 150 158q54 101 54 221q0 160 -90 277l-598 -607q116 -106 274 -106q116 0 210 57z" />
    <glyph glyph-name="zero.zero" horiz-adv-x="1257" 
d="M895 1352q117 -88 180 -245q64 -158 64 -357v-66q0 -202 -64 -360q-63 -156 -179 -242t-267 -86q-152 0 -268 86t-179 242t-63 360v66q0 201 63 357q63 157 180 245q116 88 267 88q150 0 266 -88zM213 688q0 -167 43 -295l707 744q-54 102 -142 161q-87 58 -192 58
q-125 0 -219 -76q-95 -77 -146 -213q-51 -137 -51 -319v-60zM1044 748q0 166 -45 301l-708 -744q53 -108 140 -167q86 -58 198 -58q123 0 217 75q93 74 146 213q52 137 52 320v60z" />
    <glyph glyph-name="u1F10C.zero" horiz-adv-x="1652" 
d="M454 1357q-169 -96 -263 -262q-95 -167 -95 -372t95 -372q94 -166 263 -262q167 -95 371 -95q205 0 372 95t262 262t95 372t-95 372t-262 262t-372 95q-204 0 -371 -95zM1034 1000q78 -108 78 -277q0 -170 -78 -278q-77 -107 -209 -107q-131 0 -210 107q-78 106 -78 278
q0 171 78 277q79 108 210 108t209 -108zM671 948q-59 -89 -59 -225q0 -85 29 -160l344 373q-57 100 -160 100q-96 0 -154 -88zM979 498q57 88 57 225q0 92 -28 160l-344 -373q60 -100 161 -100q97 0 154 88z" />
    <glyph glyph-name="u1F10B.zero" horiz-adv-x="1662" 
d="M1203 1350q165 -95 264 -264q98 -167 98 -369q0 -203 -98 -370t-264 -263q-167 -96 -372 -96q-204 0 -372 96q-167 95 -265 263q-98 167 -98 370q0 202 98 369q99 169 265 264q168 96 372 96q205 0 372 -96zM498 1289q-151 -87 -236 -237q-86 -151 -86 -335t86 -335
t236 -238t333 -87t333 87q151 88 237 238q86 151 86 335t-86 335q-85 149 -237 237q-150 87 -333 87t-333 -87zM1040 994q78 -108 78 -277q0 -170 -78 -278q-77 -107 -209 -107q-130 0 -209 107t-79 278q0 170 79 277q80 108 209 108q131 0 209 -108zM677 942
q-59 -89 -59 -225q0 -85 29 -160l344 373q-57 100 -160 100q-96 0 -154 -88zM985 492q57 88 57 225q0 92 -28 160l-344 -373q60 -101 161 -101q97 0 154 89z" />
    <glyph glyph-name="zero.dnom" horiz-adv-x="690" 
d="M136 650q80 108 210 108q131 0 209 -108t78 -277q0 -170 -78 -278q-77 -107 -209 -107q-131 0 -210 107t-79 278q0 170 79 277zM500 598q-57 88 -154 88t-155 -88t-58 -225q0 -138 58 -226t155 -88t154 88t57 226q0 137 -57 225z" />
    <glyph glyph-name="one.dnom" horiz-adv-x="344" 
d="M178 0v526q-8 -18 -37 -18h-141v72h141q17 0 28 14t11 33v118h72v-745h-74z" />
    <glyph glyph-name="two.dnom" horiz-adv-x="634" 
d="M63 516q0 110 72 176t180 66q115 0 185 -62q69 -62 69 -159q0 -76 -39 -131q-41 -58 -112 -119l-252 -215h412v-72h-523v70l307 256q67 56 98 102q32 47 32 107q0 66 -49 109q-48 42 -126 42q-82 0 -131 -46t-49 -128v-12h-74v16z" />
    <glyph glyph-name="three.dnom" horiz-adv-x="653" 
d="M143 698q69 60 183 60q113 0 182 -57q70 -58 70 -146q0 -65 -41 -109q-40 -43 -107 -55q78 -15 121 -60q45 -47 45 -120q0 -101 -75 -162q-74 -61 -197 -61q-130 0 -201 61q-72 61 -72 174h74q1 -79 56 -123q53 -43 145 -43q84 0 138 42t54 110q0 67 -55 107t-148 40h-47
v56h47q82 0 134 38q51 38 51 99t-48 100t-124 39q-81 0 -131 -41t-50 -110h-75q1 101 71 161z" />
    <glyph glyph-name="four.dnom" horiz-adv-x="679" 
d="M420 745h90v-479h127v-69h-127v-197h-74v197h-393v69zM436 664l-311 -398h311v398z" />
    <glyph glyph-name="five.dnom" horiz-adv-x="638" 
d="M537 676h-385l-17 -277q34 47 85 70q55 25 114 25q109 0 179 -70q69 -69 69 -180q0 -113 -74 -185q-72 -71 -189 -71q-107 0 -178 59q-71 60 -82 156h74q10 -65 62 -106q50 -40 124 -40q80 0 133 53q52 52 52 134t-51 132q-52 50 -136 50q-55 0 -103 -28q-45 -26 -73 -74
h-69l20 421h445v-69z" />
    <glyph glyph-name="six.dnom" horiz-adv-x="657" 
d="M138 649q80 109 214 109q94 0 163 -57q68 -56 83 -156h-72q-15 71 -61 110q-47 39 -113 39q-101 0 -161 -86t-60 -229q0 -37 4 -92q4 76 62 134q56 56 155 56q114 0 182 -67t68 -177t-71 -178q-70 -67 -187 -67q-144 0 -214 100q-71 101 -71 270q0 184 79 291zM476 366
q-50 50 -132 50q-85 0 -135 -49q-51 -49 -51 -131q0 -83 52 -134t134 -51t132 50t50 132q0 83 -50 133z" />
    <glyph glyph-name="seven.dnom" horiz-adv-x="614" 
d="M49 748h522v-64l-360 -684h-82l360 680l-440 -2v70z" />
    <glyph glyph-name="eight.dnom" horiz-adv-x="657" 
d="M103 321q46 51 124 66q-69 15 -108 60q-41 47 -41 116q0 84 70 139q71 56 182 56q108 0 179 -56t71 -139q0 -67 -40 -113t-108 -63q78 -15 123 -66q47 -53 47 -126q0 -91 -76 -149t-196 -58q-122 0 -198 58q-77 59 -77 149q0 73 48 126zM455 655q-49 39 -125 39
q-78 0 -127 -39t-49 -100q0 -63 49 -102q50 -39 127 -39q78 0 126 39t48 102q0 61 -49 100zM469 310q-56 44 -139 44t-141 -44q-56 -43 -56 -109q0 -64 56 -107t141 -43q84 0 139 42t55 108t-55 109z" />
    <glyph glyph-name="nine.dnom" horiz-adv-x="651" 
d="M518 96q-79 -108 -215 -108q-93 0 -161 56t-83 157h72q15 -71 62 -111q47 -39 112 -39q101 0 161 86t60 230q0 37 -4 92q-4 -77 -61 -134t-156 -57q-111 0 -181 68q-69 68 -69 176q0 110 71 178t187 68q143 0 214 -101t71 -270q0 -182 -80 -291zM181 380q50 -50 132 -50
q86 0 136 49q51 49 51 131t-53 133t-134 51q-82 0 -132 -50t-50 -132t50 -132z" />
    <glyph glyph-name="zero.numr" horiz-adv-x="690" 
d="M136 1340q80 108 210 108q131 0 209 -108t78 -277q0 -170 -78 -278q-77 -107 -209 -107q-131 0 -210 107t-79 278q0 170 79 277zM500 1288q-57 88 -154 88t-155 -88t-58 -225t58 -225t155 -88t154 88t57 225t-57 225z" />
    <glyph glyph-name="one.numr" horiz-adv-x="344" 
d="M178 690v527q-8 -19 -37 -19h-141v72h141q17 0 28 14t11 33v119h72v-746h-74z" />
    <glyph glyph-name="two.numr" horiz-adv-x="634" 
d="M63 1204q0 110 72 176t180 66q115 0 185 -62q69 -62 69 -159q0 -75 -39 -131q-41 -58 -112 -119l-252 -215h412v-72h-523v70l307 256q67 56 98 102q32 47 32 107q0 66 -49 109q-48 42 -126 42q-82 0 -131 -46t-49 -128v-12h-74v16z" />
    <glyph glyph-name="three.numr" horiz-adv-x="653" 
d="M143 1391q68 59 183 59q114 0 182 -56q70 -58 70 -147q0 -64 -41 -108t-107 -56q78 -15 121 -60q45 -47 45 -120q0 -101 -75 -162q-74 -61 -197 -61q-130 0 -201 61q-72 61 -72 174h74q1 -78 56 -122q53 -43 145 -43q84 0 138 42t54 109q0 68 -55 108t-148 40h-47v55h47
q82 0 134 38q51 38 51 99t-48 100t-124 39q-81 0 -131 -41t-50 -110h-75q1 102 71 162z" />
    <glyph glyph-name="four.numr" horiz-adv-x="679" 
d="M420 1434h90v-480h127v-69h-127v-197h-74v197h-393v69zM436 1352l-311 -398h311v398z" />
    <glyph glyph-name="five.numr" horiz-adv-x="638" 
d="M537 1364h-385l-17 -277q34 47 85 70q55 25 114 25q109 0 179 -70q69 -69 69 -180q0 -112 -74 -184t-189 -72q-107 0 -178 59q-71 60 -82 156h74q10 -65 62 -106q50 -40 124 -40q80 0 133 53q52 52 52 134t-51 132q-52 50 -136 50q-55 0 -103 -28q-45 -26 -73 -74h-69
l20 422h445v-70z" />
    <glyph glyph-name="six.numr" horiz-adv-x="657" 
d="M138 1339q80 109 214 109q95 0 163 -56t83 -157h-72q-15 73 -61 111q-45 38 -113 38q-101 0 -161 -86t-60 -229q0 -37 4 -92q4 76 62 134q56 56 155 56q114 0 182 -67t68 -176q0 -111 -71 -179q-70 -67 -187 -67q-144 0 -214 100q-71 101 -71 271q0 183 79 290zM476 1056
q-50 50 -132 50q-85 0 -135 -49q-51 -49 -51 -131t52 -133q54 -52 134 -52q81 0 132 51q50 50 50 132t-50 132z" />
    <glyph glyph-name="seven.numr" horiz-adv-x="614" 
d="M49 1434h522v-64l-360 -684h-82l360 680l-440 -2v70z" />
    <glyph glyph-name="eight.numr" horiz-adv-x="657" 
d="M103 1011q46 51 124 66q-68 15 -108 61q-41 47 -41 115q0 85 70 140t182 55q109 0 179 -55q71 -56 71 -140q0 -67 -40 -113t-108 -63q78 -15 123 -66q47 -53 47 -126q0 -91 -76 -149t-196 -58q-122 0 -198 58q-77 59 -77 149q0 73 48 126zM455 1346q-48 38 -125 38
q-79 0 -127 -38q-49 -39 -49 -101q0 -63 49 -102q50 -39 127 -39q78 0 126 39t48 102q0 62 -49 101zM469 1000q-56 44 -139 44t-141 -44q-56 -43 -56 -109q0 -64 56 -107t141 -43q84 0 139 42t55 108t-55 109z" />
    <glyph glyph-name="nine.numr" horiz-adv-x="651" 
d="M518 786q-79 -108 -215 -108q-93 0 -161 56t-83 157h72q15 -71 62 -111q47 -39 112 -39q101 0 161 86t60 230q0 37 -4 92q-4 -77 -61 -134t-156 -57q-111 0 -181 68q-69 68 -69 176q0 110 71 178t187 68q144 0 214 -100q71 -101 71 -271q0 -182 -80 -291zM181 1070
q50 -50 132 -50q86 0 136 49q51 49 51 131t-53 133t-134 51q-82 0 -132 -50t-50 -132t50 -132z" />
    <glyph glyph-name="uni2080.zero" horiz-adv-x="690" 
d="M555 445q78 -108 78 -277q0 -170 -78 -278q-77 -107 -209 -107q-131 0 -210 107t-79 278q0 170 79 277q80 108 210 108q131 0 209 -108zM191 393q-58 -88 -58 -225q0 -85 29 -160l344 373q-57 100 -160 100q-97 0 -155 -88zM500 -57q57 89 57 225q0 90 -29 160l-344 -373
q60 -100 162 -100q97 0 154 88z" />
    <glyph glyph-name="zero.dnom.zero" horiz-adv-x="690" 
d="M555 650q78 -108 78 -277q0 -170 -78 -278q-77 -107 -209 -107q-131 0 -210 107t-79 278q0 170 79 277q80 108 210 108q131 0 209 -108zM191 598q-58 -88 -58 -225q0 -85 29 -160l344 373q-57 100 -160 100q-97 0 -155 -88zM500 147q57 88 57 226q0 89 -29 159l-344 -372
q60 -101 162 -101q97 0 154 88z" />
    <glyph glyph-name="zero.numr.zero" horiz-adv-x="690" 
d="M555 1340q78 -108 78 -277q0 -170 -78 -278q-77 -107 -209 -107q-131 0 -210 107t-79 278q0 170 79 277q80 108 210 108q131 0 209 -108zM191 1288q-58 -88 -58 -225q0 -85 29 -160l344 373q-57 100 -160 100q-97 0 -155 -88zM500 838q57 88 57 225q0 90 -29 160
l-344 -373q60 -100 162 -100q97 0 154 88z" />
    <glyph glyph-name="uni2070.zero" horiz-adv-x="690" 
d="M555 1545q78 -108 78 -277q0 -170 -78 -278q-77 -107 -209 -107q-131 0 -210 107t-79 278q0 170 79 277q80 108 210 108q131 0 209 -108zM191 1493q-58 -88 -58 -225q0 -85 29 -160l344 373q-57 100 -160 100q-97 0 -155 -88zM500 1042q57 88 57 226q0 89 -29 159
l-344 -372q60 -101 162 -101q97 0 154 88z" />
    <glyph glyph-name="backslash.case" horiz-adv-x="628" 
d="M135 1434l483 -1434h-106l-481 1434h104z" />
    <glyph glyph-name="periodcentered.case" horiz-adv-x="458" 
d="M173 778q21 21 56 21q36 0 57 -21t21 -55q0 -35 -21 -56q-22 -22 -57 -22q-34 0 -56 22q-21 21 -21 56q0 34 21 55z" />
    <glyph glyph-name="colon.case" horiz-adv-x="376" 
d="M132 1114q21 21 56 21q36 0 57 -21t21 -55q0 -36 -21 -57t-57 -21q-35 0 -56 21t-21 57q0 34 21 55zM132 309q21 21 56 21q36 0 57 -21t21 -55q0 -35 -21 -56q-22 -22 -57 -22q-34 0 -56 22q-21 21 -21 56q0 34 21 55z" />
    <glyph glyph-name="semicolon.case" horiz-adv-x="376" 
d="M257 280q36 -50 36 -120q0 -102 -63 -167t-167 -69v62q73 1 114 50q40 47 40 111q0 36 -18 54q-16 -25 -52 -25q-29 0 -51 20q-20 19 -20 54q0 34 24 57q25 23 66 23q55 0 91 -50zM128 1114q21 21 56 21q36 0 57 -21t21 -55q0 -36 -21 -57t-57 -21q-35 0 -56 21
q-22 22 -22 57q0 33 22 55z" />
    <glyph glyph-name="slash.case" horiz-adv-x="628" 
d="M504 1434h104l-481 -1434h-107z" />
    <glyph glyph-name="braceleft.case" horiz-adv-x="669" 
d="M409 1286q-55 -53 -55 -162q0 -41 13 -106q0 -5 1.5 -17t2.5 -19q2 -26 2 -42q0 -93 -48 -150q-47 -56 -124 -71q76 -16 125 -73q49 -56 49 -150q0 -17 -8 -78q-13 -62 -13 -109q0 -109 55 -162q55 -54 164 -55h52v-92h-62q-305 0 -305 279q0 42 10 106q8 61 8 78
q0 106 -56 158q-58 53 -152 53v90q96 0 152 52t56 157q0 15 -8 76q-10 63 -10 106q0 279 305 279h62v-93h-52q-109 -1 -164 -55z" />
    <glyph glyph-name="braceright.case" horiz-adv-x="669" 
d="M450 816q56 -52 152 -52v-90q-94 0 -152 -53q-57 -53 -57 -158q0 -17 8 -78q11 -71 11 -106q0 -279 -306 -279h-61v92h51q110 1 165 55q54 53 54 162q0 52 -12 109q-8 61 -8 78q0 94 49 150q49 57 125 73q-77 15 -124 71q-48 57 -48 150q0 16 2 42q1 7 2.5 19t1.5 17
q12 60 12 106q0 110 -54 162q-55 54 -165 55h-51v93h61q306 0 306 -279q0 -37 -11 -106q-8 -61 -8 -76q0 -105 57 -157z" />
    </font>
</defs>
</svg>
