<?xml version="1.0" standalone="no"?>
<!DOCTYPE svg PUBLIC "-//W3C//DTD SVG 1.1//EN" "http://www.w3.org/Graphics/SVG/1.1/DTD/svg11.dtd" >
<svg xmlns="http://www.w3.org/2000/svg" xmlns:xlink="http://www.w3.org/1999/xlink" version="1.1">
<metadata>
Created by FontForge 20201107 at Wed Dec 27 15:33:37 2023
 By 
Mark Bloom and Joe Leadbeater (c) 2018
</metadata>
<defs>
<font id="Aeonik-Medium" horiz-adv-x="1064" >
  <font-face 
    font-family="Aeonik Medium"
    font-weight="500"
    font-stretch="normal"
    units-per-em="2048"
    panose-1="2 1 5 3 3 3 0 0 0 0"
    ascent="1638"
    descent="-410"
    x-height="1049"
    cap-height="1434"
    bbox="-795 -422 4413 1864"
    underline-thickness="147"
    underline-position="-556"
    unicode-range="U+0020-1F10C"
  />
<missing-glyph horiz-adv-x="1269" 
d="M164 1434h942v-1573h-942v1573z" />
    <glyph glyph-name="fi" unicode="fi" horiz-adv-x="1134" 
d="M820 1240q-38 38 -38 95q0 59 39 96q38 37 97 37q58 0 95 -37q38 -38 38 -96q0 -57 -38 -95t-95 -38q-60 0 -98 38zM1028 0h-223v854h-406v-854h-223v854h-182v195h182v104q0 139 72 210q73 71 221 71h186v-195h-155q-52 0 -77 -25q-24 -24 -24 -77v-88h629v-1049z" />
    <glyph glyph-name="f_f.liga" unicode="ff" horiz-adv-x="1310" 
d="M1052 1214q-24 -24 -24 -77v-88h281v-195h-281v-854h-223v854h-406v-854h-223v854h-182v195h182v104q0 139 72 210q73 71 221 71h186v-195h-155q-52 0 -77 -25q-24 -24 -24 -77v-88h406v104q0 139 72 210q73 71 221 71h213v-195h-183q-51 0 -76 -25z" />
    <glyph glyph-name="f_f_i.liga" unicode="ffi" horiz-adv-x="1763" 
d="M1449 1240q-38 38 -38 95q0 59 39 96q38 37 96 37t95 -37q38 -38 38 -96q0 -57 -38 -95t-95 -38q-59 0 -97 38zM1657 0h-223v854h-406v-854h-223v854h-406v-854h-223v854h-182v195h182v104q0 139 72 210q73 71 221 71h186v-195h-155q-52 0 -77 -25q-24 -24 -24 -77v-88
h406v104q0 139 72 210q73 71 221 71h186v-195h-156q-51 0 -76 -25q-24 -24 -24 -77v-88h629v-1049z" />
    <glyph glyph-name="f_f_t.liga" unicode="fft" horiz-adv-x="1943" 
d="M1931 195v-195h-213q-149 0 -217 70q-67 68 -67 215v569h-406v-854h-223v854h-406v-854h-223v854h-182v195h182v104q0 139 72 210q73 71 221 71h186v-195h-155q-52 0 -77 -25q-24 -24 -24 -77v-88h406v104q0 139 72 210q73 71 221 71h186v-195h-156q-51 0 -76 -25
q-24 -24 -24 -77v-88h406v292h221v-292h254v-195h-254v-547q0 -62 25 -87t85 -25h166z" />
    <glyph glyph-name="f_t.liga" unicode="ft" horiz-adv-x="1314" 
d="M1303 195v-195h-213q-150 0 -218 70q-67 68 -67 215v569h-406v-854h-223v854h-182v195h182v104q0 139 72 210q73 71 221 71h186v-195h-155q-52 0 -77 -25q-24 -24 -24 -77v-88h406v292h221v-292h254v-195h-254v-547q0 -61 26 -87q25 -25 85 -25h166z" />
    <glyph glyph-name="t_t.liga" unicode="tt" horiz-adv-x="1320" 
d="M1309 195v-195h-213q-149 0 -217 70t-68 215v569h-412v-547q0 -60 25 -87q24 -25 84 -25h137v-195h-182q-148 0 -218 70q-69 69 -69 215v569h-182v195h182v292h223v-292h412v292h221v-292h254v-195h-254v-547q0 -61 26 -87q25 -25 85 -25h166z" />
    <glyph glyph-name=".notdef" horiz-adv-x="1269" 
d="M164 1434h942v-1573h-942v1573z" />
    <glyph glyph-name=".null" horiz-adv-x="0" 
 />
    <glyph glyph-name="nonmarkingreturn" horiz-adv-x="682" 
 />
    <glyph glyph-name="space" unicode=" " horiz-adv-x="524" 
 />
    <glyph glyph-name="exclam" unicode="!" horiz-adv-x="546" 
d="M190 436l-34 998h237l-35 -998h-168zM172 227q40 39 102 39t102 -39t40 -100t-40 -100t-102 -39t-102 39q-41 39 -41 100t41 100z" />
    <glyph glyph-name="quotedbl" unicode="&#x22;" horiz-adv-x="794" 
d="M86 1325q0 50 32 85q31 34 89 34q60 0 90 -33q31 -34 31 -84q0 -14 -2 -24l-47 -392h-144l-47 392q-2 10 -2 22zM469 1325q0 50 32 85q31 34 89 34q60 0 90 -33q31 -34 31 -84q0 -14 -2 -24l-47 -392h-144l-47 392q-2 10 -2 22z" />
    <glyph glyph-name="numbersign" unicode="#" horiz-adv-x="1169" 
d="M371 1241h182l-49 -319h248l49 319h182l-49 -319h172v-185h-199l-35 -233h189v-185h-215l-49 -319h-183l50 319h-246l-49 -319h-183l50 319h-173v185h199l33 233h-189v185h216zM477 737l-33 -233h246l35 233h-248z" />
    <glyph glyph-name="dollar" unicode="$" horiz-adv-x="1259" 
d="M956 760q100 -40 164 -121t64 -211q0 -115 -57 -208q-58 -95 -157 -153q-102 -60 -233 -75v-211h-198v215q-208 28 -333 158q-123 128 -128 317l231 -4q10 -127 104 -204t242 -77q131 0 212 57t81 156q0 72 -44 114q-44 43 -120 65q-81 24 -213 47q-141 24 -238 64
q-100 41 -162 122t-62 215q0 169 117 282q118 113 313 136v211h198v-217q185 -30 300 -149t122 -285h-231q-12 110 -97 178q-83 67 -213 67q-124 0 -199 -54t-75 -153q0 -69 44 -110t118 -62q72 -21 211 -45q136 -23 239 -65z" />
    <glyph glyph-name="percent" unicode="%" horiz-adv-x="1873" 
d="M150 1276q47 80 131 125t188 45t188 -45t131 -125q48 -82 48 -180t-48 -180q-45 -77 -131 -123q-84 -45 -188 -45t-188 45q-86 46 -131 123q-48 82 -48 180t48 180zM340 0l979 1434h219l-981 -1434h-217zM598 1226q-51 52 -129 52q-76 0 -127 -52t-51 -130t51 -130
q51 -53 127 -53q78 0 129 53q51 52 51 130t-51 130zM1085 516q46 79 132 125q84 45 188 45t188 -45t131 -125q48 -82 48 -180q0 -96 -48 -178q-47 -80 -131 -125t-188 -45t-188 45q-86 46 -132 125q-47 80 -47 178q0 100 47 180zM1532 467q-51 53 -127 53q-75 0 -128 -53
q-52 -52 -52 -131q0 -78 51 -129t129 -51q79 0 128 51q50 52 50 129q0 78 -51 131z" />
    <glyph glyph-name="ampersand" unicode="&#x26;" horiz-adv-x="1574" 
d="M1456 188v-188h-170q-82 0 -140 19q-61 20 -106 71l-55 62q-173 -164 -395 -164q-211 0 -343 98q-134 99 -134 279q0 118 72 226q70 106 237 179q-72 90 -100 161q-27 69 -27 161q0 101 55 181t152 127q95 46 217 46q103 0 185 -42q83 -42 131 -116t48 -166
q0 -122 -75 -218q-76 -97 -260 -173l262 -285l213 328h221l-311 -463l65 -71q28 -31 53 -41q28 -11 66 -11h139zM569 1227q-53 -51 -53 -129q0 -65 26 -117q25 -50 93 -127q233 99 233 262q0 71 -44 117q-44 45 -117 45q-85 0 -138 -51zM866 281l-336 366l-4 4
q-101 -52 -144 -113q-42 -60 -42 -147q0 -105 72 -163q71 -58 188 -58q143 0 266 111z" />
    <glyph glyph-name="quotesingle" unicode="'" horiz-adv-x="413" 
d="M86 1325q0 50 32 85q31 34 89 34q60 0 90 -33q31 -34 31 -84q0 -14 -2 -24l-47 -392h-144l-47 392q-2 10 -2 22z" />
    <glyph glyph-name="parenleft" unicode="(" horiz-adv-x="647" 
d="M666 1434q-187 -254 -263 -458q-75 -200 -75 -464q0 -260 75 -460q76 -203 263 -462h-232q-170 232 -248 449q-77 215 -77 473q0 263 77 475q79 216 248 447h232z" />
    <glyph glyph-name="parenright" unicode=")" horiz-adv-x="647" 
d="M475 987q78 -214 78 -475q0 -256 -78 -473t-248 -449h-231q185 257 262 462q76 203 76 460q0 261 -76 464q-77 206 -262 458h231q169 -231 248 -447z" />
    <glyph glyph-name="asterisk" unicode="*" horiz-adv-x="878" 
d="M795 1147l-244 -90l168 -191l-119 -102l-164 215l-162 -213l-116 102l168 191l-242 90l61 143l224 -106l-7 250h152l-6 -252l225 108z" />
    <glyph glyph-name="plus" unicode="+" 
d="M430 1024h203v-346h328v-186h-328v-347h-203v347h-326v186h326v346z" />
    <glyph glyph-name="comma" unicode="," horiz-adv-x="458" 
d="M344 197q51 -67 51 -168q0 -148 -88 -230q-89 -83 -241 -84v119q89 1 135 47q45 45 45 107q0 16 -2 26q-26 -20 -68 -20q-53 0 -87 34t-34 97q0 59 43 99t113 40q82 0 133 -67z" />
    <glyph glyph-name="hyphen" unicode="-" horiz-adv-x="888" 
d="M96 492v180h697v-180h-697z" />
    <glyph glyph-name="period" unicode="." horiz-adv-x="458" 
d="M128 227q40 39 101 39q63 0 103 -39q41 -39 41 -100t-41 -100q-40 -39 -103 -39q-61 0 -101 39t-40 100t40 100z" />
    <glyph glyph-name="slash" unicode="/" horiz-adv-x="675" 
d="M-68 -410l600 1844h211l-600 -1844h-211z" />
    <glyph glyph-name="zero" unicode="0" horiz-adv-x="1300" 
d="M86 750q0 203 71 363q71 159 199 246q129 87 295 87q165 0 292 -87q128 -87 200 -246q71 -157 71 -363v-66q0 -215 -70 -371t-199 -241q-127 -84 -294 -84q-169 0 -296 84q-128 84 -198 241q-71 159 -71 371v66zM896 1113q-92 134 -245 134t-245 -134q-93 -136 -93 -372
v-49q0 -235 93 -371q93 -135 245 -135t245 135q91 133 91 371v49q0 239 -91 372z" />
    <glyph glyph-name="one" unicode="1" horiz-adv-x="704" 
d="M563 1434v-1434h-225v969q-32 -19 -90 -19h-236v193h226q50 0 77 37q27 38 27 96v158h221z" />
    <glyph glyph-name="two" unicode="2" horiz-adv-x="1167" 
d="M623 651q110 89 169 172q56 78 56 174q0 121 -74 189q-73 67 -201 67q-123 0 -197 -78q-75 -79 -75 -210v-27h-227v39q0 137 62 242t175 167t262 62q239 0 373 -120q133 -120 133 -320q0 -148 -75 -255q-76 -109 -228 -237l-381 -317h692v-199h-1015v182z" />
    <glyph glyph-name="three" unicode="3" horiz-adv-x="1239" 
d="M1064 628q89 -87 89 -229q0 -122 -67 -216q-66 -93 -188 -144t-284 -51q-246 0 -390 126t-144 345h227q1 -131 90 -207q88 -76 232 -76q127 0 210 66t83 174q0 102 -81 161q-80 58 -231 58h-131v188h117q140 0 216 62q75 61 75 164q0 95 -74 152q-72 56 -190 56
q-123 0 -202 -64q-80 -65 -81 -175h-223q2 199 137 313q136 115 360 115q155 0 270 -47q114 -46 174 -134q60 -87 60 -200q0 -129 -75 -212q-77 -84 -201 -112q135 -27 222 -113z" />
    <glyph glyph-name="four" unicode="4" horiz-adv-x="1263" 
d="M45 524l682 910h274v-906h218v-196h-218v-332h-223v332h-733v192zM272 528h506v672z" />
    <glyph glyph-name="five" unicode="5" horiz-adv-x="1212" 
d="M912 905q108 -61 169 -172q62 -112 62 -252q0 -153 -70 -266q-69 -111 -188 -168t-262 -57q-158 0 -276 61q-116 60 -183 167q-66 106 -74 235h225q12 -116 97 -195q84 -78 211 -78q75 0 142 35t107 102q41 68 41 164q0 133 -78 215q-79 84 -210 84q-86 0 -170 -39
q-85 -39 -119 -137l-219 4l43 826h893v-199h-684l-27 -399q62 68 147 99q87 32 181 32q133 0 242 -62z" />
    <glyph glyph-name="six" unicode="6" horiz-adv-x="1249" 
d="M117 438q-31 129 -31 269q0 229 68 397q67 166 194 254t303 88q198 0 331 -109q132 -108 159 -297h-226q-23 103 -95 160t-185 57q-162 0 -252 -132t-90 -357v-55q0 1 2 5.5t3 7.5q3 9 11 22q49 95 147 151q97 55 224 55q141 0 252 -60t171 -170q60 -109 60 -253
q0 -140 -64 -250t-183 -172q-118 -61 -267 -61q-145 0 -258 60q-112 60 -184 171q-60 95 -90 219zM860 685q-78 83 -207 83q-130 0 -213 -83q-82 -82 -82 -216q0 -130 80 -213q79 -82 209 -82q131 0 211 83t80 214t-78 214z" />
    <glyph glyph-name="seven" unicode="7" horiz-adv-x="1103" 
d="M25 1434h1030v-152l-672 -1282h-246l668 1235h-780v199z" />
    <glyph glyph-name="eight" unicode="8" horiz-adv-x="1234" 
d="M1063 627q88 -91 88 -240q0 -115 -64 -208q-63 -91 -183 -141q-121 -50 -286 -50q-164 0 -285 50q-120 50 -183 141q-64 93 -64 208q0 146 86 238q85 91 221 120q-114 27 -190 112t-76 210q0 115 59 199q61 86 171 134q111 48 261 48q151 0 262 -48q110 -48 171 -134
q59 -84 59 -199q0 -120 -78 -209q-79 -89 -194 -113q137 -27 225 -118zM424 1215q-76 -60 -76 -154q0 -96 76 -156q75 -59 194 -59t194 60t75 155q0 94 -75 154q-76 61 -194 61q-116 0 -194 -61zM838 225q86 68 86 174q0 105 -87 175q-88 71 -219 71q-132 0 -220 -71
q-87 -70 -87 -175q0 -107 87 -174q86 -67 220 -67q135 0 220 67z" />
    <glyph glyph-name="nine" unicode="9" horiz-adv-x="1249" 
d="M1130 1001q33 -128 33 -274q0 -350 -148 -544q-149 -195 -417 -195q-206 0 -336 108q-131 108 -158 297h226q24 -100 95 -159q70 -58 185 -58q164 0 254 133t90 359v55q-18 -38 -22 -43q-50 -92 -144 -144q-95 -53 -219 -53q-143 0 -253 59t-170 167t-60 254
q0 138 65 248q64 109 181 172t268 63q144 0 254 -58q109 -58 182 -165q61 -93 94 -222zM389 752q78 -82 207 -82q131 0 213 82t82 215q0 128 -80 211q-79 82 -209 82q-132 0 -211 -82q-80 -83 -80 -213q0 -131 78 -213z" />
    <glyph glyph-name="colon" unicode=":" horiz-adv-x="458" 
d="M128 971q40 39 101 39q63 0 103 -39q41 -39 41 -101q0 -61 -41 -100q-40 -39 -103 -39q-61 0 -101 39t-40 100q0 62 40 101zM128 227q40 39 101 39q63 0 103 -39q41 -39 41 -100t-41 -100q-40 -39 -103 -39q-61 0 -101 39t-40 100t40 100z" />
    <glyph glyph-name="semicolon" unicode=";" horiz-adv-x="458" 
d="M344 197q51 -67 51 -168q0 -148 -88 -230q-89 -83 -241 -84v119q89 1 135 47q45 45 45 107q0 16 -2 26q-26 -20 -68 -20q-53 0 -87 34t-34 97q0 59 43 99t113 40q82 0 133 -67zM120 971q40 39 101 39q63 0 103 -39q41 -39 41 -101q0 -61 -41 -100q-40 -39 -103 -39
q-61 0 -101 39t-40 100q0 62 40 101z" />
    <glyph glyph-name="less" unicode="&#x3c;" 
d="M137 477v209l791 342v-215l-545 -231l545 -232v-215z" />
    <glyph glyph-name="equal" unicode="=" 
d="M125 690v189h815v-189h-815zM125 258v186h815v-186h-815z" />
    <glyph glyph-name="greater" unicode="&#x3e;" 
d="M928 686v-209l-791 -342v215l545 232l-545 231v215z" />
    <glyph glyph-name="question" unicode="?" horiz-adv-x="1069" 
d="M118 1209q59 110 168 173q111 64 257 64q138 0 243 -48q104 -48 161 -133t57 -192q0 -124 -54 -206q-52 -79 -151 -148q-98 -67 -140 -115q-41 -47 -41 -117v-41h-208v66q0 78 27 133q26 53 72 93q43 38 120 87q71 48 109 103q36 52 36 123q0 87 -63 143q-62 55 -166 55
q-120 0 -190 -79t-70 -205h-226q0 134 59 244zM419 224q41 38 101 38q61 0 101 -38q38 -37 38 -99t-38 -99q-40 -38 -101 -38q-60 0 -101 38q-40 37 -40 99t40 99z" />
    <glyph glyph-name="at" unicode="@" horiz-adv-x="2009" 
d="M225 956q128 206 344 321q218 116 478 116q248 0 449 -96q196 -94 307 -265q110 -170 110 -385q0 -159 -62 -285q-62 -125 -168 -194q-108 -70 -239 -70q-90 0 -147 45q-56 44 -68 113l-4 29q-39 -85 -126 -134q-90 -51 -194 -51q-96 0 -177 48t-128 138q-47 89 -47 206
q0 131 56 237q57 108 153 171t211 63q107 0 177 -41q67 -40 89 -103l35 127h174l-62 -577q-2 -14 -2 -29q0 -102 101 -102q63 0 120 54q55 52 90 150q34 95 34 211q0 175 -84 308t-240 205q-158 73 -363 73q-207 0 -382 -97q-176 -98 -277 -266q-102 -170 -102 -372
q0 -209 89 -360q88 -149 257 -229q167 -79 397 -79q263 0 461 117l-6 -168q-78 -49 -203 -78q-127 -29 -270 -29q-263 0 -470 101q-206 101 -322 287q-116 187 -116 434q0 251 127 456zM1163 748q-55 57 -145 57q-70 0 -131 -41q-59 -40 -94 -110t-35 -150q0 -111 58 -176
q59 -66 149 -66q70 0 128 40q57 39 92 114q34 72 34 170q0 104 -56 162z" />
    <glyph glyph-name="A" unicode="A" horiz-adv-x="1384" 
d="M16 0l537 1434h281l534 -1434h-252l-135 354h-588l-133 -354h-244zM459 555h456l-229 625z" />
    <glyph glyph-name="B" unicode="B" horiz-adv-x="1296" 
d="M657 1434q235 0 366 -99q130 -99 130 -274q0 -129 -69 -212q-70 -84 -197 -112q321 -55 321 -338q0 -187 -138 -293q-137 -106 -394 -106h-545v1434h526zM367 825h297q120 0 187 56t67 151q0 96 -67 151q-66 54 -187 54h-297v-412zM367 199h311q140 0 214 56
q75 57 75 157q0 104 -76 161q-78 58 -213 58h-311v-432z" />
    <glyph glyph-name="C" unicode="C" horiz-adv-x="1445" 
d="M161 1099q85 165 241 256q155 91 366 91q160 0 292 -62q130 -61 212 -175q81 -113 104 -263h-235q-35 137 -135 215q-101 78 -248 78q-132 0 -234 -67q-101 -66 -153 -184q-54 -122 -54 -271t54 -271q53 -119 153 -185t234 -66q149 0 247 77q99 78 134 215h235
q-23 -152 -103 -264q-81 -113 -210 -174q-128 -61 -293 -61q-210 0 -366 90q-155 90 -241 255q-85 164 -85 384q0 218 85 382z" />
    <glyph glyph-name="D" unicode="D" horiz-adv-x="1386" 
d="M131 1434h457q218 0 383 -91q164 -90 252 -251t88 -375q0 -211 -88 -374t-252 -253q-163 -90 -383 -90h-457v1434zM588 205q231 0 356 138q125 139 125 374t-125 374q-124 138 -356 138h-221v-1024h221z" />
    <glyph glyph-name="E" unicode="E" horiz-adv-x="1153" 
d="M131 1434h936v-209h-700v-398h577v-202h-577v-416h725v-209h-961v1434z" />
    <glyph glyph-name="F" unicode="F" horiz-adv-x="1095" 
d="M131 1434h916v-209h-680v-416h561v-203h-561v-606h-236v1434z" />
    <glyph glyph-name="G" unicode="G" horiz-adv-x="1531" 
d="M161 1099q86 165 242 256q157 91 369 91q248 0 412 -135q162 -134 200 -365h-233q-35 138 -136 215q-102 78 -249 78q-133 0 -237 -67q-100 -65 -156 -184q-56 -120 -56 -271t55 -272q54 -119 155 -184q102 -66 237 -66q173 0 288 94q117 95 124 262v35h-398v198h623
v-784h-178l-25 205q-63 -92 -175 -154q-114 -63 -269 -63q-201 0 -353 91q-154 92 -239 257q-86 167 -86 381q0 218 85 382z" />
    <glyph glyph-name="H" unicode="H" horiz-adv-x="1398" 
d="M131 1436h236v-605h665v605h236v-1436h-236v623h-665v-623h-236v1436z" />
    <glyph glyph-name="I" unicode="I" horiz-adv-x="497" 
d="M131 1434h236v-1434h-236v1434z" />
    <glyph glyph-name="J" unicode="J" horiz-adv-x="759" 
d="M629 1434v-1078q0 -172 -93 -264q-94 -92 -266 -92h-221v211h168q92 0 134 43q42 44 42 137v1043h236z" />
    <glyph glyph-name="K" unicode="K" horiz-adv-x="1347" 
d="M131 1434h236v-740l657 740h287l-527 -598l566 -836h-285l-449 655l-249 -280v-375h-236v1434z" />
    <glyph glyph-name="L" unicode="L" horiz-adv-x="1032" 
d="M131 0v1434h236v-1225h616v-209h-852z" />
    <glyph glyph-name="M" unicode="M" horiz-adv-x="1775" 
d="M131 1434h305l459 -1129l451 1129h299v-1434h-228v1055l-430 -1055h-199l-430 1055v-1055h-227v1434z" />
    <glyph glyph-name="N" unicode="N" horiz-adv-x="1406" 
d="M131 0v1434h215l698 -1016v1016h232v-1434h-215l-699 1016v-1016h-231z" />
    <glyph glyph-name="O" unicode="O" horiz-adv-x="1544" 
d="M1380 342q-88 -166 -246 -260t-362 -94q-203 0 -361 94q-159 95 -247 260q-88 166 -88 375t88 375q88 165 247 260q158 94 361 94q204 0 362 -94t246 -260t88 -375t-88 -375zM375 447q57 -120 161 -186q103 -66 236 -66q134 0 237 66t160 186q58 122 58 270
q0 147 -58 269q-57 120 -160 186q-105 67 -237 67q-131 0 -236 -67q-104 -66 -161 -186q-58 -122 -58 -269q0 -148 58 -270z" />
    <glyph glyph-name="P" unicode="P" horiz-adv-x="1241" 
d="M696 1434q148 0 260 -57q114 -58 174 -159q62 -104 62 -241t-62 -241q-60 -101 -174 -159q-112 -57 -260 -57h-329v-520h-236v1434h565zM367 725h309q127 0 202 69q74 68 74 183q0 117 -73 184q-74 68 -201 68h-311v-504z" />
    <glyph glyph-name="Q" unicode="Q" horiz-adv-x="1554" 
d="M1542 207v-207h-139q-84 0 -132 24q-49 25 -89 76l-6 9q-172 -121 -404 -121q-203 0 -361 94q-159 95 -247 260q-88 166 -88 375t88 375q88 165 247 260q158 94 361 94q204 0 362 -94t246 -260t88 -375q0 -138 -38 -255q-39 -120 -111 -216q39 -39 98 -39h125zM1040 283
l-30 41q-26 36 -54 53q-26 16 -61 16h-127v205h154q76 0 119 -24q45 -25 83 -76l43 -56q60 118 60 275q0 147 -58 269q-57 120 -160 186q-105 67 -237 67q-131 0 -236 -67q-104 -66 -161 -186q-58 -122 -58 -269q0 -148 58 -270q57 -120 161 -186q103 -66 236 -66
q155 0 268 88z" />
    <glyph glyph-name="R" unicode="R" horiz-adv-x="1280" 
d="M696 1434q150 0 262 -57q115 -58 176 -159q62 -102 62 -241q0 -145 -76 -252q-78 -110 -202 -154l303 -571h-263l-272 520h-319v-520h-236v1434h565zM367 725h311q127 0 202 69q74 68 74 183t-74 183q-75 69 -202 69h-311v-504z" />
    <glyph glyph-name="S" unicode="S" horiz-adv-x="1259" 
d="M309 467q10 -127 104 -204t242 -77q131 0 212 57t81 156q0 72 -44 114q-44 43 -120 65q-81 24 -213 47q-141 24 -238 64q-100 41 -162 122t-62 215q0 124 64 219q66 98 180 150q117 53 265 53q153 0 275 -57q120 -56 190 -158t76 -229h-231q-12 110 -97 178
q-83 67 -213 67q-124 0 -199 -54t-75 -153q0 -69 44 -110t118 -62q72 -21 211 -45q136 -23 239 -65q100 -40 164 -121t64 -211q0 -126 -68 -227q-67 -100 -188 -157q-119 -56 -275 -56q-171 0 -299 61q-129 61 -201 171q-74 112 -75 251z" />
    <glyph glyph-name="T" unicode="T" horiz-adv-x="1216" 
d="M49 1434h1120v-209h-442v-1225h-235v1225h-443v209z" />
    <glyph glyph-name="U" unicode="U" horiz-adv-x="1376" 
d="M358 1434v-832q0 -201 80 -304q79 -101 248 -101q171 0 251 101q81 102 81 304v832h235v-820q0 -308 -144 -467t-423 -159q-276 0 -420 159q-143 158 -143 467v820h235z" />
    <glyph glyph-name="V" unicode="V" horiz-adv-x="1308" 
d="M10 1434h250l395 -1151l400 1151h243l-501 -1434h-283z" />
    <glyph glyph-name="W" unicode="W" horiz-adv-x="2029" 
d="M39 1434l246 2l305 -1137l319 1135h224l309 -1135l309 1135h240l-410 -1434h-276l-293 1055l-287 -1055h-276z" />
    <glyph glyph-name="X" unicode="X" horiz-adv-x="1343" 
d="M526 733l-452 701h280l328 -510l332 510h258l-453 -701l479 -733h-284l-355 541l-356 -541h-256z" />
    <glyph glyph-name="Y" unicode="Y" horiz-adv-x="1325" 
d="M10 1436h277l377 -658l387 658h264l-535 -906v-530h-235v530z" />
    <glyph glyph-name="Z" unicode="Z" horiz-adv-x="1263" 
d="M82 1434h1100v-162l-803 -1065h825v-207h-1145v162l801 1065h-778v207z" />
    <glyph glyph-name="bracketleft" unicode="[" horiz-adv-x="641" 
d="M119 1436h493v-197h-286v-1454h286v-195h-493v1846z" />
    <glyph glyph-name="backslash" unicode="\" horiz-adv-x="675" 
d="M743 -410h-211l-600 1844h211z" />
    <glyph glyph-name="bracketright" unicode="]" horiz-adv-x="641" 
d="M522 -412h-493v197h286v1454h-286v195h493v-1846z" />
    <glyph glyph-name="asciicircum" unicode="^" horiz-adv-x="1062" 
d="M78 795l366 639h174l369 -639h-203l-258 444l-256 -444h-192z" />
    <glyph glyph-name="underscore" unicode="_" horiz-adv-x="1030" 
d="M113 -223v211h805v-211h-805z" />
    <glyph glyph-name="grave" unicode="`" horiz-adv-x="819" 
d="M76 1434h256l157 -285h-170z" />
    <glyph glyph-name="a" unicode="a" horiz-adv-x="1124" 
d="M1112 193v-193h-117q-103 0 -147 43q-45 43 -45 125q-119 -180 -346 -180q-177 0 -283 82t-106 225q0 162 114 249t334 87h264v63q0 90 -61 139q-62 50 -170 50q-96 0 -159 -42t-75 -112h-217q17 158 140 245t321 87q213 0 326 -98q114 -99 114 -283v-414q0 -73 70 -73
h43zM780 467h-274q-103 0 -158 -40t-55 -118q0 -68 52 -108q53 -41 142 -41q138 0 214 73q78 74 79 197v37z" />
    <glyph glyph-name="b" unicode="b" horiz-adv-x="1234" 
d="M926 996q114 -65 176 -185q63 -121 63 -287q0 -158 -63 -279q-64 -123 -176 -190t-256 -67q-117 0 -203 44q-87 44 -139 120l-27 -152h-192v1434h221v-541q124 168 340 168q143 0 256 -65zM855 271q85 97 85 253q0 154 -85 251t-222 97t-221 -96t-84 -250q0 -155 84 -254
q83 -98 221 -98q137 0 222 97z" />
    <glyph glyph-name="c" unicode="c" horiz-adv-x="1144" 
d="M918 91q-127 -103 -326 -103q-156 0 -275 66q-118 66 -183 190q-64 122 -64 282q0 161 65 281q66 121 186 187q122 67 277 67q197 0 322 -104t155 -281h-227q-23 91 -90 143q-68 53 -166 53q-133 0 -214 -96t-81 -250q0 -156 81 -253t214 -97q102 0 170 54q66 53 88 147
h225q-30 -183 -157 -286z" />
    <glyph glyph-name="d" unicode="d" horiz-adv-x="1234" 
d="M1126 1434v-1434h-192l-27 158q-125 -170 -342 -170q-144 0 -256 64t-176 187q-63 121 -63 285q0 161 64 282q65 122 177 188q114 67 254 67q115 0 201 -42t139 -116v531h221zM823 270q84 96 84 250q0 158 -84 255t-221 97t-221 -97t-84 -251q0 -156 84 -253t221 -97
t221 96z" />
    <glyph glyph-name="e" unicode="e" horiz-adv-x="1167" 
d="M134 806q65 122 180 188q117 67 266 67q151 0 267 -62t182 -174q68 -115 69 -264q0 -41 -6 -84h-791v-12q8 -137 86 -217t207 -80q103 0 172 48q70 49 92 136h221q-29 -161 -154 -262q-126 -102 -315 -102q-164 0 -285 66q-123 67 -189 188q-66 122 -66 280q0 163 64 284
zM872 639q-15 115 -91 179q-77 65 -193 65q-107 0 -188 -67q-79 -66 -91 -177h563z" />
    <glyph glyph-name="f" unicode="f" horiz-adv-x="681" 
d="M176 1049v104q0 139 72 210q73 71 221 71h213v-195h-182q-52 0 -77 -25q-24 -24 -24 -77v-88h281v-195h-281v-854h-223v854h-182v195h182z" />
    <glyph glyph-name="g" unicode="g" horiz-adv-x="1234" 
d="M1126 1049v-1006q0 -221 -131 -343t-405 -122q-212 0 -346 95q-133 94 -148 270h226q21 -89 94 -137q74 -48 190 -48q301 0 301 293v117q-114 -172 -342 -172q-144 0 -256 64q-113 65 -176 185t-63 283q0 158 64 279t177 187q114 67 254 67q119 0 205 -47
q87 -47 139 -129l25 164h192zM823 278q84 94 84 246q0 155 -84 253q-84 97 -221 97t-221 -96t-84 -250q0 -153 84 -249q85 -97 221 -97t221 96z" />
    <glyph glyph-name="h" unicode="h" horiz-adv-x="1175" 
d="M966 946q117 -113 117 -368v-578h-221v565q0 151 -64 228t-188 77q-131 0 -206 -91q-74 -90 -74 -249v-530h-221v1434h221v-537q119 164 329 164q187 0 307 -115z" />
    <glyph glyph-name="i" unicode="i" horiz-adv-x="438" 
d="M315 1431q39 -37 39 -96q0 -57 -39 -95q-40 -38 -96 -38t-96 38q-39 38 -39 95q0 59 39 96q38 37 96 37t96 -37zM109 1049h221v-1049h-221v1049z" />
    <glyph glyph-name="j" unicode="j" horiz-adv-x="448" 
d="M327 1431q38 -38 38 -96q0 -57 -38 -95t-96 -38q-59 0 -97 38t-38 95q0 59 39 96q38 37 96 37q59 0 96 -37zM10 -215q56 0 84 28q27 27 27 87v1149h221v-1166q0 -293 -287 -293h-164v195h119z" />
    <glyph glyph-name="k" unicode="k" horiz-adv-x="1099" 
d="M109 1434h221v-897l479 512h256l-391 -422l416 -627h-263l-311 465l-186 -197v-268h-221v1434z" />
    <glyph glyph-name="l" unicode="l" horiz-adv-x="438" 
d="M109 1434h221v-1434h-221v1434z" />
    <glyph glyph-name="m" unicode="m" horiz-adv-x="1800" 
d="M1599 949q109 -112 109 -357v-592h-221v590q0 138 -55 209t-164 71q-117 0 -182 -80q-66 -81 -66 -223v-567h-223v590q0 140 -57 210t-165 70q-113 0 -179 -84t-66 -225v-561h-221v1049h192l25 -138q114 149 307 150q109 0 194 -47q83 -46 129 -144q57 92 146 141
q91 50 217 50q171 0 280 -112z" />
    <glyph glyph-name="n" unicode="n" horiz-adv-x="1175" 
d="M966 946q117 -113 117 -368v-578h-223v565q0 150 -63 228q-62 77 -187 77q-131 0 -206 -91q-74 -90 -74 -251v-528h-221v1049h192l25 -138q118 150 336 150q184 0 304 -115z" />
    <glyph glyph-name="o" unicode="o" horiz-adv-x="1208" 
d="M325 54q-122 67 -189 189q-66 121 -66 281q0 158 66 280q65 120 189 189q122 68 279 68q158 0 280 -68t188 -189q67 -123 67 -280q0 -158 -67 -281t-188 -189q-122 -66 -280 -66t-279 66zM828 273q85 97 85 251t-85 251t-224 97t-223 -97t-84 -251q0 -153 84 -251
q84 -97 223 -97t224 97z" />
    <glyph glyph-name="p" unicode="p" horiz-adv-x="1234" 
d="M926 996q113 -65 176 -186q63 -122 63 -286q0 -160 -63 -281q-64 -123 -176 -189t-256 -66q-118 0 -203 43q-87 44 -137 116v-557h-221v1459h192l27 -156q128 168 342 168q143 0 256 -65zM855 272q85 98 85 252q0 157 -85 252q-85 96 -222 96t-221 -95t-84 -249
q0 -157 84 -256q83 -98 221 -98q137 0 222 98z" />
    <glyph glyph-name="q" unicode="q" horiz-adv-x="1234" 
d="M1126 1049v-1459h-221v566q-125 -168 -340 -168q-144 0 -256 64q-113 65 -176 186q-63 122 -63 286q0 159 64 280q64 122 177 189q113 68 254 68q118 0 206 -44q86 -43 138 -118l25 150h192zM823 271q84 97 84 251q0 156 -84 253t-221 97t-221 -96t-84 -252t84 -253
t221 -97t221 97z" />
    <glyph glyph-name="r" unicode="r" horiz-adv-x="720" 
d="M688 1049v-207h-98q-137 0 -199 -89q-61 -88 -61 -227v-526h-221v1049h196l25 -158q46 75 116 116q72 42 193 42h49z" />
    <glyph glyph-name="s" unicode="s" horiz-adv-x="1058" 
d="M285 346q6 -82 76 -134t184 -52q99 0 163 38q62 37 62 101q0 53 -29 80q-27 26 -76 38q-40 10 -149 23q-135 16 -226 44q-89 27 -144 88q-54 60 -54 163q0 96 54 171t150 116t216 41q199 0 323 -88q123 -88 134 -248h-215q-7 70 -72 118q-62 46 -160 46q-96 0 -155 -37
q-60 -38 -60 -100q0 -47 30 -71t75 -33q46 -9 145 -21q140 -16 227 -44q92 -30 148 -95q55 -64 55 -175q0 -98 -57 -173q-55 -73 -158 -114q-99 -40 -225 -40q-210 0 -341 95q-129 94 -134 263h213z" />
    <glyph glyph-name="t" unicode="t" horiz-adv-x="686" 
d="M176 854h-182v195h182v292h223v-292h252v-195h-252v-547q0 -60 25 -87q24 -25 84 -25h168v-195h-213q-148 0 -218 70q-69 69 -69 215v569z" />
    <glyph glyph-name="u" unicode="u" horiz-adv-x="1157" 
d="M1049 1049v-1049h-195l-25 133q-118 -145 -323 -145q-185 0 -299 114q-115 115 -115 369v578h221v-555q0 -154 62 -234t182 -80q127 0 199 93q71 92 71 255v521h222z" />
    <glyph glyph-name="v" unicode="v" horiz-adv-x="1052" 
d="M4 1049h238l288 -811l285 811h234l-387 -1049h-271z" />
    <glyph glyph-name="w" unicode="w" horiz-adv-x="1634" 
d="M8 1049h234l239 -803l240 803h203l229 -803l248 803h225l-348 -1049h-238l-221 713l-229 -713l-240 -2z" />
    <glyph glyph-name="x" unicode="x" horiz-adv-x="1077" 
d="M406 537l-371 512h258l252 -355l256 355h241l-372 -512l395 -537h-258l-277 381l-278 -381h-240z" />
    <glyph glyph-name="y" unicode="y" horiz-adv-x="1056" 
d="M240 1049l292 -809l285 809h236l-475 -1213q-37 -92 -68 -144q-30 -50 -76 -76t-121 -26h-237v195h155q65 0 88 19q25 21 52 87l43 101l-410 1057h236z" />
    <glyph glyph-name="z" unicode="z" horiz-adv-x="999" 
d="M70 1049h858v-158l-586 -696h612v-195h-909v158l586 696h-561v195z" />
    <glyph glyph-name="braceleft" unicode="{" horiz-adv-x="686" 
d="M456 1195q-46 -43 -46 -124q0 -29 6 -67l41 -181q10 -44 10 -78q0 -85 -54 -147t-151 -86q97 -17 152 -76t55 -147q0 -39 -12 -88l-41 -181q-6 -38 -6 -69q0 -79 47 -123q46 -43 133 -43l67 -2v-193h-59q-186 0 -293 84q-106 84 -106 232q0 45 8 88l37 192q6 27 6 74
q0 150 -197 156v192q98 5 148 43q51 39 51 113q0 32 -8 74l-37 192q-8 43 -8 88q0 148 106 232q107 84 293 84h59v-193l-67 -2q-87 0 -134 -44z" />
    <glyph glyph-name="bar" unicode="|" horiz-adv-x="485" 
d="M131 1434h223v-1844h-223v1844z" />
    <glyph glyph-name="braceright" unicode="}" horiz-adv-x="686" 
d="M436 260q0 -47 6 -74l37 -192q8 -43 8 -88q0 -148 -106 -232t-293 -84h-59v193l67 2q87 0 133 43q47 44 47 123q0 31 -6 69l-41 181q-12 50 -12 88q0 88 55 147t152 76q-97 24 -151 86t-54 147q0 34 10 78l41 181q6 38 6 67q0 81 -46 124q-47 44 -134 44l-67 2v193h59
q186 0 293 -84q106 -84 106 -232q0 -45 -8 -88l-37 -192q-8 -42 -8 -74q0 -74 51 -113q50 -38 148 -43v-192q-197 -6 -197 -156z" />
    <glyph glyph-name="asciitilde" unicode="~" 
d="M104 395q0 158 66 242t184 84q70 0 116 -21q52 -24 99 -57q30 -24 59 -38q22 -11 50 -11q55 0 79 33q23 32 23 94h181q0 -159 -66 -241q-66 -83 -184 -83q-68 0 -116 20q-46 19 -101 58q-37 27 -57 37q-24 12 -50 12q-102 0 -102 -129h-181z" />
    <glyph glyph-name="exclamdown" unicode="&#xa1;" horiz-adv-x="546" 
d="M402 1407q40 -39 40 -100q0 -62 -40 -101t-101 -39t-102 39t-41 101q0 61 41 100t102 39t101 -39zM217 997h168l35 -997h-238z" />
    <glyph glyph-name="cent" unicode="&#xa2;" horiz-adv-x="1144" 
d="M762 419q67 53 88 146h225q-27 -154 -122 -253q-94 -99 -248 -126v-186h-199v182q-201 27 -319 170q-117 142 -117 363q0 216 117 357q119 143 319 171v191h199v-193q152 -27 247 -125q96 -99 123 -252h-227q-23 92 -90 144q-68 53 -166 53q-133 0 -214 -96t-81 -250
q0 -155 81 -253q81 -97 214 -97q102 0 170 54z" />
    <glyph glyph-name="sterling" unicode="&#xa3;" horiz-adv-x="1265" 
d="M233 750l-12 47q-17 69 -24 109q-9 50 -9 91q0 130 65 233q65 102 175 159q111 57 246 57q228 0 365 -125t153 -348h-223q-17 129 -87 201q-70 71 -198 71q-122 0 -196 -71t-74 -191q0 -39 10 -85q14 -64 22 -95l15 -53h416v-175h-396q2 -20 2 -43q0 -82 -34 -168
q-34 -85 -97 -153l836 -4v-207h-1082v197q77 84 114 180q38 101 34 198h-180v175h159z" />
    <glyph glyph-name="currency" unicode="&#xa4;" horiz-adv-x="1312" 
d="M393 1137q115 77 264 77q147 0 263 -77l149 147l156 -154l-146 -145q88 -118 88 -283q0 -145 -75 -266l133 -133l-156 -153l-131 131q-124 -91 -281 -91q-158 0 -282 91l-131 -131l-156 155l133 133q-76 122 -76 264q0 165 88 283l-145 145l156 154zM429 473
q89 -90 228 -90t227 90q89 91 89 229q0 139 -89 230q-89 90 -227 90q-139 0 -228 -90q-89 -91 -89 -230q0 -138 89 -229z" />
    <glyph glyph-name="yen" unicode="&#xa5;" horiz-adv-x="1382" 
d="M1317 1436l-447 -768h293v-164h-372v-148h372v-163h-372v-193h-236v193h-375v163h375v148h-375v164h293l-457 768h279l377 -658l383 658h262z" />
    <glyph glyph-name="brokenbar" unicode="&#xa6;" horiz-adv-x="485" 
d="M131 1434h223v-828h-223v828zM131 412h223v-822h-223v822z" />
    <glyph glyph-name="section" unicode="&#xa7;" horiz-adv-x="1247" 
d="M1065 452q-57 -69 -164 -108q64 -39 99 -97q34 -56 34 -141q0 -146 -112 -234q-113 -89 -299 -89q-180 0 -296 86q-117 86 -124 231h219q4 -71 58 -111q53 -40 143 -40q89 0 141 37q53 38 53 104q0 77 -52 111q-51 34 -171 67q-163 47 -251 82q-94 38 -155 102t-61 162
q0 190 213 275q-60 40 -95 97q-34 56 -34 136q0 146 115 235t303 89q179 0 292 -85t121 -233h-217q-5 74 -57 113t-139 39q-91 0 -146 -37q-54 -37 -53 -102q0 -76 53 -112q50 -34 170 -68q168 -47 252 -82q91 -38 155 -101q62 -62 62 -162q0 -95 -57 -164zM731 416
q160 51 160 182q0 51 -30 84q-29 31 -84 53q-47 18 -154 47l-45 13l-58 16q-164 -50 -164 -180q0 -51 30 -84q29 -31 84 -53q53 -21 155 -48z" />
    <glyph glyph-name="dieresis" unicode="&#xa8;" horiz-adv-x="819" 
d="M119 1394q38 36 92 36q55 0 92 -36t37 -89q0 -54 -37 -90q-36 -35 -92 -35t-92 35q-37 36 -37 90q0 53 37 89zM518 1394q38 36 90 36q54 0 92 -36q37 -36 37 -89q0 -54 -37 -90q-36 -35 -92 -35q-54 0 -90 35q-37 36 -37 90q0 53 37 89z" />
    <glyph glyph-name="copyright" unicode="&#xa9;" horiz-adv-x="1650" 
d="M176 1087q100 168 268 263q169 96 379 96q209 0 381 -96q170 -95 271 -264q98 -165 98 -369q0 -205 -98 -370q-100 -168 -271 -263q-172 -96 -381 -96t-379 96q-169 96 -268 262q-98 165 -98 371q0 205 98 370zM1354 1026q-80 140 -219 219q-140 80 -312 80
q-169 0 -308 -80t-218 -219q-80 -140 -80 -309t80 -309q80 -141 218 -220q137 -79 308 -79q173 0 312 79t219 220q80 140 80 309t-80 309zM1077 379q-100 -82 -252 -82q-123 0 -214 57q-90 56 -139 154q-48 96 -48 211t48 211t139 153q93 58 214 58q146 0 249 -82t124 -225
h-158q-18 73 -74 119t-137 46q-117 0 -180 -79q-63 -80 -63 -201q0 -120 64 -200q64 -81 179 -81q83 0 138 45q54 44 75 121h156q-21 -143 -121 -225z" />
    <glyph glyph-name="ordfeminine" unicode="&#xaa;" horiz-adv-x="872" 
d="M184 1117q76 54 219 54h152v37q0 54 -37 84q-39 31 -104 31q-53 0 -88 -27t-39 -69h-162q7 102 88 161q79 58 207 58q136 0 214 -64q77 -63 77 -180v-241q0 -50 49 -50h24v-125h-79q-123 0 -123 109v12q-28 -59 -86 -94t-140 -35q-110 0 -179 48q-68 47 -68 137
q0 101 75 154zM555 1071h-156q-59 0 -93 -27t-34 -69q0 -40 29 -61q28 -21 80 -21q78 0 126 49q48 50 48 119v10zM102 633h682v-139h-682v139z" />
    <glyph glyph-name="guillemotleft" unicode="&#xab;" horiz-adv-x="1216" 
d="M631 1049l-316 -525l316 -524h-223l-320 524l320 525h223zM1126 1047l-315 -525l315 -524h-223l-319 524l319 525h223z" />
    <glyph glyph-name="logicalnot" unicode="&#xac;" 
d="M104 723h777v-522h-197v334h-580v188z" />
    <glyph glyph-name="registered" unicode="&#xae;" horiz-adv-x="1054" 
d="M146 1234q59 101 159 157q101 57 221 57q123 0 225 -57q100 -56 159 -156t59 -219q0 -117 -59 -217q-58 -99 -159 -155q-100 -56 -225 -56q-122 0 -221 56q-101 57 -159 154t-58 216q0 122 58 220zM820 1190q-43 78 -121 122q-77 44 -173 44q-94 0 -171 -44
q-78 -44 -121 -123q-44 -80 -44 -175q0 -94 44 -171t121 -121t171 -44q96 0 173 44q78 44 121 122q44 79 44 172q0 95 -44 174zM545 1249q83 0 133 -41q49 -40 49 -110q0 -46 -26 -83q-25 -35 -72 -52l102 -181h-113l-90 160h-65v-160h-103v467h185zM463 1026h76q36 0 59 20
t23 52q0 31 -22 50q-20 17 -60 17h-76v-139z" />
    <glyph glyph-name="macron" unicode="&#xaf;" horiz-adv-x="819" 
d="M113 1227v162h596v-162h-596z" />
    <glyph glyph-name="degree" unicode="&#xb0;" horiz-adv-x="882" 
d="M134 1279q48 79 128 121q83 44 180 44q98 0 181 -44q80 -42 128 -121q46 -76 46 -173q0 -95 -46 -171q-48 -79 -128 -121q-83 -44 -181 -44q-97 0 -180 44q-80 42 -128 121q-46 76 -46 171q0 97 46 173zM575 1240q-52 52 -133 52t-133 -52q-53 -53 -53 -134
q0 -79 53 -132q52 -52 133 -52t133 52q54 54 54 132q0 80 -54 134z" />
    <glyph glyph-name="plusminus" unicode="&#xb1;" 
d="M104 0v186h857v-186h-857zM430 1073h203v-346h328v-186h-328v-346h-203v346h-326v186h326v346z" />
    <glyph glyph-name="uni00B2" unicode="&#xb2;" horiz-adv-x="655" 
d="M43 1382q0 121 80 195t199 74q127 0 206 -67q78 -66 78 -175q0 -74 -37 -126q-38 -53 -106 -105l-187 -144h336v-141h-565v133l301 223q50 38 75 73q26 37 26 83q0 49 -35 79q-33 29 -90 29q-61 0 -96 -35t-35 -102v-8h-150v14z" />
    <glyph glyph-name="uni00B3" unicode="&#xb3;" horiz-adv-x="675" 
d="M135 1590q77 65 203 65t202 -58q74 -56 74 -151q0 -62 -35 -101t-90 -55q67 -12 104 -57q38 -46 38 -113q0 -109 -80 -172q-79 -63 -219 -63t-217 66q-76 66 -78 190h151q1 -57 40 -89q38 -32 104 -32q58 0 98 29q39 29 39 75q0 48 -39 75q-40 28 -106 28h-43v102h45
q58 0 95 26q36 25 36 70q0 43 -33 69q-34 26 -86 26q-57 0 -92 -29q-36 -29 -37 -78h-152q1 113 78 177z" />
    <glyph glyph-name="acute" unicode="&#xb4;" horiz-adv-x="819" 
d="M330 1151l164 283h256l-252 -283h-168z" />
    <glyph glyph-name="uni00B5" unicode="&#xb5;" horiz-adv-x="1181" 
d="M332 -410h-223v1457h221v-543q0 -159 64 -241q65 -83 188 -83q122 0 196 96q74 97 74 263v508h221v-1047h-199l-18 152q-52 -77 -128 -121q-74 -43 -181 -43q-69 0 -130 26q-62 27 -85 60v-484z" />
    <glyph glyph-name="paragraph" unicode="&#xb6;" horiz-adv-x="1443" 
d="M752 465h-183q-155 0 -273 60q-117 59 -182 170q-65 110 -65 253t65 253t182 171q119 62 271 62h396v-1434h-211v465zM1102 1434h211v-1434h-211v1434z" />
    <glyph glyph-name="periodcentered" unicode="&#xb7;" horiz-adv-x="458" 
d="M128 705q39 38 101 38q64 0 103 -38q41 -39 41 -101q0 -61 -41 -100q-40 -39 -103 -39q-61 0 -101 39t-40 100q0 62 40 101z" />
    <glyph glyph-name="cedilla" unicode="&#xb8;" horiz-adv-x="819" 
d="M481 49l-32 -125h28q85 0 134 -42q51 -43 51 -111q0 -81 -56 -131t-147 -50h-211v119h170q76 0 76 60q0 23 -21 38t-53 15h-111l56 227h116z" />
    <glyph glyph-name="uni00B9" unicode="&#xb9;" horiz-adv-x="389" 
d="M170 895v475q-12 -16 -39 -16h-131v141h127q21 0 34 19t13 47v79h145v-745h-149z" />
    <glyph glyph-name="ordmasculine" unicode="&#xba;" horiz-adv-x="864" 
d="M673 870q-92 -92 -243 -92q-150 0 -240 91t-90 243t90 244t240 92t242 -92t92 -244q0 -151 -91 -242zM309 967q45 -56 121 -56t123 56t47 145q0 88 -47 146q-47 57 -123 57t-121 -57t-45 -146q0 -90 45 -145zM98 633h668v-139h-668v139z" />
    <glyph glyph-name="guillemotright" unicode="&#xbb;" horiz-adv-x="1216" 
d="M586 1049h223l319 -525l-319 -524h-223l315 524zM90 1047h223l320 -525l-320 -524h-223l316 524z" />
    <glyph glyph-name="onequarter" unicode="&#xbc;" horiz-adv-x="1314" 
d="M170 690v475q-12 -16 -39 -16h-131v141h127q20 0 34 20q13 19 13 46v80h145v-746h-149zM41 0l909 1434h176l-907 -1434h-178zM1022 745h188v-434h115v-135h-115v-176h-149v176h-367v135zM1061 594l-215 -283h215v283z" />
    <glyph glyph-name="onehalf" unicode="&#xbd;" horiz-adv-x="1392" 
d="M170 690v475q-12 -16 -39 -16h-131v141h127q20 0 34 20q13 19 13 46v80h145v-746h-149zM41 0l909 1434h176l-907 -1434h-178zM793 489q0 122 79 195q80 74 199 74q128 0 207 -67q78 -66 78 -175q0 -74 -37 -126t-107 -105l-186 -144h336v-141h-565v133l301 223
q48 36 74 73t26 83q0 49 -35 79t-90 30q-59 0 -95 -36t-36 -102v-8h-149v14z" />
    <glyph glyph-name="threequarters" unicode="&#xbe;" horiz-adv-x="1601" 
d="M135 1385q77 65 203 65q127 0 202 -57q74 -56 74 -152q0 -62 -35 -101t-90 -55q67 -12 104 -57q38 -46 38 -113q0 -109 -80 -172q-79 -63 -219 -63t-217 66q-76 66 -78 190h151q1 -57 40 -89q38 -32 104 -32q58 0 98 29q39 28 39 76q0 47 -39 74q-40 28 -106 28h-43v102
h45q58 0 95 26q36 26 36 71q0 43 -33 68q-34 26 -86 26q-57 0 -92 -29q-36 -29 -37 -78h-152q1 112 78 177zM328 0l909 1434h176l-907 -1434h-178zM1309 745h188v-434h115v-135h-115v-176h-149v176h-367v135zM1348 594l-215 -283h215v283z" />
    <glyph glyph-name="questiondown" unicode="&#xbf;" horiz-adv-x="1062" 
d="M646 1209q-41 -38 -101 -38q-61 0 -101 38q-38 37 -38 100q0 62 38 99q40 38 101 38q60 0 101 -38q40 -37 40 -99q0 -63 -40 -100zM949 224q-59 -111 -169 -173q-111 -63 -258 -63q-138 0 -243 48q-104 48 -161 133t-57 191q0 128 55 207q56 81 152 148q100 70 138 114
q40 46 40 117v41h209v-65q0 -78 -27 -134q-26 -53 -72 -93q-44 -37 -120 -87q-73 -49 -109 -102q-36 -52 -36 -123q0 -87 63 -143q64 -56 166 -56q120 0 190 79t70 206h228q0 -135 -59 -245z" />
    <glyph glyph-name="Agrave" unicode="&#xc0;" horiz-adv-x="1384" 
d="M16 0l537 1434h281l534 -1434h-252l-135 354h-588l-133 -354h-244zM459 555h456l-229 625zM360 1835h256l158 -285h-170z" />
    <glyph glyph-name="Aacute" unicode="&#xc1;" horiz-adv-x="1384" 
d="M16 0l537 1434h281l534 -1434h-252l-135 354h-588l-133 -354h-244zM459 555h456l-229 625zM614 1552l164 283h256l-252 -283h-168z" />
    <glyph glyph-name="Acircumflex" unicode="&#xc2;" horiz-adv-x="1384" 
d="M16 0l537 1434h281l534 -1434h-252l-135 354h-588l-133 -354h-244zM459 555h456l-229 625zM694 1698l-155 -148h-207l260 285h205l260 -285h-209z" />
    <glyph glyph-name="Atilde" unicode="&#xc3;" horiz-adv-x="1384" 
d="M16 0l537 1434h281l534 -1434h-252l-135 354h-588l-133 -354h-244zM459 555h456l-229 625zM542 1663q-20 -28 -20 -66h-133v33q0 88 51 145q50 56 133 56q47 0 76 -15q26 -14 66 -44q22 -20 40 -31q17 -10 40 -10q34 0 51 26q18 27 18 66h135v-33q0 -88 -51 -145
q-52 -58 -133 -58q-49 0 -80 17q-32 18 -61 45q-19 18 -40 30q-19 11 -40 11q-32 0 -52 -27z" />
    <glyph glyph-name="Adieresis" unicode="&#xc4;" horiz-adv-x="1384" 
d="M16 0l537 1434h281l534 -1434h-252l-135 354h-588l-133 -354h-244zM459 555h456l-229 625zM403 1795q37 36 93 36q54 0 92 -36q37 -36 37 -89t-37 -89q-38 -36 -92 -36q-56 0 -93 36q-36 35 -36 89t36 89zM803 1795q37 36 90 36q54 0 92 -36q37 -36 37 -89t-37 -89
q-38 -36 -92 -36q-53 0 -90 36t-37 89t37 89z" />
    <glyph glyph-name="Aring" unicode="&#xc5;" horiz-adv-x="1384" 
d="M1368 0h-252l-135 354h-588l-133 -354h-244l525 1401q-45 33 -72 83t-27 107q0 96 73 166t177 70t177 -70t73 -166q0 -56 -26 -106t-70 -84zM603 1680q-36 -36 -36 -89q0 -55 36 -92t89 -37t89 37t36 92q0 53 -36 89t-89 36t-89 -36zM459 555h456l-229 625z" />
    <glyph glyph-name="AE" unicode="&#xc6;" horiz-adv-x="1996" 
d="M1208 209h725v-209h-960v336h-524l-209 -336h-244l856 1434h1057v-209h-701v-398h578v-202h-578v-416zM555 532h418v703z" />
    <glyph glyph-name="Ccedilla" unicode="&#xc7;" horiz-adv-x="1445" 
d="M1005 272q99 78 134 215h235q-33 -213 -178 -346t-367 -151l-16 -66h29q84 0 134 -42t50 -111q0 -82 -55 -131q-56 -50 -148 -50h-211v119h170q76 0 76 60q0 24 -20 38q-21 15 -54 15h-110l41 168q-196 11 -339 103q-144 93 -222 254t-78 370q0 218 85 382
q85 165 241 256q155 91 366 91q160 0 292 -62q130 -61 212 -175q81 -113 104 -263h-235q-35 137 -135 215q-101 78 -248 78q-132 0 -234 -67q-101 -66 -153 -184q-54 -122 -54 -271t54 -271q53 -119 153 -185t234 -66q149 0 247 77z" />
    <glyph glyph-name="Egrave" unicode="&#xc8;" horiz-adv-x="1153" 
d="M131 1434h936v-209h-700v-398h577v-202h-577v-416h725v-209h-961v1434zM262 1835h256l158 -285h-170z" />
    <glyph glyph-name="Eacute" unicode="&#xc9;" horiz-adv-x="1153" 
d="M131 1434h936v-209h-700v-398h577v-202h-577v-416h725v-209h-961v1434zM516 1552l164 283h256l-252 -283h-168z" />
    <glyph glyph-name="Ecircumflex" unicode="&#xca;" horiz-adv-x="1153" 
d="M131 1434h936v-209h-700v-398h577v-202h-577v-416h725v-209h-961v1434zM596 1698l-156 -148h-207l261 285h204l260 -285h-208z" />
    <glyph glyph-name="Edieresis" unicode="&#xcb;" horiz-adv-x="1153" 
d="M131 1434h936v-209h-700v-398h577v-202h-577v-416h725v-209h-961v1434zM305 1795q37 36 92 36t92 -36t37 -89t-37 -89t-92 -36t-92 36t-37 89t37 89zM705 1795q37 36 90 36q55 0 92 -36t37 -89t-37 -89t-92 -36q-53 0 -90 36t-37 89t37 89z" />
    <glyph glyph-name="Igrave" unicode="&#xcc;" horiz-adv-x="497" 
d="M131 1434h236v-1434h-236v1434zM-86 1835h256l158 -285h-170z" />
    <glyph glyph-name="Iacute" unicode="&#xcd;" horiz-adv-x="497" 
d="M131 1434h236v-1434h-236v1434zM168 1552l164 283h256l-252 -283h-168z" />
    <glyph glyph-name="Icircumflex" unicode="&#xce;" horiz-adv-x="497" 
d="M131 1434h236v-1434h-236v1434zM248 1698l-156 -148h-207l260 285h205l260 -285h-209z" />
    <glyph glyph-name="Idieresis" unicode="&#xcf;" horiz-adv-x="497" 
d="M131 1434h236v-1434h-236v1434zM-43 1795q38 36 92 36t92 -36q37 -36 37 -89t-37 -89q-38 -36 -92 -36q-55 0 -92 36t-37 89t37 89zM356 1795q38 36 90 36q56 0 93 -36q36 -35 36 -89t-36 -89q-37 -36 -93 -36q-52 0 -90 36q-37 36 -37 89t37 89z" />
    <glyph glyph-name="Eth" unicode="&#xd0;" horiz-adv-x="1413" 
d="M1004 1343q163 -90 251 -251t88 -375q0 -211 -88 -374q-89 -164 -251 -253q-164 -90 -383 -90h-457v639h-170v178h170v617h457q218 0 383 -91zM977 343q125 139 125 374t-125 374q-125 138 -356 138h-222v-412h265v-178h-265v-434h222q231 0 356 138z" />
    <glyph glyph-name="Ntilde" unicode="&#xd1;" horiz-adv-x="1406" 
d="M131 0v1434h215l698 -1016v1016h232v-1434h-215l-699 1016v-1016h-231zM536 1663q-20 -28 -20 -66h-133v33q0 88 51 145q50 56 133 56q47 0 76 -15q26 -14 66 -44q22 -20 40 -31q17 -10 39 -10q35 0 52 26q18 27 18 66h135v-33q0 -88 -51 -145q-52 -58 -133 -58
q-49 0 -80 17q-32 18 -61 45q-19 18 -40 30q-19 11 -40 11q-32 0 -52 -27z" />
    <glyph glyph-name="Ograve" unicode="&#xd2;" horiz-adv-x="1544" 
d="M1380 342q-88 -166 -246 -260t-362 -94q-203 0 -361 94q-159 95 -247 260q-88 166 -88 375t88 375q88 165 247 260q158 94 361 94q204 0 362 -94t246 -260t88 -375t-88 -375zM375 447q57 -120 161 -186q103 -66 236 -66q134 0 237 66t160 186q58 122 58 270
q0 147 -58 269q-57 120 -160 186q-105 67 -237 67q-131 0 -236 -67q-104 -66 -161 -186q-58 -122 -58 -269q0 -148 58 -270zM438 1835h256l158 -285h-170z" />
    <glyph glyph-name="Oacute" unicode="&#xd3;" horiz-adv-x="1544" 
d="M1380 342q-88 -166 -246 -260t-362 -94q-203 0 -361 94q-159 95 -247 260q-88 166 -88 375t88 375q88 165 247 260q158 94 361 94q204 0 362 -94t246 -260t88 -375t-88 -375zM375 447q57 -120 161 -186q103 -66 236 -66q134 0 237 66t160 186q58 122 58 270
q0 147 -58 269q-57 120 -160 186q-105 67 -237 67q-131 0 -236 -67q-104 -66 -161 -186q-58 -122 -58 -269q0 -148 58 -270zM692 1552l164 283h256l-252 -283h-168z" />
    <glyph glyph-name="Ocircumflex" unicode="&#xd4;" horiz-adv-x="1544" 
d="M1380 342q-88 -166 -246 -260t-362 -94q-203 0 -361 94q-159 95 -247 260q-88 166 -88 375t88 375q88 165 247 260q158 94 361 94q204 0 362 -94t246 -260t88 -375t-88 -375zM375 447q57 -120 161 -186q103 -66 236 -66q134 0 237 66t160 186q58 122 58 270
q0 147 -58 269q-57 120 -160 186q-105 67 -237 67q-131 0 -236 -67q-104 -66 -161 -186q-58 -122 -58 -269q0 -148 58 -270zM772 1698l-156 -148h-206l260 285h204l261 -285h-209z" />
    <glyph glyph-name="Otilde" unicode="&#xd5;" horiz-adv-x="1544" 
d="M1380 342q-88 -166 -246 -260t-362 -94q-203 0 -361 94q-159 95 -247 260q-88 166 -88 375t88 375q88 165 247 260q158 94 361 94q204 0 362 -94t246 -260t88 -375t-88 -375zM375 447q57 -120 161 -186q103 -66 236 -66q134 0 237 66t160 186q58 122 58 270
q0 147 -58 269q-57 120 -160 186q-105 67 -237 67q-131 0 -236 -67q-104 -66 -161 -186q-58 -122 -58 -269q0 -148 58 -270zM620 1663q-20 -28 -20 -66h-133v33q0 88 51 145q50 56 133 56q47 0 76 -15q26 -14 66 -44q22 -20 40 -31q17 -10 39 -10q35 0 52 26q18 27 18 66
h135v-33q0 -88 -51 -145q-52 -58 -133 -58q-49 0 -80 17q-32 18 -61 45q-19 18 -40 30q-19 11 -40 11q-32 0 -52 -27z" />
    <glyph glyph-name="Odieresis" unicode="&#xd6;" horiz-adv-x="1544" 
d="M1380 342q-88 -166 -246 -260t-362 -94q-203 0 -361 94q-159 95 -247 260q-88 166 -88 375t88 375q88 165 247 260q158 94 361 94q204 0 362 -94t246 -260t88 -375t-88 -375zM375 447q57 -120 161 -186q103 -66 236 -66q134 0 237 66t160 186q58 122 58 270
q0 147 -58 269q-57 120 -160 186q-105 67 -237 67q-131 0 -236 -67q-104 -66 -161 -186q-58 -122 -58 -269q0 -148 58 -270zM481 1795q37 36 92 36t93 -36q36 -35 36 -89t-36 -89q-38 -36 -93 -36t-92 36t-37 89t37 89zM881 1795q37 36 90 36q55 0 92 -36t37 -89t-37 -89
t-92 -36q-53 0 -90 36t-37 89t37 89z" />
    <glyph glyph-name="multiply" unicode="&#xd7;" 
d="M246 1006l293 -291l284 286l131 -131l-284 -286l291 -291l-144 -141l-291 290l-284 -286l-131 133l286 284l-291 291z" />
    <glyph glyph-name="Oslash" unicode="&#xd8;" horiz-adv-x="1544" 
d="M1325 1174q70 -96 107 -211q36 -112 36 -246q0 -209 -88 -375t-246 -260t-362 -94q-123 0 -235 38q-111 38 -199 109l-139 -147l-123 121l143 151q-143 194 -143 457q0 209 88 375q88 165 247 260q158 94 361 94q124 0 236 -38q107 -36 198 -110l142 148l120 -121z
M381 430l676 711q-113 98 -285 98q-131 0 -236 -67q-104 -66 -161 -186q-58 -122 -58 -269q0 -162 64 -287zM1163 1004l-674 -711q113 -98 283 -98q134 0 237 66t160 186q58 122 58 270q0 162 -64 287z" />
    <glyph glyph-name="Ugrave" unicode="&#xd9;" horiz-adv-x="1376" 
d="M358 1434v-832q0 -201 80 -304q79 -101 248 -101q171 0 251 101q81 102 81 304v832h235v-820q0 -308 -144 -467t-423 -159q-276 0 -420 159q-143 158 -143 467v820h235zM354 1835h256l158 -285h-170z" />
    <glyph glyph-name="Uacute" unicode="&#xda;" horiz-adv-x="1376" 
d="M358 1434v-832q0 -201 80 -304q79 -101 248 -101q171 0 251 101q81 102 81 304v832h235v-820q0 -308 -144 -467t-423 -159q-276 0 -420 159q-143 158 -143 467v820h235zM608 1552l164 283h256l-252 -283h-168z" />
    <glyph glyph-name="Ucircumflex" unicode="&#xdb;" horiz-adv-x="1376" 
d="M358 1434v-832q0 -201 80 -304q79 -101 248 -101q171 0 251 101q81 102 81 304v832h235v-820q0 -308 -144 -467t-423 -159q-276 0 -420 159q-143 158 -143 467v820h235zM688 1698l-156 -148h-206l260 285h205l260 -285h-209z" />
    <glyph glyph-name="Udieresis" unicode="&#xdc;" horiz-adv-x="1376" 
d="M358 1434v-832q0 -201 80 -304q79 -101 248 -101q171 0 251 101q81 102 81 304v832h235v-820q0 -308 -144 -467t-423 -159q-276 0 -420 159q-143 158 -143 467v820h235zM397 1795q37 36 92 36t93 -36q36 -35 36 -89t-36 -89q-38 -36 -93 -36t-92 36t-37 89t37 89z
M797 1795q37 36 90 36q55 0 92 -36t37 -89t-37 -89t-92 -36q-53 0 -90 36t-37 89t37 89z" />
    <glyph glyph-name="Yacute" unicode="&#xdd;" horiz-adv-x="1325" 
d="M10 1436h277l377 -658l387 658h264l-535 -906v-530h-235v530zM586 1552l164 283h256l-252 -283h-168z" />
    <glyph glyph-name="Thorn" unicode="&#xde;" horiz-adv-x="1243" 
d="M367 1434v-236h301q249 0 386 -121q138 -122 138 -338q0 -217 -141 -337q-140 -119 -385 -119h-299v-283h-236v1434h236zM367 489h295q139 0 216 65q76 64 76 185q0 126 -76 190t-214 64h-297v-504z" />
    <glyph glyph-name="germandbls" unicode="&#xdf;" horiz-adv-x="1236" 
d="M502 23v178q88 -33 194 -33q116 0 188 63t72 170q0 119 -92 182q-90 62 -246 62q-21 0 -61 -4v176q146 1 221 67q74 65 74 165q0 96 -66 153q-67 58 -176 58q-117 0 -186 -72q-70 -73 -70 -193v-995h-223v981q0 149 64 256q62 104 172 157q107 52 243 52q139 0 244 -46
q107 -47 165 -131q58 -85 58 -196q-2 -115 -63 -197q-62 -83 -158 -116q155 -33 241 -122q85 -88 85 -241q0 -125 -60 -218q-60 -92 -165 -142q-104 -49 -236 -49q-109 0 -219 35z" />
    <glyph glyph-name="agrave" unicode="&#xe0;" horiz-adv-x="1124" 
d="M1112 193v-193h-117q-103 0 -147 43q-45 43 -45 125q-119 -180 -346 -180q-177 0 -283 82t-106 225q0 162 114 249t334 87h264v63q0 90 -61 139q-62 50 -170 50q-96 0 -159 -42t-75 -112h-217q17 158 140 245t321 87q213 0 326 -98q114 -99 114 -283v-414q0 -73 70 -73
h43zM780 467h-274q-103 0 -158 -40t-55 -118q0 -68 52 -108q53 -41 142 -41q138 0 214 73q78 74 79 197v37zM219 1450h256l158 -285h-170z" />
    <glyph glyph-name="aacute" unicode="&#xe1;" horiz-adv-x="1124" 
d="M1112 193v-193h-117q-103 0 -147 43q-45 43 -45 125q-119 -180 -346 -180q-177 0 -283 82t-106 225q0 162 114 249t334 87h264v63q0 90 -61 139q-62 50 -170 50q-96 0 -159 -42t-75 -112h-217q17 158 140 245t321 87q213 0 326 -98q114 -99 114 -283v-414q0 -73 70 -73
h43zM780 467h-274q-103 0 -158 -40t-55 -118q0 -68 52 -108q53 -41 142 -41q138 0 214 73q78 74 79 197v37zM473 1167l164 283h256l-252 -283h-168z" />
    <glyph glyph-name="acircumflex" unicode="&#xe2;" horiz-adv-x="1124" 
d="M1112 193v-193h-117q-103 0 -147 43q-45 43 -45 125q-119 -180 -346 -180q-177 0 -283 82t-106 225q0 162 114 249t334 87h264v63q0 90 -61 139q-62 50 -170 50q-96 0 -159 -42t-75 -112h-217q17 158 140 245t321 87q213 0 326 -98q114 -99 114 -283v-414q0 -73 70 -73
h43zM780 467h-274q-103 0 -158 -40t-55 -118q0 -68 52 -108q53 -41 142 -41q138 0 214 73q78 74 79 197v37zM553 1313l-156 -148h-207l261 285h204l260 -285h-208z" />
    <glyph glyph-name="atilde" unicode="&#xe3;" horiz-adv-x="1124" 
d="M1112 193v-193h-117q-103 0 -147 43q-45 43 -45 125q-119 -180 -346 -180q-177 0 -283 82t-106 225q0 162 114 249t334 87h264v63q0 90 -61 139q-62 50 -170 50q-96 0 -159 -42t-75 -112h-217q17 158 140 245t321 87q213 0 326 -98q114 -99 114 -283v-414q0 -73 70 -73
h43zM780 467h-274q-103 0 -158 -40t-55 -118q0 -68 52 -108q53 -41 142 -41q138 0 214 73q78 74 79 197v37zM400 1278q-19 -26 -19 -66h-133v33q0 88 51 145q50 56 133 56q48 0 76 -15q19 -10 65 -45q19 -18 40 -30q17 -10 40 -10q35 0 52 26q18 27 18 66h135v-33
q0 -88 -51 -145q-52 -58 -133 -58q-49 0 -80 17q-35 19 -62 45q-21 19 -39 30q-19 11 -40 11q-33 0 -53 -27z" />
    <glyph glyph-name="adieresis" unicode="&#xe4;" horiz-adv-x="1124" 
d="M1112 193v-193h-117q-103 0 -147 43q-45 43 -45 125q-119 -180 -346 -180q-177 0 -283 82t-106 225q0 162 114 249t334 87h264v63q0 90 -61 139q-62 50 -170 50q-96 0 -159 -42t-75 -112h-217q17 158 140 245t321 87q213 0 326 -98q114 -99 114 -283v-414q0 -73 70 -73
h43zM780 467h-274q-103 0 -158 -40t-55 -118q0 -68 52 -108q53 -41 142 -41q138 0 214 73q78 74 79 197v37zM262 1410q38 36 92 36t92 -36q37 -36 37 -89t-37 -89q-38 -36 -92 -36t-92 36q-37 36 -37 89t37 89zM662 1410q38 36 90 36q54 0 92 -36q37 -36 37 -89t-37 -89
q-38 -36 -92 -36q-52 0 -90 36q-37 36 -37 89t37 89z" />
    <glyph glyph-name="aring" unicode="&#xe5;" horiz-adv-x="1124" 
d="M1112 193v-193h-117q-103 0 -147 43q-45 43 -45 125q-119 -180 -346 -180q-177 0 -283 82t-106 225q0 162 114 249t334 87h264v63q0 90 -61 139q-62 50 -170 50q-96 0 -159 -42t-75 -112h-217q17 158 140 245t321 87q213 0 326 -98q114 -99 114 -283v-414q0 -73 70 -73
h43zM780 467h-274q-103 0 -158 -40t-55 -118q0 -68 52 -108q53 -41 142 -41q138 0 214 73q78 74 79 197v37zM376 1542q73 70 177 70t177 -70t73 -166q0 -100 -73 -170q-72 -69 -177 -69t-177 69q-73 70 -73 170q0 96 73 166zM642 1465q-36 36 -89 36t-89 -36t-36 -89
q0 -54 36 -92q36 -37 89 -37t89 37q36 38 36 92q0 53 -36 89z" />
    <glyph glyph-name="ae" unicode="&#xe6;" horiz-adv-x="1855" 
d="M991 477v-12q6 -136 85 -216q80 -81 208 -81q101 0 171 49q71 49 93 135h221q-29 -161 -155 -262q-128 -102 -314 -102q-139 0 -246 55q-108 55 -171 158q-66 -101 -170 -157q-103 -56 -244 -56q-180 0 -290 82q-111 82 -111 225q0 159 114 245q113 85 334 85h264v69
q0 90 -61 139q-62 50 -170 50q-96 0 -159 -42t-75 -112h-217q17 158 140 245t321 87q125 0 219 -42t144 -122q64 80 153 122q90 42 199 42q149 0 264 -62q114 -61 180 -174q67 -113 68 -264q0 -41 -6 -84h-789zM1091 816q-80 -66 -92 -177h562q-12 113 -90 179
q-77 65 -195 65q-104 0 -185 -67zM780 463h-268q-105 0 -163 -38q-56 -37 -56 -116q0 -68 52 -108q53 -41 142 -41q135 0 214 72t79 192v39z" />
    <glyph glyph-name="ccedilla" unicode="&#xe7;" horiz-adv-x="1144" 
d="M762 230q66 53 88 147h225q-28 -167 -138 -269q-109 -101 -286 -118l-16 -66h29q84 0 134 -42t50 -111q0 -82 -55 -131q-56 -50 -148 -50h-211v119h170q76 0 76 60q0 23 -21 38t-53 15h-110l41 168q-212 18 -340 163q-127 143 -127 373q0 161 65 281q66 121 186 187
q122 67 277 67q197 0 322 -104t155 -281h-227q-23 91 -90 143q-68 53 -166 53q-133 0 -214 -96t-81 -250q0 -156 81 -253t214 -97q102 0 170 54z" />
    <glyph glyph-name="egrave" unicode="&#xe8;" horiz-adv-x="1167" 
d="M134 806q65 122 180 188q117 67 266 67q151 0 267 -62t182 -174q68 -115 69 -264q0 -41 -6 -84h-791v-12q8 -137 86 -217t207 -80q103 0 172 48q70 49 92 136h221q-29 -161 -154 -262q-126 -102 -315 -102q-164 0 -285 66q-123 67 -189 188q-66 122 -66 280q0 163 64 284
zM872 639q-15 115 -91 179q-77 65 -193 65q-107 0 -188 -67q-79 -66 -91 -177h563zM244 1450h256l157 -285h-170z" />
    <glyph glyph-name="eacute" unicode="&#xe9;" horiz-adv-x="1167" 
d="M134 806q65 122 180 188q117 67 266 67q151 0 267 -62t182 -174q68 -115 69 -264q0 -41 -6 -84h-791v-12q8 -137 86 -217t207 -80q103 0 172 48q70 49 92 136h221q-29 -161 -154 -262q-126 -102 -315 -102q-164 0 -285 66q-123 67 -189 188q-66 122 -66 280q0 163 64 284
zM872 639q-15 115 -91 179q-77 65 -193 65q-107 0 -188 -67q-79 -66 -91 -177h563zM498 1167l164 283h256l-252 -283h-168z" />
    <glyph glyph-name="ecircumflex" unicode="&#xea;" horiz-adv-x="1167" 
d="M134 806q65 122 180 188q117 67 266 67q151 0 267 -62t182 -174q68 -115 69 -264q0 -41 -6 -84h-791v-12q8 -137 86 -217t207 -80q103 0 172 48q70 49 92 136h221q-29 -161 -154 -262q-126 -102 -315 -102q-164 0 -285 66q-123 67 -189 188q-66 122 -66 280q0 163 64 284
zM872 639q-15 115 -91 179q-77 65 -193 65q-107 0 -188 -67q-79 -66 -91 -177h563zM578 1313l-156 -148h-207l260 285h205l260 -285h-209z" />
    <glyph glyph-name="edieresis" unicode="&#xeb;" horiz-adv-x="1167" 
d="M134 806q65 122 180 188q117 67 266 67q151 0 267 -62t182 -174q68 -115 69 -264q0 -41 -6 -84h-791v-12q8 -137 86 -217t207 -80q103 0 172 48q70 49 92 136h221q-29 -161 -154 -262q-126 -102 -315 -102q-164 0 -285 66q-123 67 -189 188q-66 122 -66 280q0 163 64 284
zM872 639q-15 115 -91 179q-77 65 -193 65q-107 0 -188 -67q-79 -66 -91 -177h563zM287 1410q37 36 92 36t92 -36t37 -89t-37 -89t-92 -36t-92 36t-37 89t37 89zM686 1410q38 36 90 36q54 0 92 -36q37 -36 37 -89t-37 -89q-38 -36 -92 -36q-52 0 -90 36q-37 36 -37 89t37 89
z" />
    <glyph glyph-name="igrave" unicode="&#xec;" horiz-adv-x="438" 
d="M109 1049h221v-1049h-221v1049zM-113 1450h256l158 -285h-170z" />
    <glyph glyph-name="iacute" unicode="&#xed;" horiz-adv-x="438" 
d="M109 1049h221v-1049h-221v1049zM141 1167l164 283h256l-252 -283h-168z" />
    <glyph glyph-name="icircumflex" unicode="&#xee;" horiz-adv-x="438" 
d="M109 1049h221v-1049h-221v1049zM221 1313l-155 -148h-207l260 285h205l260 -285h-209z" />
    <glyph glyph-name="idieresis" unicode="&#xef;" horiz-adv-x="438" 
d="M109 1049h221v-1049h-221v1049zM-70 1410q38 36 93 36t92 -36t37 -89t-37 -89t-92 -36t-93 36q-36 35 -36 89t36 89zM330 1410q38 36 90 36q54 0 92 -36q37 -36 37 -89t-37 -89q-38 -36 -92 -36q-52 0 -90 36q-37 36 -37 89t37 89z" />
    <glyph glyph-name="eth" unicode="&#xf0;" horiz-adv-x="1222" 
d="M1044 920q89 -169 89 -371q0 -158 -62 -287q-62 -128 -182 -201q-121 -73 -293 -73q-159 0 -277 61t-184 171q-65 108 -65 249q0 146 67 252q68 107 178 162t238 55q93 0 172 -28q72 -25 147 -91q-67 162 -235 297l-240 -143l-78 131l181 108q-79 51 -203 111l125 123
q133 -54 250 -129l233 141l76 -133l-178 -106q152 -129 241 -299zM820 259q85 86 85 226q0 131 -88 210t-221 79q-134 0 -216 -87q-83 -88 -83 -218q0 -132 83 -215q82 -82 216 -82q138 0 224 87z" />
    <glyph glyph-name="ntilde" unicode="&#xf1;" horiz-adv-x="1175" 
d="M966 946q117 -113 117 -368v-578h-223v565q0 150 -63 228q-62 77 -187 77q-131 0 -206 -91q-74 -90 -74 -251v-528h-221v1049h192l25 -138q118 150 336 150q184 0 304 -115zM480 1278q-19 -26 -19 -66h-133v33q0 88 51 145q50 56 133 56q48 0 76 -15q19 -10 65 -45
q19 -18 40 -30q17 -10 40 -10q34 0 51 26q19 28 19 66h135v-33q0 -88 -51 -145q-52 -58 -133 -58q-49 0 -80 17q-35 19 -62 45q-19 18 -40 30q-19 11 -40 11q-32 0 -52 -27z" />
    <glyph glyph-name="ograve" unicode="&#xf2;" horiz-adv-x="1208" 
d="M325 54q-122 67 -189 189q-66 121 -66 281q0 158 66 280q65 120 189 189q122 68 279 68q158 0 280 -68t188 -189q67 -123 67 -280q0 -158 -67 -281t-188 -189q-122 -66 -280 -66t-279 66zM828 273q85 97 85 251t-85 251t-224 97t-223 -97t-84 -251q0 -153 84 -251
q84 -97 223 -97t224 97zM270 1450h256l158 -285h-170z" />
    <glyph glyph-name="oacute" unicode="&#xf3;" horiz-adv-x="1208" 
d="M325 54q-122 67 -189 189q-66 121 -66 281q0 158 66 280q65 120 189 189q122 68 279 68q158 0 280 -68t188 -189q67 -123 67 -280q0 -158 -67 -281t-188 -189q-122 -66 -280 -66t-279 66zM828 273q85 97 85 251t-85 251t-224 97t-223 -97t-84 -251q0 -153 84 -251
q84 -97 223 -97t224 97zM524 1167l164 283h256l-252 -283h-168z" />
    <glyph glyph-name="ocircumflex" unicode="&#xf4;" horiz-adv-x="1208" 
d="M325 54q-122 67 -189 189q-66 121 -66 281q0 158 66 280q65 120 189 189q122 68 279 68q158 0 280 -68t188 -189q67 -123 67 -280q0 -158 -67 -281t-188 -189q-122 -66 -280 -66t-279 66zM828 273q85 97 85 251t-85 251t-224 97t-223 -97t-84 -251q0 -153 84 -251
q84 -97 223 -97t224 97zM604 1313l-155 -148h-207l260 285h205l260 -285h-209z" />
    <glyph glyph-name="otilde" unicode="&#xf5;" horiz-adv-x="1208" 
d="M325 54q-122 67 -189 189q-66 121 -66 281q0 158 66 280q65 120 189 189q122 68 279 68q158 0 280 -68t188 -189q67 -123 67 -280q0 -158 -67 -281t-188 -189q-122 -66 -280 -66t-279 66zM828 273q85 97 85 251t-85 251t-224 97t-223 -97t-84 -251q0 -153 84 -251
q84 -97 223 -97t224 97zM452 1278q-20 -28 -20 -66h-133v33q0 88 51 145q50 56 133 56q47 0 76 -15q22 -12 66 -45q19 -18 40 -30q17 -10 40 -10q34 0 51 26q18 27 18 66h135v-33q0 -88 -51 -145q-52 -58 -133 -58q-49 0 -80 17q-32 18 -61 45q-19 18 -40 30q-19 11 -40 11
q-32 0 -52 -27z" />
    <glyph glyph-name="odieresis" unicode="&#xf6;" horiz-adv-x="1208" 
d="M325 54q-122 67 -189 189q-66 121 -66 281q0 158 66 280q65 120 189 189q122 68 279 68q158 0 280 -68t188 -189q67 -123 67 -280q0 -158 -67 -281t-188 -189q-122 -66 -280 -66t-279 66zM828 273q85 97 85 251t-85 251t-224 97t-223 -97t-84 -251q0 -153 84 -251
q84 -97 223 -97t224 97zM313 1410q37 36 93 36q54 0 92 -36q37 -36 37 -89t-37 -89q-38 -36 -92 -36q-56 0 -93 36t-37 89t37 89zM713 1410q37 36 90 36q55 0 92 -36t37 -89t-37 -89t-92 -36q-53 0 -90 36t-37 89t37 89z" />
    <glyph glyph-name="divide" unicode="&#xf7;" 
d="M436 1068q40 38 99 38q58 0 99 -38q40 -37 40 -97q0 -61 -40 -98t-99 -37q-61 0 -99 37q-39 37 -39 98q0 59 39 97zM104 492v186h857v-186h-857zM436 321q38 37 99 37q59 0 99 -37t40 -98q0 -60 -40 -97q-41 -38 -99 -38q-59 0 -99 38q-39 37 -39 97q0 61 39 98z" />
    <glyph glyph-name="oslash" unicode="&#xf8;" horiz-adv-x="1208" 
d="M1040 854q99 -137 99 -330q0 -158 -67 -281t-188 -189q-122 -66 -282 -66q-190 0 -326 96l-96 -96l-110 106l98 99q-98 135 -98 331q0 158 66 280q66 121 188 189t278 68q195 0 330 -98l96 98l111 -107zM324 350l464 469q-78 58 -186 58q-140 0 -225 -99
q-86 -100 -86 -254q0 -92 33 -174zM885 696l-465 -467q77 -57 182 -57q142 0 228 98q88 100 88 254q0 94 -33 172z" />
    <glyph glyph-name="ugrave" unicode="&#xf9;" horiz-adv-x="1157" 
d="M1049 1049v-1049h-195l-25 133q-118 -145 -323 -145q-185 0 -299 114q-115 115 -115 369v578h221v-555q0 -154 62 -234t182 -80q127 0 199 93q71 92 71 255v521h222zM238 1450h256l157 -285h-170z" />
    <glyph glyph-name="uacute" unicode="&#xfa;" horiz-adv-x="1157" 
d="M1049 1049v-1049h-195l-25 133q-118 -145 -323 -145q-185 0 -299 114q-115 115 -115 369v578h221v-555q0 -154 62 -234t182 -80q127 0 199 93q71 92 71 255v521h222zM492 1167l163 283h256l-252 -283h-167z" />
    <glyph glyph-name="ucircumflex" unicode="&#xfb;" horiz-adv-x="1157" 
d="M1049 1049v-1049h-195l-25 133q-118 -145 -323 -145q-185 0 -299 114q-115 115 -115 369v578h221v-555q0 -154 62 -234t182 -80q127 0 199 93q71 92 71 255v521h222zM571 1313l-155 -148h-207l260 285h205l260 -285h-209z" />
    <glyph glyph-name="udieresis" unicode="&#xfc;" horiz-adv-x="1157" 
d="M1049 1049v-1049h-195l-25 133q-118 -145 -323 -145q-185 0 -299 114q-115 115 -115 369v578h221v-555q0 -154 62 -234t182 -80q127 0 199 93q71 92 71 255v521h222zM281 1410q37 36 92 36t92 -36t37 -89t-37 -89t-92 -36t-92 36t-37 89t37 89zM680 1410q38 36 90 36
q54 0 92 -36q37 -36 37 -89t-37 -89q-38 -36 -92 -36q-52 0 -90 36q-37 36 -37 89t37 89z" />
    <glyph glyph-name="yacute" unicode="&#xfd;" horiz-adv-x="1056" 
d="M240 1049l292 -809l285 809h236l-475 -1213q-37 -92 -68 -144q-30 -50 -76 -76t-121 -26h-237v195h155q65 0 88 19q25 21 52 87l43 101l-410 1057h236zM446 1167l164 283h256l-252 -283h-168z" />
    <glyph glyph-name="thorn" unicode="&#xfe;" horiz-adv-x="1234" 
d="M326 1434v-545q56 79 141 125q86 47 203 47q143 0 256 -65t176 -186q63 -122 63 -286q0 -160 -63 -281q-64 -123 -176 -189t-256 -66q-119 0 -204 43q-86 44 -136 119v-560h-221v1844h217zM855 776q-85 96 -222 96t-221 -95t-84 -249q0 -157 84 -256q83 -98 221 -98
q137 0 222 98t85 252q0 157 -85 252z" />
    <glyph glyph-name="ydieresis" unicode="&#xff;" horiz-adv-x="1056" 
d="M240 1049l292 -809l285 809h236l-475 -1213q-37 -92 -68 -144q-30 -50 -76 -76t-121 -26h-237v195h155q65 0 88 19q25 21 52 87l43 101l-410 1057h236zM236 1410q37 36 92 36q54 0 92 -36q37 -36 37 -89t-37 -89t-92 -36q-54 0 -92 36q-37 36 -37 89t37 89zM635 1410
q37 36 90 36q55 0 92 -36t37 -89t-37 -89t-92 -36q-53 0 -90 36t-37 89t37 89z" />
    <glyph glyph-name="Amacron" unicode="&#x100;" horiz-adv-x="1384" 
d="M16 0l537 1434h281l534 -1434h-252l-135 354h-588l-133 -354h-244zM459 555h456l-229 625zM397 1628v162h596v-162h-596z" />
    <glyph glyph-name="amacron" unicode="&#x101;" horiz-adv-x="1124" 
d="M1112 193v-193h-117q-103 0 -147 43q-45 43 -45 125q-119 -180 -346 -180q-177 0 -283 82t-106 225q0 162 114 249t334 87h264v63q0 90 -61 139q-62 50 -170 50q-96 0 -159 -42t-75 -112h-217q17 158 140 245t321 87q213 0 326 -98q114 -99 114 -283v-414q0 -73 70 -73
h43zM780 467h-274q-103 0 -158 -40t-55 -118q0 -68 52 -108q53 -41 142 -41q138 0 214 73q78 74 79 197v37zM256 1243v162h596v-162h-596z" />
    <glyph glyph-name="Abreve" unicode="&#x102;" horiz-adv-x="1384" 
d="M16 0l537 1434h281l534 -1434h-252l-135 354h-588l-133 -354h-244zM459 555h456l-229 625zM561 1835q0 -60 37 -97q38 -38 94 -38q60 0 98 38q37 37 37 97h166q-5 -131 -88 -210t-215 -79t-211 78q-80 78 -84 211h166z" />
    <glyph glyph-name="abreve" unicode="&#x103;" horiz-adv-x="1124" 
d="M1112 193v-193h-117q-103 0 -147 43q-45 43 -45 125q-119 -180 -346 -180q-177 0 -283 82t-106 225q0 162 114 249t334 87h264v63q0 90 -61 139q-62 50 -170 50q-96 0 -159 -42t-75 -112h-217q17 158 140 245t321 87q213 0 326 -98q114 -99 114 -283v-414q0 -73 70 -73
h43zM780 467h-274q-103 0 -158 -40t-55 -118q0 -68 52 -108q53 -41 142 -41q138 0 214 73q78 74 79 197v37zM420 1450q0 -60 37 -97q38 -38 94 -38q59 0 97 38t38 97h166q-5 -131 -88 -210t-215 -79q-131 0 -211 78t-84 211h166z" />
    <glyph glyph-name="Aogonek" unicode="&#x104;" horiz-adv-x="1384" 
d="M1376 -256v-154h-170q-95 0 -160 51q-63 49 -63 134q0 67 37 120q39 57 102 105h-6l-135 354h-588l-133 -354h-244l537 1434h281l534 -1434q-103 -51 -153 -95q-52 -46 -52 -95q0 -66 82 -66h131zM459 555h456l-229 625z" />
    <glyph glyph-name="aogonek" unicode="&#x105;" horiz-adv-x="1124" 
d="M1120 -256v-154h-170q-95 0 -160 51q-63 49 -63 134q0 72 42 129t120 114q-86 35 -86 150q-119 -180 -346 -180q-177 0 -283 82t-106 225q0 162 114 249t334 87h264v63q0 90 -61 139q-62 50 -170 50q-96 0 -159 -42t-75 -112h-217q17 158 140 245t321 87q213 0 326 -98
q114 -99 114 -283v-414q0 -73 70 -73h43v-193q-103 -51 -153 -95q-52 -46 -52 -95q0 -66 82 -66h131zM780 467h-274q-103 0 -158 -40t-55 -118q0 -68 52 -108q53 -41 142 -41q138 0 214 73q78 74 79 197v37z" />
    <glyph glyph-name="Cacute" unicode="&#x106;" horiz-adv-x="1445" 
d="M161 1099q85 165 241 256q155 91 366 91q160 0 292 -62q130 -61 212 -175q81 -113 104 -263h-235q-35 137 -135 215q-101 78 -248 78q-132 0 -234 -67q-101 -66 -153 -184q-54 -122 -54 -271t54 -271q53 -119 153 -185t234 -66q149 0 247 77q99 78 134 215h235
q-23 -152 -103 -264q-81 -113 -210 -174q-128 -61 -293 -61q-210 0 -366 90q-155 90 -241 255q-85 164 -85 384q0 218 85 382zM688 1552l164 283h256l-252 -283h-168z" />
    <glyph glyph-name="cacute" unicode="&#x107;" horiz-adv-x="1144" 
d="M918 91q-127 -103 -326 -103q-156 0 -275 66q-118 66 -183 190q-64 122 -64 282q0 161 65 281q66 121 186 187q122 67 277 67q197 0 322 -104t155 -281h-227q-23 91 -90 143q-68 53 -166 53q-133 0 -214 -96t-81 -250q0 -156 81 -253t214 -97q102 0 170 54q66 53 88 147
h225q-30 -183 -157 -286zM520 1167l164 283h256l-252 -283h-168z" />
    <glyph glyph-name="Ccircumflex" unicode="&#x108;" horiz-adv-x="1445" 
d="M161 1099q85 165 241 256q155 91 366 91q160 0 292 -62q130 -61 212 -175q81 -113 104 -263h-235q-35 137 -135 215q-101 78 -248 78q-132 0 -234 -67q-101 -66 -153 -184q-54 -122 -54 -271t54 -271q53 -119 153 -185t234 -66q149 0 247 77q99 78 134 215h235
q-23 -152 -103 -264q-81 -113 -210 -174q-128 -61 -293 -61q-210 0 -366 90q-155 90 -241 255q-85 164 -85 384q0 218 85 382zM768 1698l-156 -148h-206l260 285h204l260 -285h-208z" />
    <glyph glyph-name="ccircumflex" unicode="&#x109;" horiz-adv-x="1144" 
d="M918 91q-127 -103 -326 -103q-156 0 -275 66q-118 66 -183 190q-64 122 -64 282q0 161 65 281q66 121 186 187q122 67 277 67q197 0 322 -104t155 -281h-227q-23 91 -90 143q-68 53 -166 53q-133 0 -214 -96t-81 -250q0 -156 81 -253t214 -97q102 0 170 54q66 53 88 147
h225q-30 -183 -157 -286zM600 1313l-156 -148h-206l260 285h204l261 -285h-209z" />
    <glyph glyph-name="Cdotaccent" unicode="&#x10a;" horiz-adv-x="1445" 
d="M161 1099q85 165 241 256q155 91 366 91q160 0 292 -62q130 -61 212 -175q81 -113 104 -263h-235q-35 137 -135 215q-101 78 -248 78q-132 0 -234 -67q-101 -66 -153 -184q-54 -122 -54 -271t54 -271q53 -119 153 -185t234 -66q149 0 247 77q99 78 134 215h235
q-23 -152 -103 -264q-81 -113 -210 -174q-128 -61 -293 -61q-210 0 -366 90q-155 90 -241 255q-85 164 -85 384q0 218 85 382zM673 1827q37 37 95 37t95 -37q38 -38 38 -92q0 -57 -38 -95q-36 -36 -95 -36t-95 36q-38 38 -38 95q0 54 38 92z" />
    <glyph glyph-name="cdotaccent" unicode="&#x10b;" horiz-adv-x="1144" 
d="M918 91q-127 -103 -326 -103q-156 0 -275 66q-118 66 -183 190q-64 122 -64 282q0 161 65 281q66 121 186 187q122 67 277 67q197 0 322 -104t155 -281h-227q-23 91 -90 143q-68 53 -166 53q-133 0 -214 -96t-81 -250q0 -156 81 -253t214 -97q102 0 170 54q66 53 88 147
h225q-30 -183 -157 -286zM505 1442q37 37 95 37t95 -37q38 -38 38 -92q0 -57 -38 -95q-36 -36 -95 -36t-95 36q-38 38 -38 95q0 54 38 92z" />
    <glyph glyph-name="Ccaron" unicode="&#x10c;" horiz-adv-x="1445" 
d="M161 1099q85 165 241 256q155 91 366 91q160 0 292 -62q130 -61 212 -175q81 -113 104 -263h-235q-35 137 -135 215q-101 78 -248 78q-132 0 -234 -67q-101 -66 -153 -184q-54 -122 -54 -271t54 -271q53 -119 153 -185t234 -66q149 0 247 77q99 78 134 215h235
q-23 -152 -103 -264q-81 -113 -210 -174q-128 -61 -293 -61q-210 0 -366 90q-155 90 -241 255q-85 164 -85 384q0 218 85 382zM768 1688l156 147h206l-260 -285h-204l-260 285h208z" />
    <glyph glyph-name="ccaron" unicode="&#x10d;" horiz-adv-x="1144" 
d="M918 91q-127 -103 -326 -103q-156 0 -275 66q-118 66 -183 190q-64 122 -64 282q0 161 65 281q66 121 186 187q122 67 277 67q197 0 322 -104t155 -281h-227q-23 91 -90 143q-68 53 -166 53q-133 0 -214 -96t-81 -250q0 -156 81 -253t214 -97q102 0 170 54q66 53 88 147
h225q-30 -183 -157 -286zM600 1303l156 147h207l-261 -285h-204l-260 285h208z" />
    <glyph glyph-name="Dcaron" unicode="&#x10e;" horiz-adv-x="1386" 
d="M131 1434h457q218 0 383 -91q164 -90 252 -251t88 -375q0 -211 -88 -374t-252 -253q-163 -90 -383 -90h-457v1434zM588 205q231 0 356 138q125 139 125 374t-125 374q-124 138 -356 138h-221v-1024h221zM649 1688l156 147h207l-260 -285h-205l-260 285h209z" />
    <glyph glyph-name="dcaron" unicode="&#x10f;" horiz-adv-x="1363" 
d="M1126 1434v-1434h-192l-27 158q-125 -170 -342 -170q-144 0 -256 64t-176 187q-63 121 -63 285q0 161 64 282q65 122 177 188q114 67 254 67q115 0 201 -42t139 -116v531h221zM823 270q84 96 84 250q0 158 -84 255t-221 97t-221 -97t-84 -251q0 -156 84 -253t221 -97
t221 96zM1282 1434h209l-129 -301h-158z" />
    <glyph glyph-name="Dcroat" unicode="&#x110;" horiz-adv-x="1419" 
d="M1004 1343q163 -90 251 -251t88 -375q0 -211 -88 -374q-89 -164 -251 -253q-164 -90 -383 -90h-457v639h-170v178h170v617h457q218 0 383 -91zM977 343q125 139 125 374t-125 374q-125 138 -356 138h-222v-412h265v-178h-265v-434h222q231 0 356 138z" />
    <glyph glyph-name="dcroat" unicode="&#x111;" horiz-adv-x="1255" 
d="M1292 1143h-166v-1143h-192l-27 158q-125 -170 -342 -170q-144 0 -256 64t-176 187q-63 121 -63 285q0 161 64 282q65 122 177 188q114 67 254 67q115 0 201 -42t139 -116v240h-291v174h291v117h221v-117h166v-174zM823 270q84 96 84 250q0 158 -84 255t-221 97t-221 -97
t-84 -251q0 -156 84 -253t221 -97t221 96z" />
    <glyph glyph-name="Emacron" unicode="&#x112;" horiz-adv-x="1153" 
d="M131 1434h936v-209h-700v-398h577v-202h-577v-416h725v-209h-961v1434zM299 1628v162h596v-162h-596z" />
    <glyph glyph-name="emacron" unicode="&#x113;" horiz-adv-x="1167" 
d="M134 806q65 122 180 188q117 67 266 67q151 0 267 -62t182 -174q68 -115 69 -264q0 -41 -6 -84h-791v-12q8 -137 86 -217t207 -80q103 0 172 48q70 49 92 136h221q-29 -161 -154 -262q-126 -102 -315 -102q-164 0 -285 66q-123 67 -189 188q-66 122 -66 280q0 163 64 284
zM872 639q-15 115 -91 179q-77 65 -193 65q-107 0 -188 -67q-79 -66 -91 -177h563zM281 1243v162h596v-162h-596z" />
    <glyph glyph-name="Ebreve" unicode="&#x114;" horiz-adv-x="1153" 
d="M131 1434h936v-209h-700v-398h577v-202h-577v-416h725v-209h-961v1434zM463 1835q0 -60 37 -97q38 -38 94 -38q59 0 97 38t38 97h166q-5 -131 -88 -210t-215 -79t-211 78q-80 78 -84 211h166z" />
    <glyph glyph-name="ebreve" unicode="&#x115;" horiz-adv-x="1167" 
d="M134 806q65 122 180 188q117 67 266 67q151 0 267 -62t182 -174q68 -115 69 -264q0 -41 -6 -84h-791v-12q8 -137 86 -217t207 -80q103 0 172 48q70 49 92 136h221q-29 -161 -154 -262q-126 -102 -315 -102q-164 0 -285 66q-123 67 -189 188q-66 122 -66 280q0 163 64 284
zM872 639q-15 115 -91 179q-77 65 -193 65q-107 0 -188 -67q-79 -66 -91 -177h563zM444 1450q0 -60 37 -97q38 -38 94 -38q60 0 98 38t38 97h166q-4 -130 -89 -210q-83 -79 -215 -79q-131 0 -211 78q-78 77 -83 211h165z" />
    <glyph glyph-name="Edotaccent" unicode="&#x116;" horiz-adv-x="1153" 
d="M131 1434h936v-209h-700v-398h577v-202h-577v-416h725v-209h-961v1434zM501 1827q37 37 95 37t95 -37q38 -38 38 -92q0 -57 -38 -95q-36 -36 -95 -36t-95 36q-38 38 -38 95q0 54 38 92z" />
    <glyph glyph-name="edotaccent" unicode="&#x117;" horiz-adv-x="1167" 
d="M134 806q65 122 180 188q117 67 266 67q151 0 267 -62t182 -174q68 -115 69 -264q0 -41 -6 -84h-791v-12q8 -137 86 -217t207 -80q103 0 172 48q70 49 92 136h221q-29 -161 -154 -262q-126 -102 -315 -102q-164 0 -285 66q-123 67 -189 188q-66 122 -66 280q0 163 64 284
zM872 639q-15 115 -91 179q-77 65 -193 65q-107 0 -188 -67q-79 -66 -91 -177h563zM482 1442q37 37 96 37q58 0 95 -37q38 -38 38 -92q0 -57 -38 -95q-36 -36 -95 -36q-60 0 -96 36q-38 38 -38 95q0 54 38 92z" />
    <glyph glyph-name="Eogonek" unicode="&#x118;" horiz-adv-x="1153" 
d="M1100 -256v-154h-170q-96 0 -161 51q-62 49 -62 134q0 68 36 120q38 55 103 105h-715v1434h936v-209h-700v-398h577v-202h-577v-416h725v-209q-103 -51 -153 -95q-52 -46 -52 -95q0 -66 82 -66h131z" />
    <glyph glyph-name="eogonek" unicode="&#x119;" horiz-adv-x="1167" 
d="M301 477v-12q8 -137 86 -217t207 -80q103 0 172 48q70 49 92 136h221q-23 -134 -115 -228q-94 -95 -235 -124q-101 -50 -152 -95q-53 -47 -53 -95q0 -66 82 -66h131v-154h-170q-95 0 -160 51q-63 49 -63 134q0 117 137 225q-193 35 -302 174t-109 348q0 163 64 284
q65 122 180 188q117 67 266 67q151 0 267 -62t182 -174q68 -115 69 -264q0 -41 -6 -84h-791zM400 816q-79 -66 -91 -177h563q-15 115 -91 179q-77 65 -193 65q-107 0 -188 -67z" />
    <glyph glyph-name="Ecaron" unicode="&#x11a;" horiz-adv-x="1153" 
d="M131 1434h936v-209h-700v-398h577v-202h-577v-416h725v-209h-961v1434zM596 1688l156 147h206l-260 -285h-204l-261 285h209z" />
    <glyph glyph-name="ecaron" unicode="&#x11b;" horiz-adv-x="1167" 
d="M134 806q65 122 180 188q117 67 266 67q151 0 267 -62t182 -174q68 -115 69 -264q0 -41 -6 -84h-791v-12q8 -137 86 -217t207 -80q103 0 172 48q70 49 92 136h221q-29 -161 -154 -262q-126 -102 -315 -102q-164 0 -285 66q-123 67 -189 188q-66 122 -66 280q0 163 64 284
zM872 639q-15 115 -91 179q-77 65 -193 65q-107 0 -188 -67q-79 -66 -91 -177h563zM578 1303l155 147h207l-260 -285h-205l-260 285h209z" />
    <glyph glyph-name="Gcircumflex" unicode="&#x11c;" horiz-adv-x="1531" 
d="M161 1099q86 165 242 256q157 91 369 91q248 0 412 -135q162 -134 200 -365h-233q-35 138 -136 215q-102 78 -249 78q-133 0 -237 -67q-100 -65 -156 -184q-56 -120 -56 -271t55 -272q54 -119 155 -184q102 -66 237 -66q173 0 288 94q117 95 124 262v35h-398v198h623
v-784h-178l-25 205q-63 -92 -175 -154q-114 -63 -269 -63q-201 0 -353 91q-154 92 -239 257q-86 167 -86 381q0 218 85 382zM772 1698l-156 -148h-206l260 285h204l261 -285h-209z" />
    <glyph glyph-name="gcircumflex" unicode="&#x11d;" horiz-adv-x="1234" 
d="M1126 1049v-1006q0 -221 -131 -343t-405 -122q-212 0 -346 95q-133 94 -148 270h226q21 -89 94 -137q74 -48 190 -48q301 0 301 293v117q-114 -172 -342 -172q-144 0 -256 64q-113 65 -176 185t-63 283q0 158 64 279t177 187q114 67 254 67q119 0 205 -47
q87 -47 139 -129l25 164h192zM823 278q84 94 84 246q0 155 -84 253q-84 97 -221 97t-221 -96t-84 -250q0 -153 84 -249q85 -97 221 -97t221 96zM600 1313l-156 -148h-206l260 285h204l261 -285h-209z" />
    <glyph glyph-name="Gbreve" unicode="&#x11e;" horiz-adv-x="1531" 
d="M161 1099q86 165 242 256q157 91 369 91q248 0 412 -135q162 -134 200 -365h-233q-35 138 -136 215q-102 78 -249 78q-133 0 -237 -67q-100 -65 -156 -184q-56 -120 -56 -271t55 -272q54 -119 155 -184q102 -66 237 -66q173 0 288 94q117 95 124 262v35h-398v198h623
v-784h-178l-25 205q-63 -92 -175 -154q-114 -63 -269 -63q-201 0 -353 91q-154 92 -239 257q-86 167 -86 381q0 218 85 382zM639 1835q0 -60 37 -97q38 -38 94 -38q59 0 97 38t38 97h166q-5 -131 -88 -210t-215 -79t-211 78q-80 78 -84 211h166z" />
    <glyph glyph-name="gbreve" unicode="&#x11f;" horiz-adv-x="1234" 
d="M1126 1049v-1006q0 -221 -131 -343t-405 -122q-212 0 -346 95q-133 94 -148 270h226q21 -89 94 -137q74 -48 190 -48q301 0 301 293v117q-114 -172 -342 -172q-144 0 -256 64q-113 65 -176 185t-63 283q0 158 64 279t177 187q114 67 254 67q119 0 205 -47
q87 -47 139 -129l25 164h192zM823 278q84 94 84 246q0 155 -84 253q-84 97 -221 97t-221 -96t-84 -250q0 -153 84 -249q85 -97 221 -97t221 96zM467 1450q0 -60 37 -97q38 -38 94 -38q59 0 97 38t38 97h166q-5 -131 -88 -210t-215 -79t-211 78q-80 78 -84 211h166z" />
    <glyph glyph-name="Gdotaccent" unicode="&#x120;" horiz-adv-x="1531" 
d="M161 1099q86 165 242 256q157 91 369 91q248 0 412 -135q162 -134 200 -365h-233q-35 138 -136 215q-102 78 -249 78q-133 0 -237 -67q-100 -65 -156 -184q-56 -120 -56 -271t55 -272q54 -119 155 -184q102 -66 237 -66q173 0 288 94q117 95 124 262v35h-398v198h623
v-784h-178l-25 205q-63 -92 -175 -154q-114 -63 -269 -63q-201 0 -353 91q-154 92 -239 257q-86 167 -86 381q0 218 85 382zM677 1827q37 37 95 37t95 -37q38 -38 38 -92q0 -57 -38 -95q-36 -36 -95 -36t-95 36q-38 38 -38 95q0 54 38 92z" />
    <glyph glyph-name="gdotaccent" unicode="&#x121;" horiz-adv-x="1234" 
d="M1126 1049v-1006q0 -221 -131 -343t-405 -122q-212 0 -346 95q-133 94 -148 270h226q21 -89 94 -137q74 -48 190 -48q301 0 301 293v117q-114 -172 -342 -172q-144 0 -256 64q-113 65 -176 185t-63 283q0 158 64 279t177 187q114 67 254 67q119 0 205 -47
q87 -47 139 -129l25 164h192zM823 278q84 94 84 246q0 155 -84 253q-84 97 -221 97t-221 -96t-84 -250q0 -153 84 -249q85 -97 221 -97t221 96zM505 1442q37 37 95 37t95 -37q38 -38 38 -92q0 -57 -38 -95q-36 -36 -95 -36t-95 36q-38 38 -38 95q0 54 38 92z" />
    <glyph glyph-name="Gcommaaccent" unicode="&#x122;" horiz-adv-x="1531" 
d="M161 1099q86 165 242 256q157 91 369 91q248 0 412 -135q162 -134 200 -365h-233q-35 138 -136 215q-102 78 -249 78q-133 0 -237 -67q-100 -65 -156 -184q-56 -120 -56 -271t55 -272q54 -119 155 -184q102 -66 237 -66q173 0 288 94q117 95 124 262v35h-398v198h623
v-784h-178l-25 205q-63 -92 -175 -154q-114 -63 -269 -63q-201 0 -353 91q-154 92 -239 257q-86 167 -86 381q0 218 85 382zM643 -102h215l-158 -295h-161z" />
    <glyph glyph-name="gcommaaccent" unicode="&#x123;" horiz-adv-x="1234" 
d="M1126 1049v-1006q0 -221 -131 -343t-405 -122q-212 0 -346 95q-133 94 -148 270h226q21 -89 94 -137q74 -48 190 -48q301 0 301 293v117q-114 -172 -342 -172q-144 0 -256 64q-113 65 -176 185t-63 283q0 158 64 279t177 187q114 67 254 67q119 0 205 -47
q87 -47 139 -129l25 164h192zM823 278q84 94 84 246q0 155 -84 253q-84 97 -221 97t-221 -96t-84 -250q0 -153 84 -249q85 -97 221 -97t221 96zM692 1155h-215l150 295h170z" />
    <glyph glyph-name="Hcircumflex" unicode="&#x124;" horiz-adv-x="1398" 
d="M131 1436h236v-605h665v605h236v-1436h-236v623h-665v-623h-236v1436zM700 1698l-155 -148h-207l260 285h205l260 -285h-209z" />
    <glyph glyph-name="hcircumflex" unicode="&#x125;" horiz-adv-x="1175" 
d="M966 946q117 -113 117 -368v-578h-221v565q0 151 -64 228t-188 77q-131 0 -206 -91q-74 -90 -74 -249v-530h-221v1434h221v-537q119 164 329 164q187 0 307 -115zM219 1679l-156 -147h-206l260 285h205l260 -285h-209z" />
    <glyph glyph-name="Hbar" unicode="&#x126;" horiz-adv-x="1429" 
d="M1436 1202v-180h-154v-1022h-235v590h-664v-590h-236v1022h-153v180h153v234h236v-234h664v234h235v-234h154zM1047 799v223h-664v-223h664z" />
    <glyph glyph-name="hbar" unicode="&#x127;" horiz-adv-x="1196" 
d="M984 946q118 -114 118 -368v-578h-221v565q0 149 -65 228q-64 77 -187 77q-131 0 -206 -91t-75 -249v-530h-221v1143h-164v174h164v117h221v-117h291v-174h-291v-246q119 164 330 164q186 0 306 -115z" />
    <glyph glyph-name="Itilde" unicode="&#x128;" horiz-adv-x="497" 
d="M131 1434h236v-1434h-236v1434zM95 1663q-19 -26 -19 -66h-133v33q0 88 51 145q50 56 133 56q47 0 76 -15q23 -12 65 -44q22 -20 40 -31q17 -10 40 -10q34 0 51 26q19 29 19 66h135v-33q0 -88 -51 -145q-52 -58 -133 -58q-49 0 -80 17q-35 19 -62 45q-19 18 -40 30
q-19 11 -40 11q-32 0 -52 -27z" />
    <glyph glyph-name="itilde" unicode="&#x129;" horiz-adv-x="438" 
d="M109 1049h221v-1049h-221v1049zM69 1278q-20 -28 -20 -66h-133v33q0 88 51 145q50 56 133 56q48 0 76 -15q22 -12 66 -45q19 -18 40 -30q17 -10 40 -10q34 0 51 26q18 27 18 66h135v-33q0 -88 -51 -145q-52 -58 -133 -58q-49 0 -80 17q-32 18 -61 45q-19 18 -40 30
q-19 11 -40 11q-33 0 -52 -27z" />
    <glyph glyph-name="Imacron" unicode="&#x12a;" horiz-adv-x="497" 
d="M131 1434h236v-1434h-236v1434zM-49 1628v162h596v-162h-596z" />
    <glyph glyph-name="imacron" unicode="&#x12b;" horiz-adv-x="438" 
d="M109 1049h221v-1049h-221v1049zM-76 1243v162h596v-162h-596z" />
    <glyph glyph-name="Ibreve" unicode="&#x12c;" horiz-adv-x="497" 
d="M131 1434h236v-1434h-236v1434zM115 1835q0 -60 37 -97q38 -38 94 -38q59 0 97 38t38 97h166q-5 -131 -88 -210t-215 -79t-211 78q-80 78 -84 211h166z" />
    <glyph glyph-name="ibreve" unicode="&#x12d;" horiz-adv-x="438" 
d="M109 1049h221v-1049h-221v1049zM88 1450q0 -60 37 -97q38 -38 94 -38q59 0 97 38t38 97h166q-5 -131 -88 -210t-215 -79q-131 0 -211 78t-84 211h166z" />
    <glyph glyph-name="Iogonek" unicode="&#x12e;" horiz-adv-x="497" 
d="M375 -256v-154h-170q-96 0 -161 51q-62 49 -62 134q0 68 38 124t111 109v1426h236v-1434q-103 -51 -153 -95q-52 -46 -52 -95q0 -66 82 -66h131z" />
    <glyph glyph-name="iogonek" unicode="&#x12f;" horiz-adv-x="438" 
d="M123 1240q-39 38 -39 95q0 59 39 96q38 37 96 37t96 -37q39 -37 39 -96q0 -57 -39 -95q-40 -38 -96 -38t-96 38zM207 -256h131v-154h-170q-96 0 -161 51q-62 49 -62 134q0 72 43 130q42 57 121 113v1031h221v-1049q-103 -51 -153 -95q-52 -46 -52 -95q0 -66 82 -66z" />
    <glyph glyph-name="Idotaccent" unicode="&#x130;" horiz-adv-x="497" 
d="M131 1434h236v-1434h-236v1434zM153 1827q37 37 95 37t95 -37q38 -38 38 -92q0 -57 -38 -95q-36 -36 -95 -36t-95 36q-38 38 -38 95q0 54 38 92z" />
    <glyph glyph-name="dotlessi" unicode="&#x131;" horiz-adv-x="438" 
d="M109 1049h221v-1049h-221v1049z" />
    <glyph glyph-name="IJ" unicode="&#x132;" horiz-adv-x="1296" 
d="M358 543q0 -163 73 -256q72 -92 214 -92q146 0 218 85q73 87 73 265v889h235v-885q0 -282 -134 -422q-133 -139 -392 -139q-254 0 -389 142t-133 413h235zM125 1434h235v-658h-235v658z" />
    <glyph glyph-name="ij" unicode="&#x133;" horiz-adv-x="886" 
d="M315 1431q39 -37 39 -96q0 -57 -39 -95q-40 -38 -96 -38t-96 38q-39 38 -39 95q0 59 39 96q38 37 96 37t96 -37zM109 1049h221v-1049h-221v1049zM765 1431q38 -38 38 -96q0 -57 -38 -95t-95 -38q-60 0 -98 38q-37 37 -37 95q0 59 38 96t97 37q58 0 95 -37zM449 -215
q55 0 83 28q27 27 27 87v1149h221v-1166q0 -293 -286 -293h-164v195h119z" />
    <glyph glyph-name="Jcircumflex" unicode="&#x134;" horiz-adv-x="759" 
d="M629 1434v-1078q0 -172 -93 -264q-94 -92 -266 -92h-221v211h168q92 0 134 43q42 44 42 137v1043h236zM510 1698l-156 -148h-207l261 285h204l260 -285h-208z" />
    <glyph glyph-name="jcircumflex" unicode="&#x135;" horiz-adv-x="450" 
d="M10 -215q56 0 84 28q27 27 27 87v1149h221v-1166q0 -293 -287 -293h-164v195h119zM231 1313l-155 -148h-207l260 285h205l260 -285h-209z" />
    <glyph glyph-name="Kcommaaccent" unicode="&#x136;" horiz-adv-x="1347" 
d="M131 1434h236v-740l657 740h287l-527 -598l566 -836h-285l-449 655l-249 -280v-375h-236v1434zM565 -102h215l-157 -295h-162z" />
    <glyph glyph-name="kcommaaccent" unicode="&#x137;" horiz-adv-x="1099" 
d="M109 1434h221v-897l479 512h256l-391 -422l416 -627h-263l-311 465l-186 -197v-268h-221v1434zM469 -102h215l-158 -295h-161z" />
    <glyph glyph-name="Lacute" unicode="&#x139;" horiz-adv-x="1032" 
d="M131 0v1434h236v-1225h616v-209h-852zM168 1552l164 283h256l-252 -283h-168z" />
    <glyph glyph-name="lacute" unicode="&#x13a;" horiz-adv-x="438" 
d="M109 1434h221v-1434h-221v1434zM139 1534l164 283h256l-252 -283h-168z" />
    <glyph glyph-name="Lcommaaccent" unicode="&#x13b;" horiz-adv-x="1032" 
d="M131 0v1434h236v-1225h616v-209h-852zM436 -102h215l-157 -295h-162z" />
    <glyph glyph-name="lcommaaccent" unicode="&#x13c;" horiz-adv-x="438" 
d="M109 1434h221v-1434h-221v1434zM106 -102h216l-158 -295h-162z" />
    <glyph glyph-name="Lcaron" unicode="&#x13d;" horiz-adv-x="1032" 
d="M131 0v1434h236v-1225h616v-209h-852zM551 1434h209l-129 -301h-158z" />
    <glyph glyph-name="lcaron" unicode="&#x13e;" horiz-adv-x="567" 
d="M109 1434h221v-1434h-221v1434zM485 1434h209l-129 -301h-157z" />
    <glyph glyph-name="Ldot" unicode="&#x13f;" horiz-adv-x="1032" 
d="M131 0v1434h236v-1225h616v-209h-852zM663 860q37 37 95 37t95 -37q38 -38 38 -92q0 -56 -38 -94q-37 -37 -95 -37t-95 37q-38 38 -38 94q0 54 38 92z" />
    <glyph glyph-name="ldot" unicode="&#x140;" horiz-adv-x="677" 
d="M109 1434h221v-1434h-221v1434zM464 811q37 37 95 37t95 -37q38 -38 38 -92q0 -56 -38 -94q-37 -37 -95 -37t-95 37q-38 38 -38 94q0 54 38 92z" />
    <glyph glyph-name="Lslash" unicode="&#x141;" horiz-adv-x="1060" 
d="M395 209h617v-209h-852v573l-166 -88v195l166 88v666h235v-541l305 162v-193l-305 -162v-491z" />
    <glyph glyph-name="lslash" unicode="&#x142;" horiz-adv-x="602" 
d="M592 1008v-199l-180 -84v-725h-222v623l-180 -84v198l180 84v613h222v-510z" />
    <glyph glyph-name="Nacute" unicode="&#x143;" horiz-adv-x="1406" 
d="M131 0v1434h215l698 -1016v1016h232v-1434h-215l-699 1016v-1016h-231zM608 1552l164 283h256l-252 -283h-168z" />
    <glyph glyph-name="nacute" unicode="&#x144;" horiz-adv-x="1175" 
d="M966 946q117 -113 117 -368v-578h-223v565q0 150 -63 228q-62 77 -187 77q-131 0 -206 -91q-74 -90 -74 -251v-528h-221v1049h192l25 -138q118 150 336 150q184 0 304 -115zM553 1167l164 283h256l-252 -283h-168z" />
    <glyph glyph-name="Ncommaaccent" unicode="&#x145;" horiz-adv-x="1406" 
d="M131 0v1434h215l698 -1016v1016h232v-1434h-215l-699 1016v-1016h-231zM586 -102h215l-158 -295h-162z" />
    <glyph glyph-name="ncommaaccent" unicode="&#x146;" horiz-adv-x="1175" 
d="M966 946q117 -113 117 -368v-578h-223v565q0 150 -63 228q-62 77 -187 77q-131 0 -206 -91q-74 -90 -74 -251v-528h-221v1049h192l25 -138q118 150 336 150q184 0 304 -115zM485 -102h215l-157 -295h-162z" />
    <glyph glyph-name="Ncaron" unicode="&#x147;" horiz-adv-x="1406" 
d="M131 0v1434h215l698 -1016v1016h232v-1434h-215l-699 1016v-1016h-231zM688 1688l156 147h207l-260 -285h-205l-260 285h209z" />
    <glyph glyph-name="ncaron" unicode="&#x148;" horiz-adv-x="1175" 
d="M966 946q117 -113 117 -368v-578h-223v565q0 150 -63 228q-62 77 -187 77q-131 0 -206 -91q-74 -90 -74 -251v-528h-221v1049h192l25 -138q118 150 336 150q184 0 304 -115zM633 1303l155 147h207l-260 -285h-205l-260 285h209z" />
    <glyph glyph-name="napostrophe" unicode="&#x149;" horiz-adv-x="1572" 
d="M344 1378q51 -68 51 -168q0 -147 -88 -229q-89 -83 -241 -84v119q89 1 135 47q45 45 45 106q0 17 -2 27q-26 -20 -68 -20q-54 0 -87 33q-34 34 -34 98q0 59 43 99t113 40q82 0 133 -68zM1363 946q118 -114 118 -368v-578h-224v565q0 150 -63 228q-62 77 -186 77
q-131 0 -206 -91t-75 -251v-528h-221v1049h192l25 -138q119 150 336 150q184 0 304 -115z" />
    <glyph glyph-name="Eng" unicode="&#x14a;" horiz-adv-x="1406" 
d="M1276 1434v-1538q0 -306 -297 -306h-160v201h119q56 0 84 28q27 27 27 87v112l-687 998v-1016h-231v1434h215l698 -1016v1016h232z" />
    <glyph glyph-name="eng" unicode="&#x14b;" horiz-adv-x="1175" 
d="M966 946q117 -113 117 -368v-689q0 -299 -292 -299h-164v195h123q59 0 85 28q25 26 25 89v663q0 150 -63 228q-62 77 -187 77q-131 0 -206 -91q-74 -90 -74 -251v-528h-221v1049h192l25 -138q118 150 336 150q184 0 304 -115z" />
    <glyph glyph-name="Omacron" unicode="&#x14c;" horiz-adv-x="1544" 
d="M1380 342q-88 -166 -246 -260t-362 -94q-203 0 -361 94q-159 95 -247 260q-88 166 -88 375t88 375q88 165 247 260q158 94 361 94q204 0 362 -94t246 -260t88 -375t-88 -375zM375 447q57 -120 161 -186q103 -66 236 -66q134 0 237 66t160 186q58 122 58 270
q0 147 -58 269q-57 120 -160 186q-105 67 -237 67q-131 0 -236 -67q-104 -66 -161 -186q-58 -122 -58 -269q0 -148 58 -270zM475 1628v162h596v-162h-596z" />
    <glyph glyph-name="omacron" unicode="&#x14d;" horiz-adv-x="1208" 
d="M325 54q-122 67 -189 189q-66 121 -66 281q0 158 66 280q65 120 189 189q122 68 279 68q158 0 280 -68t188 -189q67 -123 67 -280q0 -158 -67 -281t-188 -189q-122 -66 -280 -66t-279 66zM828 273q85 97 85 251t-85 251t-224 97t-223 -97t-84 -251q0 -153 84 -251
q84 -97 223 -97t224 97zM307 1243v162h596v-162h-596z" />
    <glyph glyph-name="Obreve" unicode="&#x14e;" horiz-adv-x="1544" 
d="M1380 342q-88 -166 -246 -260t-362 -94q-203 0 -361 94q-159 95 -247 260q-88 166 -88 375t88 375q88 165 247 260q158 94 361 94q204 0 362 -94t246 -260t88 -375t-88 -375zM375 447q57 -120 161 -186q103 -66 236 -66q134 0 237 66t160 186q58 122 58 270
q0 147 -58 269q-57 120 -160 186q-105 67 -237 67q-131 0 -236 -67q-104 -66 -161 -186q-58 -122 -58 -269q0 -148 58 -270zM639 1835q0 -60 37 -97q38 -38 94 -38q59 0 97 38t38 97h166q-5 -131 -88 -210t-215 -79t-211 78q-80 78 -84 211h166z" />
    <glyph glyph-name="obreve" unicode="&#x14f;" horiz-adv-x="1208" 
d="M325 54q-122 67 -189 189q-66 121 -66 281q0 158 66 280q65 120 189 189q122 68 279 68q158 0 280 -68t188 -189q67 -123 67 -280q0 -158 -67 -281t-188 -189q-122 -66 -280 -66t-279 66zM828 273q85 97 85 251t-85 251t-224 97t-223 -97t-84 -251q0 -153 84 -251
q84 -97 223 -97t224 97zM471 1450q0 -60 37 -97q38 -38 94 -38q59 0 97 38t38 97h166q-5 -131 -88 -210t-215 -79t-211 78q-80 78 -84 211h166z" />
    <glyph glyph-name="Ohungarumlaut" unicode="&#x150;" horiz-adv-x="1544" 
d="M1380 342q-88 -166 -246 -260t-362 -94q-203 0 -361 94q-159 95 -247 260q-88 166 -88 375t88 375q88 165 247 260q158 94 361 94q204 0 362 -94t246 -260t88 -375t-88 -375zM375 447q57 -120 161 -186q103 -66 236 -66q134 0 237 66t160 186q58 122 58 270
q0 147 -58 269q-57 120 -160 186q-105 67 -237 67q-131 0 -236 -67q-104 -66 -161 -186q-58 -122 -58 -269q0 -148 58 -270zM481 1548l164 287h246l-250 -287h-160zM862 1548l164 287h246l-250 -287h-160z" />
    <glyph glyph-name="ohungarumlaut" unicode="&#x151;" horiz-adv-x="1208" 
d="M325 54q-122 67 -189 189q-66 121 -66 281q0 158 66 280q65 120 189 189q122 68 279 68q158 0 280 -68t188 -189q67 -123 67 -280q0 -158 -67 -281t-188 -189q-122 -66 -280 -66t-279 66zM828 273q85 97 85 251t-85 251t-224 97t-223 -97t-84 -251q0 -153 84 -251
q84 -97 223 -97t224 97zM313 1163l164 287h246l-250 -287h-160zM694 1163l164 287h246l-250 -287h-160z" />
    <glyph glyph-name="OE" unicode="&#x152;" horiz-adv-x="2295" 
d="M2234 209v-209h-960v209q-79 -107 -198 -164q-120 -57 -281 -57q-210 0 -373 94q-164 95 -255 260q-91 166 -91 375t91 375q91 165 255 260q163 94 373 94q161 0 281 -57q119 -57 198 -164v209h936v-209h-701v-398h578v-202h-578v-416h725zM1047 261q106 65 167 185
q60 118 60 271q0 151 -60 270q-61 120 -167 185q-110 67 -250 67q-142 0 -252 -67q-108 -66 -168 -185t-60 -270q0 -153 60 -271q60 -119 168 -185t252 -66q142 0 250 66z" />
    <glyph glyph-name="oe" unicode="&#x153;" horiz-adv-x="1986" 
d="M1120 477v-12q8 -137 86 -217t209 -80q101 0 171 49t93 135h222q-30 -159 -157 -262q-126 -102 -312 -102q-140 0 -248 51q-109 52 -176 145q-65 -94 -171 -145q-105 -51 -235 -51q-157 0 -278 67t-188 190q-66 121 -66 281q0 158 66 280t188 188q123 67 278 67
q136 0 242 -51q105 -50 172 -146q67 96 164 146q99 51 221 51q149 0 265 -62t182 -174q68 -115 69 -264q0 -41 -6 -84h-791zM1221 816q-79 -67 -91 -177h562q-15 116 -90 179q-77 65 -195 65q-107 0 -186 -67zM826 272q85 95 85 248q0 156 -85 254t-224 98q-137 0 -221 -97
t-84 -249q0 -155 83 -253q82 -97 222 -97q138 0 224 96z" />
    <glyph glyph-name="Racute" unicode="&#x154;" horiz-adv-x="1280" 
d="M696 1434q150 0 262 -57q115 -58 176 -159q62 -102 62 -241q0 -145 -76 -252q-78 -110 -202 -154l303 -571h-263l-272 520h-319v-520h-236v1434h565zM367 725h311q127 0 202 69q74 68 74 183t-74 183q-75 69 -202 69h-311v-504zM516 1552l164 283h256l-252 -283h-168z
" />
    <glyph glyph-name="racute" unicode="&#x155;" horiz-adv-x="720" 
d="M688 1049v-207h-98q-137 0 -199 -89q-61 -88 -61 -227v-526h-221v1049h196l25 -158q46 75 116 116q72 42 193 42h49zM319 1167l164 283h256l-252 -283h-168z" />
    <glyph glyph-name="Rcommaaccent" unicode="&#x156;" horiz-adv-x="1280" 
d="M696 1434q150 0 262 -57q115 -58 176 -159q62 -102 62 -241q0 -145 -76 -252q-78 -110 -202 -154l303 -571h-263l-272 520h-319v-520h-236v1434h565zM367 725h311q127 0 202 69q74 68 74 183t-74 183q-75 69 -202 69h-311v-504zM524 -102h215l-157 -295h-162z" />
    <glyph glyph-name="rcommaaccent" unicode="&#x157;" horiz-adv-x="720" 
d="M688 1049v-207h-98q-137 0 -199 -89q-61 -88 -61 -227v-526h-221v1049h196l25 -158q46 75 116 116q72 42 193 42h49zM106 -102h216l-158 -295h-162z" />
    <glyph glyph-name="Rcaron" unicode="&#x158;" horiz-adv-x="1280" 
d="M696 1434q150 0 262 -57q115 -58 176 -159q62 -102 62 -241q0 -145 -76 -252q-78 -110 -202 -154l303 -571h-263l-272 520h-319v-520h-236v1434h565zM367 725h311q127 0 202 69q74 68 74 183t-74 183q-75 69 -202 69h-311v-504zM596 1688l156 147h206l-260 -285h-204
l-261 285h209z" />
    <glyph glyph-name="rcaron" unicode="&#x159;" horiz-adv-x="720" 
d="M688 1049v-207h-98q-137 0 -199 -89q-61 -88 -61 -227v-526h-221v1049h196l25 -158q46 75 116 116q72 42 193 42h49zM399 1303l156 147h207l-260 -285h-205l-260 285h209z" />
    <glyph glyph-name="Sacute" unicode="&#x15a;" horiz-adv-x="1259" 
d="M309 467q10 -127 104 -204t242 -77q131 0 212 57t81 156q0 72 -44 114q-44 43 -120 65q-81 24 -213 47q-141 24 -238 64q-100 41 -162 122t-62 215q0 124 64 219q66 98 180 150q117 53 265 53q153 0 275 -57q120 -56 190 -158t76 -229h-231q-12 110 -97 178
q-83 67 -213 67q-124 0 -199 -54t-75 -153q0 -69 44 -110t118 -62q72 -21 211 -45q136 -23 239 -65q100 -40 164 -121t64 -211q0 -126 -68 -227q-67 -100 -188 -157q-119 -56 -275 -56q-171 0 -299 61q-129 61 -201 171q-74 112 -75 251zM551 1552l164 283h256l-252 -283
h-168z" />
    <glyph glyph-name="sacute" unicode="&#x15b;" horiz-adv-x="1058" 
d="M285 346q6 -82 76 -134t184 -52q99 0 163 38q62 37 62 101q0 53 -29 80q-27 26 -76 38q-40 10 -149 23q-135 16 -226 44q-89 27 -144 88q-54 60 -54 163q0 96 54 171t150 116t216 41q199 0 323 -88q123 -88 134 -248h-215q-7 70 -72 118q-62 46 -160 46q-96 0 -155 -37
q-60 -38 -60 -100q0 -47 30 -71t75 -33q46 -9 145 -21q140 -16 227 -44q92 -30 148 -95q55 -64 55 -175q0 -98 -57 -173q-55 -73 -158 -114q-99 -40 -225 -40q-210 0 -341 95q-129 94 -134 263h213zM438 1167l164 283h256l-252 -283h-168z" />
    <glyph glyph-name="Scircumflex" unicode="&#x15c;" horiz-adv-x="1259" 
d="M309 467q10 -127 104 -204t242 -77q131 0 212 57t81 156q0 72 -44 114q-44 43 -120 65q-81 24 -213 47q-141 24 -238 64q-100 41 -162 122t-62 215q0 124 64 219q66 98 180 150q117 53 265 53q153 0 275 -57q120 -56 190 -158t76 -229h-231q-12 110 -97 178
q-83 67 -213 67q-124 0 -199 -54t-75 -153q0 -69 44 -110t118 -62q72 -21 211 -45q136 -23 239 -65q100 -40 164 -121t64 -211q0 -126 -68 -227q-67 -100 -188 -157q-119 -56 -275 -56q-171 0 -299 61q-129 61 -201 171q-74 112 -75 251zM631 1698l-156 -148h-207l260 285
h205l260 -285h-209z" />
    <glyph glyph-name="scircumflex" unicode="&#x15d;" horiz-adv-x="1058" 
d="M285 346q6 -82 76 -134t184 -52q99 0 163 38q62 37 62 101q0 53 -29 80q-27 26 -76 38q-40 10 -149 23q-135 16 -226 44q-89 27 -144 88q-54 60 -54 163q0 96 54 171t150 116t216 41q199 0 323 -88q123 -88 134 -248h-215q-7 70 -72 118q-62 46 -160 46q-96 0 -155 -37
q-60 -38 -60 -100q0 -47 30 -71t75 -33q46 -9 145 -21q140 -16 227 -44q92 -30 148 -95q55 -64 55 -175q0 -98 -57 -173q-55 -73 -158 -114q-99 -40 -225 -40q-210 0 -341 95q-129 94 -134 263h213zM518 1313l-156 -148h-206l260 285h205l260 -285h-209z" />
    <glyph glyph-name="Scedilla" unicode="&#x15e;" horiz-adv-x="1259" 
d="M956 760q100 -40 164 -121t64 -211q0 -120 -62 -217t-172 -155q-111 -59 -254 -66l-16 -66h29q85 0 134 -42q50 -42 50 -111q0 -82 -55 -131q-56 -50 -148 -50h-211v119h170q76 0 76 60q0 24 -20 38q-21 15 -54 15h-110l41 168q-149 12 -264 77q-113 64 -176 169
q-62 104 -64 235l231 -4q10 -127 104 -204t242 -77q131 0 212 57t81 156q0 72 -44 114q-44 43 -120 65q-81 24 -213 47q-141 24 -238 64q-100 41 -162 122t-62 215q0 124 64 219q66 98 180 150q117 53 265 53q153 0 275 -57q120 -56 190 -158t76 -229h-231q-12 110 -97 178
q-83 67 -213 67q-124 0 -199 -54t-75 -153q0 -69 44 -110t118 -62q72 -21 211 -45q136 -23 239 -65z" />
    <glyph glyph-name="scedilla" unicode="&#x15f;" horiz-adv-x="1058" 
d="M881 91q-105 -86 -279 -101l-16 -66h28q86 0 135 -42q50 -42 50 -111q0 -81 -56 -131t-147 -50h-211v119h170q76 0 76 60q0 23 -21 38t-53 15h-111l41 168q-190 15 -300 107q-110 93 -115 249h213q6 -82 76 -134t184 -52q99 0 163 38q62 37 62 101q0 53 -29 80
q-27 26 -76 38q-40 10 -149 23q-135 16 -226 44q-89 27 -144 88q-54 60 -54 163q0 96 54 171t150 116t216 41q199 0 323 -88q123 -88 134 -248h-215q-7 70 -72 118q-62 46 -160 46q-96 0 -155 -37q-60 -38 -60 -100q0 -47 30 -71t75 -33q46 -9 145 -21q140 -16 227 -44
q92 -30 148 -95q55 -64 55 -175q0 -137 -106 -224z" />
    <glyph glyph-name="Scaron" unicode="&#x160;" horiz-adv-x="1259" 
d="M309 467q10 -127 104 -204t242 -77q131 0 212 57t81 156q0 72 -44 114q-44 43 -120 65q-81 24 -213 47q-141 24 -238 64q-100 41 -162 122t-62 215q0 124 64 219q66 98 180 150q117 53 265 53q153 0 275 -57q120 -56 190 -158t76 -229h-231q-12 110 -97 178
q-83 67 -213 67q-124 0 -199 -54t-75 -153q0 -69 44 -110t118 -62q72 -21 211 -45q136 -23 239 -65q100 -40 164 -121t64 -211q0 -126 -68 -227q-67 -100 -188 -157q-119 -56 -275 -56q-171 0 -299 61q-129 61 -201 171q-74 112 -75 251zM631 1688l155 147h207l-260 -285
h-205l-260 285h209z" />
    <glyph glyph-name="scaron" unicode="&#x161;" horiz-adv-x="1058" 
d="M285 346q6 -82 76 -134t184 -52q99 0 163 38q62 37 62 101q0 53 -29 80q-27 26 -76 38q-40 10 -149 23q-135 16 -226 44q-89 27 -144 88q-54 60 -54 163q0 96 54 171t150 116t216 41q199 0 323 -88q123 -88 134 -248h-215q-7 70 -72 118q-62 46 -160 46q-96 0 -155 -37
q-60 -38 -60 -100q0 -47 30 -71t75 -33q46 -9 145 -21q140 -16 227 -44q92 -30 148 -95q55 -64 55 -175q0 -98 -57 -173q-55 -73 -158 -114q-99 -40 -225 -40q-210 0 -341 95q-129 94 -134 263h213zM518 1303l156 147h207l-260 -285h-205l-260 285h209z" />
    <glyph glyph-name="uni0162" unicode="&#x162;" horiz-adv-x="1216" 
d="M49 1434h1120v-209h-442v-1225h-235v1225h-443v209zM496 -102h215l-158 -295h-162z" />
    <glyph glyph-name="uni0163" unicode="&#x163;" horiz-adv-x="686" 
d="M176 854h-182v195h182v292h223v-292h252v-195h-252v-547q0 -60 25 -87q24 -25 84 -25h168v-195h-213q-148 0 -218 70q-69 69 -69 215v569zM315 -102h215l-157 -295h-162z" />
    <glyph glyph-name="Tcaron" unicode="&#x164;" horiz-adv-x="1216" 
d="M49 1434h1120v-209h-442v-1225h-235v1225h-443v209zM614 1688l156 147h207l-260 -285h-205l-260 285h209z" />
    <glyph glyph-name="tcaron" unicode="&#x165;" horiz-adv-x="698" 
d="M176 854h-182v195h182v292h223v-292h252v-195h-252v-547q0 -60 25 -87q24 -25 84 -25h168v-195h-213q-148 0 -218 70q-69 69 -69 215v569zM563 1452h209l-129 -301h-158z" />
    <glyph glyph-name="Tbar" unicode="&#x166;" horiz-adv-x="1216" 
d="M1169 1225h-442v-443h234v-178h-234v-604h-235v604h-236v178h236v443h-443v209h1120v-209z" />
    <glyph glyph-name="tbar" unicode="&#x167;" horiz-adv-x="731" 
d="M686 195v-195h-213q-149 0 -217 70t-68 215v194h-182v172h182v203h-182v195h182v292h222v-292h254v-195h-254v-203h254v-172h-254v-172q0 -61 24 -87q24 -25 84 -25h168z" />
    <glyph glyph-name="Utilde" unicode="&#x168;" horiz-adv-x="1376" 
d="M358 1434v-832q0 -201 80 -304q79 -101 248 -101q171 0 251 101q81 102 81 304v832h235v-820q0 -308 -144 -467t-423 -159q-276 0 -420 159q-143 158 -143 467v820h235zM536 1663q-20 -28 -20 -66h-133v33q0 88 51 145q50 56 133 56q47 0 76 -15q26 -14 66 -44
q22 -20 40 -31q17 -10 39 -10q35 0 52 26q18 27 18 66h135v-33q0 -88 -51 -145q-52 -58 -133 -58q-49 0 -80 17q-32 18 -61 45q-19 18 -40 30q-19 11 -40 11q-32 0 -52 -27z" />
    <glyph glyph-name="utilde" unicode="&#x169;" horiz-adv-x="1157" 
d="M1049 1049v-1049h-195l-25 133q-118 -145 -323 -145q-185 0 -299 114q-115 115 -115 369v578h221v-555q0 -154 62 -234t182 -80q127 0 199 93q71 92 71 255v521h222zM419 1278q-20 -28 -20 -66h-133v33q0 88 51 145q50 56 134 56q47 0 75 -15q22 -12 66 -45
q19 -18 40 -30q17 -10 40 -10q34 0 51 26q18 27 18 66h136v-33q0 -87 -52 -145t-133 -58q-49 0 -80 17q-32 18 -61 45q-19 18 -40 30q-19 11 -40 11q-32 0 -52 -27z" />
    <glyph glyph-name="Umacron" unicode="&#x16a;" horiz-adv-x="1376" 
d="M358 1434v-832q0 -201 80 -304q79 -101 248 -101q171 0 251 101q81 102 81 304v832h235v-820q0 -308 -144 -467t-423 -159q-276 0 -420 159q-143 158 -143 467v820h235zM391 1628v162h596v-162h-596z" />
    <glyph glyph-name="umacron" unicode="&#x16b;" horiz-adv-x="1157" 
d="M1049 1049v-1049h-195l-25 133q-118 -145 -323 -145q-185 0 -299 114q-115 115 -115 369v578h221v-555q0 -154 62 -234t182 -80q127 0 199 93q71 92 71 255v521h222zM274 1243v162h596v-162h-596z" />
    <glyph glyph-name="Ubreve" unicode="&#x16c;" horiz-adv-x="1376" 
d="M358 1434v-832q0 -201 80 -304q79 -101 248 -101q171 0 251 101q81 102 81 304v832h235v-820q0 -308 -144 -467t-423 -159q-276 0 -420 159q-143 158 -143 467v820h235zM555 1835q0 -60 37 -97q38 -38 94 -38q59 0 97 38t38 97h166q-5 -131 -88 -210t-215 -79t-211 78
q-80 78 -84 211h166z" />
    <glyph glyph-name="ubreve" unicode="&#x16d;" horiz-adv-x="1157" 
d="M1049 1049v-1049h-195l-25 133q-118 -145 -323 -145q-185 0 -299 114q-115 115 -115 369v578h221v-555q0 -154 62 -234t182 -80q127 0 199 93q71 92 71 255v521h222zM438 1450q0 -60 37 -97q38 -38 94 -38q60 0 98 38t38 97h165q-5 -131 -88 -210t-215 -79
q-131 0 -211 78t-84 211h166z" />
    <glyph glyph-name="Uring" unicode="&#x16e;" horiz-adv-x="1376" 
d="M358 1434v-832q0 -201 80 -304q79 -101 248 -101q171 0 251 101q81 102 81 304v832h235v-820q0 -308 -144 -467t-423 -159q-276 0 -420 159q-143 158 -143 467v820h235zM511 1776q72 69 177 69t177 -69q73 -70 73 -166q0 -100 -73 -170t-177 -70t-177 70t-73 170
q0 96 73 166zM777 1699q-36 36 -89 36t-89 -36t-36 -89q0 -54 36 -92q36 -37 89 -37t89 37q36 38 36 92q0 53 -36 89z" />
    <glyph glyph-name="uring" unicode="&#x16f;" horiz-adv-x="1157" 
d="M1049 1049v-1049h-195l-25 133q-118 -145 -323 -145q-185 0 -299 114q-115 115 -115 369v578h221v-555q0 -154 62 -234t182 -80q127 0 199 93q71 92 71 255v521h222zM394 1542q73 70 177 70q105 0 178 -70q72 -69 72 -166q0 -101 -72 -170t-178 -69q-105 0 -177 69
t-72 170q0 97 72 166zM660 1465q-36 36 -89 36t-89 -36t-36 -89q0 -54 36 -92q36 -37 89 -37t89 37q36 38 36 92q0 53 -36 89z" />
    <glyph glyph-name="Uhungarumlaut" unicode="&#x170;" horiz-adv-x="1376" 
d="M358 1434v-832q0 -201 80 -304q79 -101 248 -101q171 0 251 101q81 102 81 304v832h235v-820q0 -308 -144 -467t-423 -159q-276 0 -420 159q-143 158 -143 467v820h235zM397 1548l164 287h246l-250 -287h-160zM778 1548l164 287h246l-250 -287h-160z" />
    <glyph glyph-name="uhungarumlaut" unicode="&#x171;" horiz-adv-x="1157" 
d="M1049 1049v-1049h-195l-25 133q-118 -145 -323 -145q-185 0 -299 114q-115 115 -115 369v578h221v-555q0 -154 62 -234t182 -80q127 0 199 93q71 92 71 255v521h222zM281 1163l163 287h246l-250 -287h-159zM662 1163l163 287h246l-250 -287h-159z" />
    <glyph glyph-name="Uogonek" unicode="&#x172;" horiz-adv-x="1376" 
d="M1253 1434v-820q0 -270 -110 -425q-111 -156 -326 -191q-95 -49 -149 -95q-52 -44 -52 -93q0 -66 82 -66h131v-154h-170q-95 0 -160 51q-63 49 -63 134q0 63 35 116q36 55 98 105q-221 33 -333 189q-113 157 -113 429v820h235v-832q0 -201 80 -304q79 -101 248 -101
q171 0 251 101q81 102 81 304v832h235z" />
    <glyph glyph-name="uogonek" unicode="&#x173;" horiz-adv-x="1157" 
d="M1057 -256v-154h-170q-96 0 -161 51q-62 49 -62 134q0 76 48 136q51 63 136 124l-19 98q-118 -145 -323 -145q-185 0 -299 114q-115 115 -115 369v578h221v-555q0 -154 62 -234t182 -80q127 0 199 93q71 92 71 255v521h222v-1049q-103 -51 -153 -95q-52 -46 -52 -95
q0 -66 82 -66h131z" />
    <glyph glyph-name="Wcircumflex" unicode="&#x174;" horiz-adv-x="2029" 
d="M39 1434l246 2l305 -1137l319 1135h224l309 -1135l309 1135h240l-410 -1434h-276l-293 1055l-287 -1055h-276zM1014 1698l-156 -148h-207l260 285h205l260 -285h-209z" />
    <glyph glyph-name="wcircumflex" unicode="&#x175;" horiz-adv-x="1634" 
d="M8 1049h234l239 -803l240 803h203l229 -803l248 803h225l-348 -1049h-238l-221 713l-229 -713l-240 -2zM821 1313l-155 -148h-207l260 285h205l260 -285h-209z" />
    <glyph glyph-name="Ycircumflex" unicode="&#x176;" horiz-adv-x="1325" 
d="M10 1436h277l377 -658l387 658h264l-535 -906v-530h-235v530zM666 1698l-156 -148h-207l260 285h205l260 -285h-209z" />
    <glyph glyph-name="ycircumflex" unicode="&#x177;" horiz-adv-x="1056" 
d="M240 1049l292 -809l285 809h236l-475 -1213q-37 -92 -68 -144q-30 -50 -76 -76t-121 -26h-237v195h155q65 0 88 19q25 21 52 87l43 101l-410 1057h236zM526 1313l-155 -148h-207l260 285h205l260 -285h-209z" />
    <glyph glyph-name="Ydieresis" unicode="&#x178;" horiz-adv-x="1325" 
d="M10 1436h277l377 -658l387 658h264l-535 -906v-530h-235v530zM375 1795q37 36 92 36t92 -36t37 -89t-37 -89q-38 -36 -92 -36q-55 0 -92 36t-37 89t37 89zM774 1795q38 36 90 36q54 0 92 -36q37 -36 37 -89t-37 -89q-38 -36 -92 -36q-52 0 -90 36q-37 36 -37 89t37 89z
" />
    <glyph glyph-name="Zacute" unicode="&#x179;" horiz-adv-x="1263" 
d="M82 1434h1100v-162l-803 -1065h825v-207h-1145v162l801 1065h-778v207zM559 1552l164 283h256l-252 -283h-168z" />
    <glyph glyph-name="zacute" unicode="&#x17a;" horiz-adv-x="999" 
d="M70 1049h858v-158l-586 -696h612v-195h-909v158l586 696h-561v195zM422 1167l164 283h256l-252 -283h-168z" />
    <glyph glyph-name="Zdotaccent" unicode="&#x17b;" horiz-adv-x="1263" 
d="M82 1434h1100v-162l-803 -1065h825v-207h-1145v162l801 1065h-778v207zM544 1827q37 37 95 37t95 -37q38 -38 38 -92q0 -57 -38 -95q-36 -36 -95 -36t-95 36q-38 38 -38 95q0 54 38 92z" />
    <glyph glyph-name="zdotaccent" unicode="&#x17c;" horiz-adv-x="999" 
d="M70 1049h858v-158l-586 -696h612v-195h-909v158l586 696h-561v195zM407 1442q37 37 95 37t95 -37q38 -38 38 -92q0 -57 -38 -95q-36 -36 -95 -36t-95 36q-38 38 -38 95q0 54 38 92z" />
    <glyph glyph-name="Zcaron" unicode="&#x17d;" horiz-adv-x="1263" 
d="M82 1434h1100v-162l-803 -1065h825v-207h-1145v162l801 1065h-778v207zM639 1688l156 147h206l-260 -285h-204l-261 285h209z" />
    <glyph glyph-name="zcaron" unicode="&#x17e;" horiz-adv-x="999" 
d="M70 1049h858v-158l-586 -696h612v-195h-909v158l586 696h-561v195zM502 1303l155 147h207l-260 -285h-205l-260 285h209z" />
    <glyph glyph-name="florin" unicode="&#x192;" horiz-adv-x="987" 
d="M683 1211q-29 -27 -34 -87l-31 -352h238v-180h-254l-47 -549q-11 -128 -87 -194q-77 -66 -214 -66h-217v194h178q58 0 89 28q29 27 34 87l43 500h-225v180h241l35 402q10 127 87 193q78 67 212 67h219v-195h-178q-58 0 -89 -28z" />
    <glyph glyph-name="AEacute" unicode="&#x1fc;" horiz-adv-x="1996" 
d="M1778 1835l-252 -283h-168l164 283h256zM1208 209h725v-209h-960v336h-524l-209 -336h-244l856 1434h1057v-209h-701v-398h578v-202h-578v-416zM555 532h418v703z" />
    <glyph glyph-name="aeacute" unicode="&#x1fd;" horiz-adv-x="1855" 
d="M1266 1434l-252 -283h-168l164 283h256zM991 477v-12q6 -136 85 -216q80 -81 208 -81q101 0 171 49q71 49 93 135h221q-29 -161 -155 -262q-128 -102 -314 -102q-139 0 -246 55q-108 55 -171 158q-66 -101 -170 -157q-103 -56 -244 -56q-180 0 -290 82q-111 82 -111 225
q0 159 114 245q113 85 334 85h264v69q0 90 -61 139q-62 50 -170 50q-96 0 -159 -42t-75 -112h-217q17 158 140 245t321 87q125 0 219 -42t144 -122q64 80 153 122q90 42 199 42q149 0 264 -62q114 -61 180 -174q67 -113 68 -264q0 -41 -6 -84h-789zM1091 816
q-80 -66 -92 -177h562q-12 113 -90 179q-77 65 -195 65q-104 0 -185 -67zM780 463h-268q-105 0 -163 -38q-56 -37 -56 -116q0 -68 52 -108q53 -41 142 -41q135 0 214 72t79 192v39z" />
    <glyph glyph-name="Scommaaccent" unicode="&#x218;" horiz-adv-x="1259" 
d="M309 467q10 -127 104 -204t242 -77q131 0 212 57t81 156q0 72 -44 114q-44 43 -120 65q-81 24 -213 47q-141 24 -238 64q-100 41 -162 122t-62 215q0 124 64 219q66 98 180 150q117 53 265 53q153 0 275 -57q120 -56 190 -158t76 -229h-231q-12 110 -97 178
q-83 67 -213 67q-124 0 -199 -54t-75 -153q0 -69 44 -110t118 -62q72 -21 211 -45q136 -23 239 -65q100 -40 164 -121t64 -211q0 -126 -68 -227q-67 -100 -188 -157q-119 -56 -275 -56q-171 0 -299 61q-129 61 -201 171q-74 112 -75 251zM528 -102h215l-157 -295h-162z" />
    <glyph glyph-name="scommaaccent" unicode="&#x219;" horiz-adv-x="1058" 
d="M285 346q6 -82 76 -134t184 -52q99 0 163 38q62 37 62 101q0 53 -29 80q-27 26 -76 38q-40 10 -149 23q-135 16 -226 44q-89 27 -144 88q-54 60 -54 163q0 96 54 171t150 116t216 41q199 0 323 -88q123 -88 134 -248h-215q-7 70 -72 118q-62 46 -160 46q-96 0 -155 -37
q-60 -38 -60 -100q0 -47 30 -71t75 -33q46 -9 145 -21q140 -16 227 -44q92 -30 148 -95q55 -64 55 -175q0 -98 -57 -173q-55 -73 -158 -114q-99 -40 -225 -40q-210 0 -341 95q-129 94 -134 263h213zM434 -102h215l-157 -295h-162z" />
    <glyph glyph-name="uni021A" unicode="&#x21a;" horiz-adv-x="1216" 
d="M49 1434h1120v-209h-442v-1225h-235v1225h-443v209zM496 -102h215l-158 -295h-162z" />
    <glyph glyph-name="uni021B" unicode="&#x21b;" horiz-adv-x="686" 
d="M176 854h-182v195h182v292h223v-292h252v-195h-252v-547q0 -60 25 -87q24 -25 84 -25h168v-195h-213q-148 0 -218 70q-69 69 -69 215v569zM315 -102h215l-157 -295h-162z" />
    <glyph glyph-name="uni0237" unicode="&#x237;" horiz-adv-x="450" 
d="M10 -215q56 0 84 28q27 27 27 87v1149h221v-1166q0 -293 -287 -293h-164v195h119z" />
    <glyph glyph-name="uni02BC" unicode="&#x2bc;" horiz-adv-x="729" 
d="M303 1434h209l-129 -301h-158z" />
    <glyph glyph-name="circumflex" unicode="&#x2c6;" horiz-adv-x="819" 
d="M410 1296l-156 -147h-207l260 285h205l260 -285h-209z" />
    <glyph glyph-name="caron" unicode="&#x2c7;" horiz-adv-x="819" 
d="M410 1286l155 148h207l-260 -285h-205l-260 285h209z" />
    <glyph glyph-name="breve" unicode="&#x2d8;" horiz-adv-x="819" 
d="M276 1434q0 -61 37 -98q38 -38 95 -38q59 0 97 38t38 98h166q-5 -131 -88 -210t-215 -79t-211 78q-80 78 -84 211h165z" />
    <glyph glyph-name="dotaccent" unicode="&#x2d9;" horiz-adv-x="819" 
d="M314 1425q37 37 96 37q58 0 95 -37q38 -38 38 -92q0 -56 -38 -94q-37 -37 -95 -37q-59 0 -96 37q-38 38 -38 94q0 54 38 92z" />
    <glyph glyph-name="ring" unicode="&#x2da;" horiz-adv-x="819" 
d="M232 1526q72 69 178 69q105 0 177 -69t72 -166q0 -101 -72 -170q-73 -70 -177 -70q-105 0 -178 70q-72 69 -72 170q0 97 72 166zM499 1449q-36 36 -89 36t-89 -36t-36 -89q0 -54 36 -92q36 -37 89 -37t89 37q36 38 36 92q0 53 -36 89z" />
    <glyph glyph-name="ogonek" unicode="&#x2db;" horiz-adv-x="819" 
d="M76 -85q50 62 143 126l191 -41q-103 -51 -153 -95q-52 -46 -52 -95q0 -66 82 -66h131v-154h-170q-96 0 -161 51q-62 49 -62 134q0 77 51 140z" />
    <glyph glyph-name="tilde" unicode="&#x2dc;" horiz-adv-x="819" 
d="M257 1262q-19 -26 -19 -66h-134v33q0 86 52 144q51 57 133 57q46 0 76 -16q23 -12 65 -44q22 -20 40 -31q17 -10 40 -10q33 0 51 27q19 28 19 65h135v-32q0 -89 -51 -146t-134 -57q-50 0 -79 16q-35 19 -62 45q-22 20 -40 31q-17 10 -40 10q-33 0 -52 -26z" />
    <glyph glyph-name="hungarumlaut" unicode="&#x2dd;" horiz-adv-x="825" 
d="M119 1147l164 287h245l-249 -287h-160zM500 1147l164 287h245l-250 -287h-159z" />
    <glyph glyph-name="gravecomb" unicode="&#x300;" horiz-adv-x="0" 
d="M-743 1434h256l157 -285h-170z" />
    <glyph glyph-name="acutecomb" unicode="&#x301;" horiz-adv-x="0" 
d="M-489 1151l163 283h256l-252 -283h-167z" />
    <glyph glyph-name="uni0302" unicode="&#x302;" horiz-adv-x="0" 
d="M-410 1296l-155 -147h-207l260 285h205l260 -285h-209z" />
    <glyph glyph-name="tildecomb" unicode="&#x303;" horiz-adv-x="0" 
d="M-562 1262q-20 -28 -20 -66h-133v33q0 87 51 144t134 57q45 0 75 -16q26 -14 66 -44q22 -20 40 -31q17 -10 40 -10q33 0 51 27t18 65h136v-32q0 -88 -52 -146q-51 -57 -133 -57q-51 0 -80 16q-32 18 -61 45q-22 20 -40 31q-17 10 -40 10q-33 0 -52 -26z" />
    <glyph glyph-name="uni0304" unicode="&#x304;" horiz-adv-x="0" 
d="M-707 1227v162h596v-162h-596z" />
    <glyph glyph-name="uni0306" unicode="&#x306;" horiz-adv-x="0" 
d="M-543 1434q0 -61 37 -98q38 -38 94 -38q60 0 98 38t38 98h165q-5 -131 -88 -210t-215 -79t-211 78q-80 78 -84 211h166z" />
    <glyph glyph-name="uni0307" unicode="&#x307;" horiz-adv-x="0" 
d="M-505 1425q37 37 95 37q59 0 96 -37q38 -38 38 -92q0 -56 -38 -94q-37 -37 -96 -37q-58 0 -95 37q-38 38 -38 94q0 54 38 92z" />
    <glyph glyph-name="uni0308" unicode="&#x308;" horiz-adv-x="0" 
d="M-700 1394q38 36 92 36q55 0 92 -36t37 -89q0 -54 -37 -90q-36 -35 -92 -35t-92 35q-37 36 -37 90q0 53 37 89zM-301 1394q37 36 90 36q54 0 92 -36q37 -36 37 -89q0 -54 -37 -90q-36 -35 -92 -35q-54 0 -90 35q-37 36 -37 90q0 53 37 89z" />
    <glyph glyph-name="uni030A" unicode="&#x30a;" horiz-adv-x="0" 
d="M-587 1526q72 69 177 69q106 0 178 -69t72 -166q0 -101 -72 -170q-73 -70 -178 -70q-104 0 -177 70q-72 69 -72 170q0 97 72 166zM-321 1449q-36 36 -89 36t-89 -36t-36 -89q0 -54 36 -92q36 -37 89 -37t89 37q36 38 36 92q0 53 -36 89z" />
    <glyph glyph-name="uni030B" unicode="&#x30b;" horiz-adv-x="0" 
d="M-700 1147l163 287h246l-250 -287h-159zM-319 1147l163 287h246l-250 -287h-159z" />
    <glyph glyph-name="uni030C" unicode="&#x30c;" horiz-adv-x="0" 
d="M-410 1286l156 148h207l-260 -285h-205l-260 285h209z" />
    <glyph glyph-name="uni0312" unicode="&#x312;" horiz-adv-x="0" 
d="M-317 1139h-215l149 295h170z" />
    <glyph glyph-name="uni0326" unicode="&#x326;" horiz-adv-x="0" 
d="M-522 -102h215l-158 -295h-162z" />
    <glyph glyph-name="uni0327" unicode="&#x327;" horiz-adv-x="0" 
d="M-338 49l-33 -125h29q84 0 134 -42t50 -111q0 -82 -55 -131q-56 -50 -147 -50h-211v119h170q75 0 75 60q0 24 -20 38q-21 15 -53 15h-111l55 227h117z" />
    <glyph glyph-name="uni0328" unicode="&#x328;" horiz-adv-x="0" 
d="M-743 -85q50 62 143 126l190 -41q-101 -50 -152 -95q-52 -46 -52 -95q0 -66 82 -66h131v-154h-170q-96 0 -161 51q-63 49 -63 134q0 76 52 140z" />
    <glyph glyph-name="pi" unicode="&#x3c0;" horiz-adv-x="1259" 
d="M1231 1047v-195h-154v-852h-223v852h-451v-852h-223v852h-151v195h1202z" />
    <glyph glyph-name="uni0E3F" unicode="&#xe3f;" horiz-adv-x="1325" 
d="M1237 399q0 -187 -139 -293t-396 -106h-6v-201h-137v201h-428v1434h428v211h137v-211q233 -1 360 -100q126 -98 126 -273q0 -128 -70 -212q-70 -83 -199 -112q324 -55 324 -338zM367 1237v-412h192v412h-192zM696 1237v-412h2q120 0 186 55q64 54 64 152q0 97 -64 151
t-186 54h-2zM367 199h192v432h-192v-432zM920 255q75 56 75 157q0 104 -76 161q-78 58 -217 58h-6v-432h6q143 0 218 56z" />
    <glyph glyph-name="Wgrave" unicode="&#x1e80;" horiz-adv-x="2029" 
d="M39 1434l246 2l305 -1137l319 1135h224l309 -1135l309 1135h240l-410 -1434h-276l-293 1055l-287 -1055h-276zM680 1835h256l158 -285h-170z" />
    <glyph glyph-name="wgrave" unicode="&#x1e81;" horiz-adv-x="1634" 
d="M8 1049h234l239 -803l240 803h203l229 -803l248 803h225l-348 -1049h-238l-221 713l-229 -713l-240 -2zM487 1450h256l158 -285h-170z" />
    <glyph glyph-name="Wacute" unicode="&#x1e82;" horiz-adv-x="2029" 
d="M39 1434l246 2l305 -1137l319 1135h224l309 -1135l309 1135h240l-410 -1434h-276l-293 1055l-287 -1055h-276zM934 1552l164 283h256l-252 -283h-168z" />
    <glyph glyph-name="wacute" unicode="&#x1e83;" horiz-adv-x="1634" 
d="M8 1049h234l239 -803l240 803h203l229 -803l248 803h225l-348 -1049h-238l-221 713l-229 -713l-240 -2zM741 1167l164 283h256l-252 -283h-168z" />
    <glyph glyph-name="Wdieresis" unicode="&#x1e84;" horiz-adv-x="2029" 
d="M39 1434l246 2l305 -1137l319 1135h224l309 -1135l309 1135h240l-410 -1434h-276l-293 1055l-287 -1055h-276zM723 1795q37 36 92 36q54 0 92 -36q37 -36 37 -89t-37 -89q-38 -36 -92 -36q-55 0 -92 36t-37 89t37 89zM1122 1795q38 36 90 36q56 0 93 -36q36 -35 36 -89
t-36 -89q-37 -36 -93 -36q-52 0 -90 36q-37 36 -37 89t37 89z" />
    <glyph glyph-name="wdieresis" unicode="&#x1e85;" horiz-adv-x="1634" 
d="M8 1049h234l239 -803l240 803h203l229 -803l248 803h225l-348 -1049h-238l-221 713l-229 -713l-240 -2zM530 1410q38 36 93 36t92 -36t37 -89t-37 -89t-92 -36t-93 36q-36 35 -36 89t36 89zM930 1410q38 36 90 36q54 0 92 -36q37 -36 37 -89t-37 -89q-38 -36 -92 -36
q-52 0 -90 36q-37 36 -37 89t37 89z" />
    <glyph glyph-name="Ygrave" unicode="&#x1ef2;" horiz-adv-x="1325" 
d="M10 1436h277l377 -658l387 658h264l-535 -906v-530h-235v530zM332 1835h256l157 -285h-170z" />
    <glyph glyph-name="ygrave" unicode="&#x1ef3;" horiz-adv-x="1056" 
d="M240 1049l292 -809l285 809h236l-475 -1213q-37 -92 -68 -144q-30 -50 -76 -76t-121 -26h-237v195h155q65 0 88 19q25 21 52 87l43 101l-410 1057h236zM193 1450h256l157 -285h-170z" />
    <glyph glyph-name="endash" unicode="&#x2013;" horiz-adv-x="1216" 
d="M96 492v180h1024v-180h-1024z" />
    <glyph glyph-name="emdash" unicode="&#x2014;" horiz-adv-x="1890" 
d="M96 674h1698v-180h-1698v180z" />
    <glyph glyph-name="quoteleft" unicode="&#x2018;" horiz-adv-x="458" 
d="M115 965q-52 69 -52 168q0 146 89 229t241 84v-119q-89 -1 -135 -47q-45 -45 -45 -106q0 -17 2 -27q26 20 68 20q54 0 87 -33t33 -98q0 -59 -43 -99t-112 -40q-82 0 -133 68z" />
    <glyph glyph-name="quoteright" unicode="&#x2019;" horiz-adv-x="458" 
d="M344 1378q51 -68 51 -168q0 -147 -88 -229q-89 -83 -241 -84v119q89 1 135 47q45 45 45 106q0 17 -2 27q-26 -20 -68 -20q-54 0 -87 33q-34 34 -34 98q0 59 43 99t113 40q82 0 133 -68z" />
    <glyph glyph-name="quotesinglbase" unicode="&#x201a;" horiz-adv-x="458" 
d="M344 197q51 -67 51 -168q0 -148 -88 -230q-89 -83 -241 -84v119q89 1 135 47q45 45 45 107q0 16 -2 26q-26 -20 -68 -20q-53 0 -87 34t-34 97q0 59 43 99t113 40q82 0 133 -67z" />
    <glyph glyph-name="quotedblleft" unicode="&#x201c;" horiz-adv-x="854" 
d="M115 965q-52 69 -52 168q0 146 89 229t241 84v-119q-89 -1 -135 -47q-45 -45 -45 -106q0 -17 2 -27q26 20 68 20q54 0 87 -33t33 -98q0 -59 -43 -99t-112 -40q-82 0 -133 68zM508 965q-51 67 -51 168q0 147 88 229q89 83 241 84v-119q-89 -1 -135 -47q-45 -45 -45 -106
q0 -17 2 -27q26 20 68 20q54 0 87 -33q34 -34 34 -98q0 -59 -43 -99t-113 -40q-82 0 -133 68z" />
    <glyph glyph-name="quotedblright" unicode="&#x201d;" horiz-adv-x="854" 
d="M344 1378q51 -68 51 -168q0 -147 -88 -229q-89 -83 -241 -84v119q89 1 135 47q45 45 45 106q0 17 -2 27q-26 -20 -68 -20q-54 0 -87 33q-34 34 -34 98q0 59 43 99t113 40q82 0 133 -68zM737 1378q51 -68 51 -168q0 -147 -88 -229q-89 -83 -241 -84v119q89 1 135 47
q45 45 45 106q0 17 -2 27q-26 -20 -68 -20q-54 0 -87 33t-33 98q0 59 43 99t112 40q82 0 133 -68z" />
    <glyph glyph-name="quotedblbase" unicode="&#x201e;" horiz-adv-x="854" 
d="M344 197q51 -67 51 -168q0 -148 -88 -230q-89 -83 -241 -84v119q89 1 135 47q45 45 45 107q0 16 -2 26q-26 -20 -68 -20q-53 0 -87 34t-34 97q0 59 43 99t113 40q82 0 133 -67zM737 197q51 -67 51 -168q0 -148 -88 -230q-89 -83 -241 -84v119q89 1 135 47q45 45 45 107
q0 16 -2 26q-26 -20 -68 -20q-53 0 -87 34q-33 33 -33 97q0 59 43 99t112 40q82 0 133 -67z" />
    <glyph glyph-name="dagger" unicode="&#x2020;" horiz-adv-x="1060" 
d="M999 1018v-184h-370v-834h-197v834h-371v184h371v416h197v-416h370z" />
    <glyph glyph-name="daggerdbl" unicode="&#x2021;" horiz-adv-x="1134" 
d="M1049 909h-381v-385h381v-184h-381v-340h-199v340h-383v184h383v385h-383v185h383v340h199v-340h381v-185z" />
    <glyph glyph-name="bullet" unicode="&#x2022;" horiz-adv-x="878" 
d="M216 912q88 83 222 83q137 0 226 -83q88 -82 88 -216q0 -133 -88 -217t-226 -84q-135 0 -222 84t-87 217q0 134 87 216z" />
    <glyph glyph-name="ellipsis" unicode="&#x2026;" horiz-adv-x="1327" 
d="M128 227q40 39 101 39q63 0 103 -39q41 -39 41 -100t-41 -100q-40 -39 -103 -39q-61 0 -101 39t-40 100t40 100zM562 227q40 39 102 39t102 -39q41 -39 41 -100t-41 -100q-40 -39 -102 -39t-102 39t-40 100t40 100zM994 227q40 39 102 39t102 -39q41 -39 41 -100
t-41 -100q-40 -39 -102 -39t-102 39t-40 100t40 100z" />
    <glyph glyph-name="perthousand" unicode="&#x2030;" horiz-adv-x="2689" 
d="M150 1276q47 80 131 125t188 45t188 -45t131 -125q48 -82 48 -180t-48 -180q-45 -77 -131 -123q-84 -45 -188 -45t-188 45q-86 46 -131 123q-48 82 -48 180t48 180zM340 0l979 1434h219l-981 -1434h-217zM598 1226q-51 52 -129 52q-76 0 -127 -52t-51 -130t51 -130
q51 -53 127 -53q78 0 129 53q51 52 51 130t-51 130zM1085 516q46 79 132 125q84 45 188 45t188 -45t131 -125q48 -82 48 -180q0 -96 -48 -178q-47 -80 -131 -125t-188 -45t-188 45q-86 46 -132 125q-47 80 -47 178q0 100 47 180zM1900 516q48 80 132 125t188 45t188 -45
q86 -46 132 -125q47 -80 47 -180q0 -98 -47 -178q-46 -79 -132 -125q-84 -45 -188 -45t-188 45t-132 125q-49 81 -49 178q0 99 49 180zM1532 467q-51 53 -127 53q-75 0 -128 -53q-52 -52 -52 -131q0 -78 51 -129t129 -51q79 0 128 51q50 52 50 129q0 78 -51 131zM2347 467
q-51 53 -127 53q-78 0 -129 -53t-51 -131t51 -129t129 -51t128 51q50 52 50 129q0 78 -51 131z" />
    <glyph glyph-name="guilsinglleft" unicode="&#x2039;" horiz-adv-x="720" 
d="M631 1049l-316 -525l316 -524h-223l-320 524l320 525h223z" />
    <glyph glyph-name="guilsinglright" unicode="&#x203a;" horiz-adv-x="720" 
d="M90 1049h223l320 -525l-320 -524h-223l316 524z" />
    <glyph glyph-name="uni2042" unicode="&#x2042;" horiz-adv-x="1984" 
d="M1339 1229l-243 -90l168 -191l-119 -102l-164 215l-162 -213l-117 102l168 191l-241 90l61 143l223 -106l-6 250h152l-6 -252l225 108zM844 285l-244 -90l168 -191l-119 -102l-164 215l-161 -213l-117 102l168 191l-242 90l62 143l223 -106l-6 249h151l-6 -251l225 108z
M1851 285l-243 -90l168 -191l-119 -102l-164 215l-162 -213l-117 102l168 191l-241 90l61 143l223 -106l-6 249h152l-6 -251l225 108z" />
    <glyph glyph-name="fraction" unicode="&#x2044;" horiz-adv-x="389" 
d="M-348 0l909 1434h176l-907 -1434h-178z" />
    <glyph glyph-name="uni2051" unicode="&#x2051;" horiz-adv-x="974" 
d="M844 1229l-244 -90l168 -191l-119 -102l-164 215l-161 -213l-117 102l168 191l-242 90l62 143l223 -106l-6 250h151l-6 -252l225 108zM844 283l-244 -90l168 -191l-119 -102l-164 215l-161 -213l-117 102l168 191l-242 90l62 143l223 -106l-6 249h151l-6 -252l225 109z
" />
    <glyph glyph-name="uni2070" unicode="&#x2070;" horiz-adv-x="704" 
d="M127 1548q84 105 225 105q142 0 226 -105t84 -280q0 -176 -84 -281q-83 -104 -226 -104q-142 0 -225 104q-84 105 -84 281q0 175 84 280zM465 1448q-41 68 -113 68q-71 0 -112 -68t-41 -180t41 -179t112 -67q72 0 113 67t41 179t-41 180z" />
    <glyph glyph-name="uni2074" unicode="&#x2074;" horiz-adv-x="708" 
d="M367 1638h188v-434h115v-135h-115v-176h-149v176h-367v135zM406 1487l-216 -283h216v283z" />
    <glyph glyph-name="uni2075" unicode="&#x2075;" horiz-adv-x="647" 
d="M561 1505h-362l-13 -178q30 33 74 51q46 19 94 19q111 0 180 -71q68 -69 68 -183q0 -119 -77 -191q-75 -71 -199 -71q-116 0 -192 63q-78 64 -85 168h150q7 -43 43 -69q34 -25 86 -25t87 35q34 34 34 90q0 57 -34 91t-89 34q-41 2 -73 -18q-33 -20 -50 -52h-144l21 440
h481v-133z" />
    <glyph glyph-name="uni2076" unicode="&#x2076;" horiz-adv-x="667" 
d="M126 1544q88 109 230 109q103 0 178 -60q74 -59 89 -163h-146q-7 46 -44 75t-85 29q-74 0 -120 -66q-46 -65 -46 -165v-50q16 52 64 89q47 36 125 36q117 0 187 -67q71 -68 71 -178q0 -113 -77 -182q-75 -68 -204 -68q-150 0 -229 101q-80 103 -80 271q0 181 87 289z
M442 1226q-38 36 -94 36q-58 0 -96 -35q-37 -34 -37 -92t37 -94q36 -35 96 -35t95 34q36 34 36 93q0 57 -37 93z" />
    <glyph glyph-name="uni2077" unicode="&#x2077;" horiz-adv-x="614" 
d="M37 1638h547v-125l-314 -622h-164l312 614l-381 -2v135z" />
    <glyph glyph-name="uni2078" unicode="&#x2078;" horiz-adv-x="679" 
d="M80 1214q38 49 108 70q-122 45 -122 168q0 88 75 144q77 57 201 57t200 -57t76 -144q0 -119 -120 -168q66 -21 104 -69q37 -47 37 -117q0 -95 -80 -155t-217 -60q-136 0 -218 60q-83 60 -83 155q0 66 39 116zM433 1507q-37 29 -91 29t-91 -29q-36 -29 -36 -73
q0 -46 36 -73q37 -28 91 -28t91 28q36 27 36 73q0 44 -36 73zM444 1191q-41 32 -102 32q-60 0 -103 -32q-42 -31 -42 -79t41 -78q40 -30 104 -30q62 0 102 30q41 30 41 78q0 47 -41 79z" />
    <glyph glyph-name="uni2079" unicode="&#x2079;" horiz-adv-x="667" 
d="M543 991q-85 -108 -230 -108q-106 0 -178 59q-74 60 -90 164h145q11 -47 46 -76t83 -29q75 0 122 64q46 62 46 168v49q-17 -54 -64 -89q-48 -36 -124 -36q-118 0 -189 68t-71 178q0 114 77 182t206 68q148 0 227 -102q80 -103 80 -271q0 -180 -86 -289zM226 1310
q36 -36 96 -36q58 0 95 35q36 35 36 92t-36 93t-95 36t-96 -35q-36 -35 -36 -92t36 -93z" />
    <glyph glyph-name="uni2080" unicode="&#x2080;" horiz-adv-x="702" 
d="M125 449q83 104 225 104t225 -104q84 -105 84 -281t-84 -281q-83 -104 -225 -104t-225 104q-84 105 -84 281t84 281zM463 348q-41 68 -113 68q-71 0 -112 -68t-41 -180t41 -179t112 -67q72 0 113 67t41 179t-41 180z" />
    <glyph glyph-name="uni2081" unicode="&#x2081;" horiz-adv-x="389" 
d="M170 -205v475q-12 -16 -39 -16h-131v141h127q20 0 34 20q13 19 13 46v80h145v-746h-149z" />
    <glyph glyph-name="uni2082" unicode="&#x2082;" horiz-adv-x="655" 
d="M43 285q0 120 80 194t199 74q127 0 206 -67q78 -66 78 -175q0 -74 -37 -126q-38 -53 -106 -105l-187 -143h336v-142h-565v133l301 224q52 39 75 72q26 37 26 83q0 49 -35 79q-34 30 -90 30q-60 0 -96 -36q-35 -35 -35 -101v-9h-150v15z" />
    <glyph glyph-name="uni2083" unicode="&#x2083;" horiz-adv-x="675" 
d="M135 488q77 65 203 65q127 0 202 -57q74 -56 74 -152q0 -62 -35 -101t-90 -55q67 -12 104 -57q38 -46 38 -113q0 -109 -80 -172q-79 -63 -219 -63t-217 66q-76 66 -78 190h151q1 -57 40 -89q38 -32 104 -32q58 0 98 29q39 28 39 76q0 47 -39 74q-40 28 -106 28h-43v102
h45q58 0 95 26q36 25 36 71q0 42 -33 68q-34 26 -86 26q-57 0 -92 -29q-36 -29 -37 -78h-152q1 113 78 177z" />
    <glyph glyph-name="uni2084" unicode="&#x2084;" horiz-adv-x="708" 
d="M367 541h188v-435h115v-135h-115v-176h-149v176h-367v135zM406 389l-216 -283h216v283z" />
    <glyph glyph-name="uni2085" unicode="&#x2085;" horiz-adv-x="647" 
d="M561 408h-362l-13 -179q31 34 74 52q44 18 94 18q111 0 180 -71q68 -69 68 -183q0 -118 -77 -190t-199 -72q-116 0 -192 63q-78 64 -85 168h150q7 -42 43 -68q35 -26 86 -26q52 0 87 35q34 34 34 90q0 57 -34 91t-89 34q-43 2 -73 -17q-32 -20 -50 -53h-144l21 441h481
v-133z" />
    <glyph glyph-name="uni2086" unicode="&#x2086;" horiz-adv-x="667" 
d="M126 444q88 109 230 109q104 0 178 -59t89 -164h-146q-8 47 -44 76q-35 28 -85 28q-74 0 -120 -65t-46 -166v-49q16 52 64 89q46 36 125 36q116 0 187 -68t71 -178q0 -112 -77 -181q-76 -69 -204 -69q-150 0 -229 101q-80 103 -80 272q0 180 87 288zM442 126
q-38 36 -94 36q-58 0 -96 -35q-37 -34 -37 -92q0 -57 37 -93t96 -36q58 0 95 35q36 34 36 92q0 57 -37 93z" />
    <glyph glyph-name="uni2087" unicode="&#x2087;" horiz-adv-x="614" 
d="M37 543h547v-125l-314 -623h-164l312 615l-381 -2v135z" />
    <glyph glyph-name="uni2088" unicode="&#x2088;" horiz-adv-x="679" 
d="M80 115q37 48 108 69q-122 45 -122 168q0 89 75 145t201 56q125 0 200 -56q76 -57 76 -145q0 -119 -120 -168q67 -21 104 -68t37 -118q0 -95 -80 -155t-217 -60q-136 0 -218 60q-83 60 -83 155q0 68 39 117zM433 408q-35 28 -91 28t-91 -28q-36 -28 -36 -74t36 -73
q37 -28 91 -28t91 28q36 27 36 73t-36 74zM444 91q-41 32 -102 32q-60 0 -103 -32q-42 -31 -42 -79t41 -78q40 -30 104 -30q62 0 102 30q41 30 41 78q0 47 -41 79z" />
    <glyph glyph-name="uni2089" unicode="&#x2089;" horiz-adv-x="667" 
d="M543 -109q-85 -108 -230 -108q-106 0 -178 59q-74 60 -90 164h145q11 -47 46 -76q34 -28 83 -28q76 0 122 63q46 62 46 168v49q-17 -54 -64 -89q-48 -36 -124 -36q-118 0 -189 68t-71 178q0 114 77 182t206 68q148 0 227 -101q80 -103 80 -272q0 -180 -86 -289zM226 210
q36 -36 96 -36q58 0 95 35q36 35 36 92t-36 93t-95 36t-96 -35q-36 -35 -36 -92t36 -93z" />
    <glyph glyph-name="franc" unicode="&#x20a3;" horiz-adv-x="1138" 
d="M1090 1225h-680v-416h561v-203h-561v-215h278v-172h-278v-219h-236v219h-176v172h176v1043h916v-209z" />
    <glyph glyph-name="uni20A8" unicode="&#x20a8;" horiz-adv-x="1255" 
d="M1196 1434l-27 -152h-313q87 -98 105 -229h210l-26 -152h-184q-18 -116 -91 -204q-72 -87 -182 -126l303 -571h-262l-272 520h-326v203h318q103 0 172 48q70 49 92 130h-582v152h582q-21 82 -90 130t-174 48h-318v203h1065z" />
    <glyph glyph-name="Euro" unicode="&#x20ac;" horiz-adv-x="1366" 
d="M45 496v153h131q-2 22 -2 68q0 25 2 55h-131v152h141q33 245 184 384q150 138 378 138q239 0 385 -135q145 -134 163 -365h-231q-18 140 -99 219q-82 80 -210 80q-132 0 -221 -84t-111 -237h364l-26 -152h-352q-2 -24 -2 -53l2 -70h323l-26 -153h-283q29 -148 116 -228
q88 -80 218 -80q126 0 206 80q78 78 101 219h229q-23 -232 -166 -365q-145 -134 -380 -134q-225 0 -374 134t-188 374h-141z" />
    <glyph glyph-name="uni20BF" unicode="&#x20bf;" horiz-adv-x="1302" 
d="M358 1434v215h164v-215h137v215h164v-228q159 -29 248 -122q88 -92 88 -238q0 -129 -69 -212q-70 -83 -199 -112q323 -55 323 -338q0 -159 -102 -261t-289 -126v-209h-164v197h-137v-197h-164v197h-227v1434h227zM367 825h307q117 0 184 55q66 54 66 152q0 97 -65 151
q-64 54 -185 54h-307v-412zM367 199h315q140 0 215 56q76 57 76 157q0 104 -77 161q-78 58 -214 58h-315v-432z" />
    <glyph glyph-name="trademark" unicode="&#x2122;" horiz-adv-x="1456" 
d="M86 1434h487v-123h-176v-428h-135v428h-176v123zM637 1434h186l166 -383l164 383h184v-551h-129v389l-170 -389h-106l-166 389v-389h-129v551z" />
    <glyph glyph-name="uni2126" unicode="&#x2126;" horiz-adv-x="1509" 
d="M877 330q159 94 231 210q72 115 72 271q0 123 -56 223q-56 99 -153 154q-98 55 -219 55q-122 0 -217 -55q-98 -57 -151 -154q-54 -99 -54 -223q0 -156 70 -271q70 -114 231 -210v-330h-522v209h342v55q-361 147 -361 559q0 190 85 330t236 217q149 76 341 76
q195 0 346 -76t236 -216t85 -329q0 -202 -89 -347t-273 -214v-55h346v-209h-526v330z" />
    <glyph glyph-name="uni2153" unicode="&#x2153;" horiz-adv-x="1429" 
d="M170 690v475q-12 -16 -39 -16h-131v141h127q20 0 34 20q13 19 13 46v80h145v-746h-149zM41 0l909 1434h176l-907 -1434h-178zM903 693q77 65 203 65t202 -58q74 -56 74 -151q0 -63 -35 -102q-34 -38 -90 -54q67 -12 104 -57q38 -46 38 -113q0 -109 -80 -172
q-79 -63 -219 -63t-217 66q-76 66 -78 190h151q1 -57 40 -89q38 -32 104 -32q58 0 98 29q39 28 39 75q0 48 -39 75q-40 28 -106 28h-43v102h45q58 0 95 26q36 26 36 70t-33 69q-34 26 -86 26q-57 0 -92 -29q-36 -29 -37 -78h-152q1 112 78 177z" />
    <glyph glyph-name="uni2155" unicode="&#x2155;" horiz-adv-x="1398" 
d="M170 690v475q-12 -16 -39 -16h-131v141h127q20 0 34 20q13 19 13 46v80h145v-746h-149zM41 0l909 1434h176l-907 -1434h-178zM1327 612h-362l-13 -178q30 33 74 51q46 19 94 19q110 0 179 -71t69 -183q0 -119 -77 -191q-75 -71 -199 -71q-116 0 -192 63q-78 64 -85 168
h150q7 -42 43 -68q35 -26 86 -26q52 0 87 35q33 33 33 90q0 58 -33 91q-34 34 -89 34q-41 2 -73 -18q-33 -20 -50 -52h-144l21 440h481v-133z" />
    <glyph glyph-name="uni2156" unicode="&#x2156;" horiz-adv-x="1665" 
d="M43 1178q0 120 80 194t199 74q127 0 206 -67q78 -66 78 -175q0 -74 -37 -126q-38 -53 -106 -105l-187 -144h336v-141h-565v133l301 223q50 38 75 73q26 37 26 83q0 49 -35 79q-34 30 -90 30q-60 0 -96 -36q-35 -35 -35 -102v-8h-150v15zM307 0l910 1434h176l-908 -1434
h-178zM1593 612h-362l-12 -178q30 33 73 51q46 19 94 19q111 0 180 -71q68 -69 68 -183q0 -119 -76 -191q-75 -71 -200 -71q-116 0 -192 63q-78 64 -85 168h150q7 -42 43 -68q35 -26 86 -26q52 0 87 35q34 34 34 90q0 57 -34 91t-89 34q-41 2 -73 -18q-33 -20 -50 -52h-143
l20 440h481v-133z" />
    <glyph glyph-name="uni2157" unicode="&#x2157;" horiz-adv-x="1683" 
d="M135 1385q77 65 203 65q127 0 202 -57q74 -56 74 -152q0 -62 -35 -101t-90 -55q67 -12 104 -57q38 -46 38 -113q0 -109 -80 -172q-79 -63 -219 -63t-217 66q-76 66 -78 190h151q1 -57 40 -89q38 -32 104 -32q58 0 98 29q39 28 39 76q0 47 -39 74q-40 28 -106 28h-43v102
h45q58 0 95 26q36 26 36 71q0 43 -33 68q-34 26 -86 26q-57 0 -92 -29q-36 -29 -37 -78h-152q1 112 78 177zM328 0l909 1434h176l-907 -1434h-178zM1614 612h-363l-12 -178q30 33 74 51q46 19 94 19q110 0 179 -71t69 -183q0 -119 -77 -191q-75 -71 -200 -71q-114 0 -191 63
q-78 64 -85 168h149q7 -42 43 -68q35 -26 86 -26q52 0 87 35q34 34 34 90q0 57 -34 91t-89 34q-40 1 -72 -18q-34 -21 -51 -52h-143l21 440h481v-133z" />
    <glyph glyph-name="uni2158" unicode="&#x2158;" horiz-adv-x="1716" 
d="M367 1434h188v-435h115v-135h-115v-176h-149v176h-367v135zM406 1282l-216 -283h216v283zM360 0l910 1434h176l-907 -1434h-179zM1647 612h-363l-12 -178q30 33 74 51q46 19 94 19q110 0 179 -71t69 -183q0 -119 -77 -191q-75 -71 -200 -71q-115 0 -191 63
q-78 64 -85 168h149q7 -42 43 -68q35 -26 86 -26q52 0 87 35q34 34 34 90q0 57 -34 91t-89 34q-41 2 -73 -18q-33 -20 -50 -52h-143l20 440h482v-133z" />
    <glyph glyph-name="uni2159" unicode="&#x2159;" horiz-adv-x="1384" 
d="M170 690v475q-12 -16 -39 -16h-131v141h127q20 0 34 20q13 19 13 46v80h145v-746h-149zM41 0l909 1434h176l-907 -1434h-178zM851 649q88 109 230 109q103 0 178 -60q74 -59 89 -163h-146q-7 46 -44 75t-85 29q-73 0 -120 -66q-46 -65 -46 -165v-50q16 52 64 89
q47 36 125 36q117 0 187 -67q71 -68 71 -178q0 -113 -77 -182q-75 -68 -204 -68q-150 0 -229 101q-80 103 -80 271q0 181 87 289zM1167 331q-37 36 -94 36q-58 0 -96 -35q-37 -34 -37 -92t37 -94q36 -35 96 -35t95 34q36 35 36 93q0 57 -37 93z" />
    <glyph glyph-name="oneeighth" unicode="&#x215b;" horiz-adv-x="1413" 
d="M170 690v475q-12 -16 -39 -16h-131v141h127q20 0 34 20q13 19 13 46v80h145v-746h-149zM41 0l909 1434h176l-907 -1434h-178zM823 319q38 48 109 70q-123 45 -123 168q0 87 76 144t200 57q123 0 200 -57t77 -144q0 -119 -121 -168q69 -21 105 -68q36 -46 36 -118
q0 -95 -79 -155t-218 -60q-135 0 -218 60t-83 155q0 67 39 116zM1177 612q-37 29 -92 29q-54 0 -91 -29q-36 -28 -36 -73q0 -46 36 -73q37 -28 91 -28q55 0 92 28q35 26 35 73q0 45 -35 73zM1188 296q-41 32 -103 32q-60 0 -103 -32q-42 -32 -42 -79q0 -48 41 -78t104 -30
t103 30q41 30 41 78q0 47 -41 79z" />
    <glyph glyph-name="threeeighths" unicode="&#x215c;" horiz-adv-x="1699" 
d="M135 1385q77 65 203 65q127 0 202 -57q74 -56 74 -152q0 -62 -35 -101t-90 -55q67 -12 104 -57q38 -46 38 -113q0 -109 -80 -172q-79 -63 -219 -63t-217 66q-76 66 -78 190h151q1 -57 40 -89q38 -32 104 -32q58 0 98 29q39 28 39 76q0 47 -39 74q-40 28 -106 28h-43v102
h45q58 0 95 26q36 26 36 71q0 43 -33 68q-34 26 -86 26q-57 0 -92 -29q-36 -29 -37 -78h-152q1 112 78 177zM328 0l909 1434h176l-907 -1434h-178zM1110 319q38 48 109 70q-123 45 -123 168q0 88 75 144q77 57 201 57t200 -57q77 -57 77 -144q0 -119 -121 -168
q67 -21 104 -68t37 -118q0 -95 -80 -155q-79 -60 -217 -60q-136 0 -218 60q-83 60 -83 155q0 67 39 116zM1463 612q-37 29 -91 29t-91 -29q-36 -28 -36 -73q0 -46 36 -73q37 -28 91 -28t91 28q36 27 36 73q0 45 -36 73zM1475 296q-41 32 -103 32q-60 0 -103 -32
q-42 -32 -42 -79q0 -48 41 -78q40 -30 104 -30q62 0 103 30t41 78q0 47 -41 79z" />
    <glyph glyph-name="fiveeighths" unicode="&#x215d;" horiz-adv-x="1671" 
d="M561 1300h-362l-13 -178q31 34 74 52t94 18q111 0 180 -71q68 -69 68 -183q0 -118 -77 -190t-199 -72q-116 0 -192 63q-78 64 -85 168h150q7 -42 43 -68q35 -26 86 -26q52 0 87 35q34 34 34 90q0 57 -34 91t-89 34q-43 2 -73 -17q-32 -20 -50 -53h-144l21 441h481v-134z
M299 0l909 1434h176l-907 -1434h-178zM1081 319q38 48 109 70q-123 45 -123 168q0 87 76 144q77 57 200 57t200 -57t77 -144q0 -119 -121 -168q69 -21 105 -68q36 -46 36 -118q0 -95 -79 -155t-218 -60q-135 0 -218 60t-83 155q0 67 39 116zM1435 612q-37 29 -92 29
q-54 0 -91 -29q-35 -28 -35 -73q0 -47 35 -73q37 -28 91 -28q55 0 92 28q35 26 35 73q0 45 -35 73zM1446 296q-41 32 -103 32q-60 0 -103 -32q-42 -32 -42 -79q0 -48 41 -78t104 -30t103 30q41 30 41 78q0 47 -41 79z" />
    <glyph glyph-name="seveneighths" unicode="&#x215e;" horiz-adv-x="1638" 
d="M37 1434h547v-125l-314 -623h-164l312 614l-381 -2v136zM266 0l910 1434h176l-908 -1434h-178zM1049 319q38 49 108 70q-123 45 -123 168q0 87 76 144t201 57q123 0 199 -57q77 -57 77 -144q0 -119 -121 -168q69 -21 105 -68q37 -47 37 -118q0 -95 -80 -155
q-79 -60 -217 -60q-135 0 -218 60t-83 155q0 67 39 116zM1402 612q-37 29 -91 29t-91 -29q-36 -28 -36 -73q0 -46 36 -73q37 -28 91 -28t91 28q36 27 36 73q0 45 -36 73zM1413 296q-41 32 -102 32t-104 -32q-42 -32 -42 -79q0 -48 41 -78q40 -30 105 -30q61 0 102 30t41 78
q0 47 -41 79z" />
    <glyph glyph-name="arrowleft" unicode="&#x2190;" horiz-adv-x="1222" 
d="M16 549l564 565l137 -137l-338 -326h739v-205h-739l338 -325l-137 -137z" />
    <glyph glyph-name="arrowup" unicode="&#x2191;" horiz-adv-x="1329" 
d="M1229 498l-137 -136l-326 336v-698h-203v698l-325 -336l-138 136l564 563z" />
    <glyph glyph-name="arrowright" unicode="&#x2192;" horiz-adv-x="1222" 
d="M1206 551l-563 -565l-137 137l338 326h-740v204h740l-338 326l137 137z" />
    <glyph glyph-name="arrowdown" unicode="&#x2193;" horiz-adv-x="1329" 
d="M1229 547l-565 -563l-564 563l138 135l325 -336v698h203v-698l326 336z" />
    <glyph glyph-name="arrowboth" unicode="&#x2194;" horiz-adv-x="1761" 
d="M1157 1067l516 -518l-516 -518l-135 137l289 278h-860l290 -278l-137 -137l-516 518l516 518l137 -137l-290 -279h860l-289 279z" />
    <glyph glyph-name="arrowupdn" unicode="&#x2195;" horiz-adv-x="1210" 
d="M88 967l518 516l518 -516l-137 -138l-278 289v-817l278 289l137 -137l-520 -516l-516 516l137 137l279 -289v817l-279 -289z" />
    <glyph glyph-name="uni2196" unicode="&#x2196;" horiz-adv-x="1044" 
d="M100 1049h799v-185l-487 4l532 -520l-143 -145l-522 534l4 -487h-183v799z" />
    <glyph glyph-name="uni2197" unicode="&#x2197;" horiz-adv-x="1044" 
d="M944 1049v-799h-182l4 487l-522 -534l-144 145l533 520l-488 -4v185h799z" />
    <glyph glyph-name="uni2198" unicode="&#x2198;" horiz-adv-x="1044" 
d="M145 182l488 -4l-533 520l144 146l522 -535l-4 488h182v-799h-799v184z" />
    <glyph glyph-name="uni2199" unicode="&#x2199;" horiz-adv-x="1044" 
d="M283 799l-4 -490l522 535l143 -146l-532 -520l487 4v-184h-799v801h183z" />
    <glyph glyph-name="partialdiff" unicode="&#x2202;" horiz-adv-x="1224" 
d="M144 725q65 105 177 163q108 56 236 56q101 0 188 -29q88 -29 138 -84q-52 172 -205 284q-151 111 -445 138v193q307 -10 511 -138q203 -127 300 -328q97 -202 97 -431q0 -160 -62 -289t-182 -200q-121 -72 -293 -72q-155 0 -275 63t-186 174q-65 109 -65 250
q0 143 66 250zM827 259q84 87 84 228q0 131 -88 210t-219 79q-133 0 -217 -84t-84 -217q0 -132 84 -218q84 -85 217 -85q139 0 223 87z" />
    <glyph glyph-name="emptyset" unicode="&#x2205;" horiz-adv-x="1267" 
d="M1194 729q0 -153 -72 -275q-74 -124 -199 -192q-127 -69 -288 -69q-199 0 -342 104l-92 -94l-111 106l92 94q-104 140 -104 326q0 155 72 276q73 123 199 191q129 70 286 70q183 0 317 -88l97 98l110 -107l-90 -90q125 -145 125 -350zM342 563l463 467q-78 45 -170 45
q-93 0 -170 -45q-75 -44 -119 -125q-43 -79 -43 -176q0 -88 39 -166zM805 428q76 45 120 125t44 176q0 102 -54 195l-475 -480q83 -61 195 -61q93 0 170 45z" />
    <glyph glyph-name="uni2206" unicode="&#x2206;" horiz-adv-x="1402" 
d="M51 0v188l506 1246h289l506 -1246v-188h-1301zM301 213h784l-393 981z" />
    <glyph glyph-name="product" unicode="&#x220f;" horiz-adv-x="1513" 
d="M1456 1434v-209h-172v-1442h-235v1442h-582v-1442h-236v1442h-172v209h1397z" />
    <glyph glyph-name="summation" unicode="&#x2211;" horiz-adv-x="1273" 
d="M74 -27l571 660l-530 610v191h1061v-207h-754l448 -516v-150l-501 -575h823v-203h-1118v190z" />
    <glyph glyph-name="minus" unicode="&#x2212;" 
d="M104 492v186h857v-186h-857z" />
    <glyph glyph-name="radical" unicode="&#x221a;" horiz-adv-x="1230" 
d="M205 715l-105 -53l-75 167l297 142l292 -699l359 1162h219l-449 -1434h-227z" />
    <glyph glyph-name="infinity" unicode="&#x221e;" horiz-adv-x="1681" 
d="M1027 234q-86 54 -189 200q-102 -145 -190 -200q-87 -54 -197 -54q-119 0 -208 58q-86 56 -133 152t-47 208q0 111 47 207q46 94 133 151q89 58 208 58q108 0 198 -55q91 -55 191 -197q100 142 188 197q87 55 197 55q119 0 208 -58q87 -57 133 -151q46 -93 46 -207
q0 -115 -46 -208q-47 -96 -133 -152q-89 -58 -208 -58q-111 0 -198 54zM587 425q54 44 138 171q-86 129 -138 172q-58 47 -126 47q-91 0 -143 -60q-52 -59 -52 -157q0 -102 51 -161q51 -58 144 -58q70 0 126 46zM1087 426q58 -47 127 -47q93 0 144 58q51 59 51 161
q0 98 -52 157q-53 60 -143 60q-69 0 -127 -47q-57 -47 -137 -170q80 -126 137 -172z" />
    <glyph glyph-name="integral" unicode="&#x222b;" horiz-adv-x="815" 
d="M186 -23q56 0 84 28q27 27 27 87v1043q0 148 71 224q70 75 222 75h170v-195h-131q-56 0 -84 -28q-27 -27 -27 -87v-1042q0 -148 -71 -224q-71 -75 -222 -75h-170v194h131z" />
    <glyph glyph-name="approxequal" unicode="&#x2248;" 
d="M104 131q0 158 66 242t184 84q70 0 116 -21q52 -24 99 -57q30 -24 59 -38q22 -11 50 -11q56 0 79 32t23 95h181q0 -159 -66 -241q-66 -83 -184 -83q-68 0 -116 20q-46 19 -101 58q-37 27 -57 37q-24 12 -50 12q-102 0 -102 -129h-181zM104 590q0 157 66 241t184 84
q72 0 116 -20q52 -24 99 -57q30 -24 59 -38q24 -12 50 -12q55 0 79 33q23 32 23 94h181q0 -157 -66 -240t-184 -83q-71 0 -116 19q-42 18 -101 59q-37 27 -57 37q-24 12 -50 12q-102 0 -102 -129h-181z" />
    <glyph glyph-name="notequal" unicode="&#x2260;" 
d="M940 690h-266l-82 -246h348v-186h-412l-63 -192h-209l63 192h-194v186h258l82 246h-340v189h401l62 182h209l-62 -182h205v-189z" />
    <glyph glyph-name="lessequal" unicode="&#x2264;" 
d="M137 629v209l791 342v-215l-545 -232l545 -231v-215zM137 0v186h791v-186h-791z" />
    <glyph glyph-name="greaterequal" unicode="&#x2265;" 
d="M928 838v-209l-791 -342v215l545 231l-545 232v215zM137 0v186h791v-186h-791z" />
    <glyph glyph-name="dotmath" unicode="&#x22c5;" horiz-adv-x="458" 
d="M128 705q39 38 101 38q64 0 103 -38q41 -39 41 -101q0 -61 -41 -100q-40 -39 -103 -39q-61 0 -101 39t-40 100q0 62 40 101z" />
    <glyph glyph-name="filledbox" unicode="&#x25a0;" horiz-adv-x="1703" 
d="M131 1434h1442v-1434h-1442v1434z" />
    <glyph glyph-name="uni25A1" unicode="&#x25a1;" horiz-adv-x="1699" 
d="M131 1434h1438v-1434h-1438v1434zM356 1229v-1024h987v1024h-987z" />
    <glyph glyph-name="uni25AF" unicode="&#x25af;" horiz-adv-x="1253" 
d="M131 1434h991v-1434h-991v1434zM356 1229v-1024h541v1024h-541z" />
    <glyph glyph-name="triagup" unicode="&#x25b2;" horiz-adv-x="1771" 
d="M889 1458l837 -1458h-1679z" />
    <glyph glyph-name="uni25B3" unicode="&#x25b3;" horiz-adv-x="1771" 
d="M889 1458l837 -1458h-1679zM887 1044l-488 -841h973z" />
    <glyph glyph-name="uni25B6" unicode="&#x25b6;" horiz-adv-x="1038" 
d="M109 1036l913 -524l-913 -524v1048z" />
    <glyph glyph-name="uni25B7" unicode="&#x25b7;" horiz-adv-x="1056" 
d="M109 1061l931 -537l-931 -534v1071zM276 270l449 254l-449 258v-512z" />
    <glyph glyph-name="uni25C0" unicode="&#x25c0;" horiz-adv-x="1038" 
d="M930 1036v-1048l-914 524z" />
    <glyph glyph-name="uni25C1" unicode="&#x25c1;" horiz-adv-x="1056" 
d="M948 1061v-1071l-932 534zM780 270v512l-448 -258z" />
    <glyph glyph-name="lozenge" unicode="&#x25ca;" horiz-adv-x="1271" 
d="M774 1434l410 -717l-410 -719h-276l-410 719l410 717h276zM637 180l291 537l-291 536l-293 -536z" />
    <glyph glyph-name="circle" unicode="&#x25cb;" horiz-adv-x="1632" 
d="M1194 1352q168 -94 264 -261q96 -166 96 -374q0 -207 -96 -374t-264 -261q-167 -94 -379 -94t-379 94q-168 94 -264 261t-96 374t96 374t264 261q167 94 379 94t379 -94zM519 1231q-132 -77 -207 -211q-74 -133 -74 -303t74 -303q75 -134 207 -211q131 -76 296 -76
q167 0 298 76q132 77 207 211q75 135 75 303t-75 303q-75 134 -207 211q-131 76 -298 76q-165 0 -296 -76z" />
    <glyph glyph-name="uni25CF" unicode="&#x25cf;" horiz-adv-x="1624" 
d="M434 1352q-169 -95 -263 -261q-95 -167 -95 -374t95 -374q94 -166 263 -261q167 -94 377 -94t377 94q169 95 263 261q95 167 95 374t-95 374q-94 166 -263 261q-167 94 -377 94t-377 -94z" />
    <glyph glyph-name="uni25FD" unicode="&#x25fd;" horiz-adv-x="1265" 
d="M109 1047h1048v-1049h-1048v1049zM283 881v-715h696v715h-696z" />
    <glyph glyph-name="uni25FE" unicode="&#x25fe;" horiz-adv-x="1257" 
d="M109 1040h1040v-1040h-1040v1040z" />
    <glyph glyph-name="uni262E" unicode="&#x262e;" horiz-adv-x="1619" 
d="M170 1092q94 165 262 260q167 94 377 94q212 0 378 -94q167 -95 261 -260q94 -166 94 -375t-94 -375q-94 -165 -261 -260q-166 -94 -378 -94q-210 0 -377 94q-168 95 -262 260q-94 166 -94 375t94 375zM723 1247q-135 -17 -236 -88q-102 -72 -160 -187q-59 -116 -59 -255
q0 -145 82 -252l373 381v401zM895 844l371 -379q86 107 86 252q0 139 -59 255t-161 187q-103 71 -237 88v-403zM895 186q179 22 299 136l-299 307v-443zM426 322q120 -114 297 -136v441z" />
    <glyph glyph-name="uni26AA" unicode="&#x26aa;" horiz-adv-x="1196" 
d="M866 976q123 -70 191 -190q69 -121 69 -266q0 -144 -69 -266q-68 -119 -191 -189q-122 -69 -268 -69t-268 69q-123 70 -191 189q-69 121 -69 266q0 144 69 266q68 120 191 190q120 68 268 68t268 -68zM418 833q-82 -48 -129 -131t-47 -182q0 -98 47 -181t129 -131
t180 -48t180 48t129 131t47 181q0 99 -47 182t-129 131q-83 48 -180 48q-98 0 -180 -48z" />
    <glyph glyph-name="uni26AB" unicode="&#x26ab;" horiz-adv-x="1196" 
d="M866 976q123 -70 191 -190q69 -121 69 -266q0 -144 -69 -266q-68 -119 -191 -189q-122 -69 -268 -69t-268 69q-123 70 -191 189q-69 121 -69 266q0 144 69 266q68 120 191 190q120 68 268 68t268 -68z" />
    <glyph glyph-name="uni2713" unicode="&#x2713;" horiz-adv-x="2084" 
d="M47 715l156 157l559 -557l1116 1119l160 -158l-1276 -1276z" />
    <glyph glyph-name="uni2715" unicode="&#x2715;" horiz-adv-x="1587" 
d="M236 1434l557 -557l559 557l157 -158l-559 -557l559 -561l-157 -156l-559 557l-557 -557l-158 156l559 561l-559 557z" />
    <glyph glyph-name="uni2780" unicode="&#x2780;" horiz-adv-x="1632" 
d="M1194 1352q168 -94 264 -261q96 -166 96 -374q0 -207 -96 -374t-264 -261q-167 -94 -379 -94t-379 94q-168 94 -264 261t-96 374t96 374t264 261q167 94 379 94t379 -94zM519 1231q-132 -77 -207 -211q-74 -133 -74 -303t74 -303q75 -134 207 -211q131 -76 296 -76
q167 0 298 76q132 77 207 211q75 135 75 303t-75 303q-75 134 -207 211q-131 76 -298 76q-165 0 -296 -76zM756 344v475q-12 -16 -39 -16h-131v141h127q19 0 33 20t14 46v80h145v-746h-149z" />
    <glyph glyph-name="uni2781" unicode="&#x2781;" horiz-adv-x="1632" 
d="M1194 1352q168 -94 264 -261q96 -166 96 -374q0 -207 -96 -374t-264 -261q-167 -94 -379 -94t-379 94q-168 94 -264 261t-96 374t96 374t264 261q167 94 379 94t379 -94zM519 1231q-132 -77 -207 -211q-74 -133 -74 -303t74 -303q75 -134 207 -211q131 -76 296 -76
q167 0 298 76q132 77 207 211q75 135 75 303t-75 303q-75 134 -207 211q-131 76 -298 76q-165 0 -296 -76zM524 834q0 120 80 194t199 74q128 0 207 -67q77 -65 77 -175q0 -76 -36 -126q-37 -52 -107 -105l-186 -144h336v-141h-566v133l301 223q50 38 75 73q26 37 26 83
q0 49 -35 79t-90 30q-59 0 -95 -36t-36 -102v-8h-150v15z" />
    <glyph glyph-name="uni2782" unicode="&#x2782;" horiz-adv-x="1632" 
d="M1194 1352q168 -94 264 -261q96 -166 96 -374q0 -207 -96 -374t-264 -261q-167 -94 -379 -94t-379 94q-168 94 -264 261t-96 374t96 374t264 261q167 94 379 94t379 -94zM519 1231q-132 -77 -207 -211q-74 -133 -74 -303t74 -303q75 -134 207 -211q131 -76 296 -76
q167 0 298 76q132 77 207 211q75 135 75 303t-75 303q-75 134 -207 211q-131 76 -298 76q-165 0 -296 -76zM608 1037q77 65 203 65t202 -58q74 -56 74 -151q0 -62 -35 -101q-35 -40 -89 -55q65 -12 103 -57q38 -46 38 -113q0 -109 -80 -172t-219 -63q-141 0 -217 66t-78 190
h152q2 -58 39 -89q38 -32 104 -32q58 0 98 29q39 28 39 75q0 48 -39 75q-40 28 -106 28h-43v102h45q58 0 95 26q36 26 36 70t-33 69q-34 26 -86 26q-57 0 -92 -29q-36 -29 -37 -78h-152q2 112 78 177z" />
    <glyph glyph-name="uni2783" unicode="&#x2783;" horiz-adv-x="1632" 
d="M1194 1352q168 -94 264 -261q96 -166 96 -374q0 -207 -96 -374t-264 -261q-167 -94 -379 -94t-379 94q-168 94 -264 261t-96 374t96 374t264 261q167 94 379 94t379 -94zM519 1231q-132 -77 -207 -211q-74 -133 -74 -303t74 -303q75 -134 207 -211q131 -76 296 -76
q167 0 298 76q132 77 207 211q75 135 75 303t-75 303q-75 134 -207 211q-131 76 -298 76q-165 0 -296 -76zM795 1090h188v-435h115v-135h-115v-176h-149v176h-367v135zM834 938l-216 -283h216v283z" />
    <glyph glyph-name="uni2784" unicode="&#x2784;" horiz-adv-x="1632" 
d="M1194 1352q168 -94 264 -261q96 -166 96 -374q0 -207 -96 -374t-264 -261q-167 -94 -379 -94t-379 94q-168 94 -264 261t-96 374t96 374t264 261q167 94 379 94t379 -94zM519 1231q-132 -77 -207 -211q-74 -133 -74 -303t74 -303q75 -134 207 -211q131 -76 296 -76
q167 0 298 76q132 77 207 211q75 135 75 303t-75 303q-75 134 -207 211q-131 76 -298 76q-165 0 -296 -76zM1053 956h-363l-12 -178q30 33 74 51q46 19 94 19q110 0 179 -71t69 -183q0 -119 -77 -191q-75 -71 -200 -71q-115 0 -191 63q-78 64 -85 168h149q7 -42 43 -68
q35 -26 86 -26q52 0 87 35q34 34 34 90q0 57 -34 91t-89 34q-41 2 -73 -18q-33 -20 -50 -52h-143l20 441h482v-134z" />
    <glyph glyph-name="uni2785" unicode="&#x2785;" horiz-adv-x="1632" 
d="M1194 1352q168 -94 264 -261q96 -166 96 -374q0 -207 -96 -374t-264 -261q-167 -94 -379 -94t-379 94q-168 94 -264 261t-96 374t96 374t264 261q167 94 379 94t379 -94zM519 1231q-132 -77 -207 -211q-74 -133 -74 -303t74 -303q75 -134 207 -211q131 -76 296 -76
q167 0 298 76q132 77 207 211q75 135 75 303t-75 303q-75 134 -207 211q-131 76 -298 76q-165 0 -296 -76zM591 993q88 109 230 109q102 0 177 -60q74 -59 89 -163h-145q-7 46 -44 75t-85 29q-74 0 -120 -65t-46 -166v-50q17 53 64 90q45 35 125 35q117 0 187 -67
q71 -68 71 -178q0 -113 -77 -182q-75 -68 -204 -68q-150 0 -229 101q-80 103 -80 272q0 180 87 288zM907 675q-38 36 -94 36q-58 0 -96 -35q-37 -34 -37 -92t37 -94q36 -35 96 -35t95 34q36 35 36 93q0 57 -37 93z" />
    <glyph glyph-name="uni2786" unicode="&#x2786;" horiz-adv-x="1632" 
d="M1194 1352q168 -94 264 -261q96 -166 96 -374q0 -207 -96 -374t-264 -261q-167 -94 -379 -94t-379 94q-168 94 -264 261t-96 374t96 374t264 261q167 94 379 94t379 -94zM519 1231q-132 -77 -207 -211q-74 -133 -74 -303t74 -303q75 -134 207 -211q131 -76 296 -76
q167 0 298 76q132 77 207 211q75 135 75 303t-75 303q-75 134 -207 211q-131 76 -298 76q-165 0 -296 -76zM549 1092h547v-125l-314 -623h-164l312 614l-381 -2v136z" />
    <glyph glyph-name="uni2787" unicode="&#x2787;" horiz-adv-x="1632" 
d="M1194 1352q168 -94 264 -261q96 -166 96 -374q0 -207 -96 -374t-264 -261q-167 -94 -379 -94t-379 94q-168 94 -264 261t-96 374t96 374t264 261q167 94 379 94t379 -94zM519 1231q-132 -77 -207 -211q-74 -133 -74 -303t74 -303q75 -134 207 -211q131 -76 296 -76
q167 0 298 76q132 77 207 211q75 135 75 303t-75 303q-75 134 -207 211q-131 76 -298 76q-165 0 -296 -76zM553 664q37 47 109 69q-123 45 -123 168q0 89 75 145t201 56q125 0 200 -56q77 -57 77 -145q0 -119 -121 -168q67 -21 104 -68t37 -118q0 -95 -80 -155t-217 -60
q-135 0 -218 60t-83 155q0 67 39 117zM906 956q-37 29 -91 29t-91 -29q-36 -28 -36 -73q0 -46 36 -73q37 -28 91 -28t91 28q36 27 36 73q0 45 -36 73zM918 640q-41 32 -103 32q-60 0 -103 -32q-42 -32 -42 -79q0 -48 41 -78t104 -30t103 30t40 78t-40 79z" />
    <glyph glyph-name="uni2788" unicode="&#x2788;" horiz-adv-x="1632" 
d="M1194 1352q168 -94 264 -261q96 -166 96 -374q0 -207 -96 -374t-264 -261q-167 -94 -379 -94t-379 94q-168 94 -264 261t-96 374t96 374t264 261q167 94 379 94t379 -94zM519 1231q-132 -77 -207 -211q-74 -133 -74 -303t74 -303q75 -134 207 -211q131 -76 296 -76
q167 0 298 76q132 77 207 211q75 135 75 303t-75 303q-75 134 -207 211q-131 76 -298 76q-165 0 -296 -76zM1032 440q-86 -108 -229 -108q-106 0 -178 59q-74 60 -90 164h145q11 -48 45 -76t84 -28q75 0 122 63q46 62 46 168v49q-17 -53 -65 -89t-124 -36q-118 0 -189 68
t-71 178q0 114 77 182t206 68q147 0 227 -102q80 -103 80 -271q0 -180 -86 -289zM716 759q36 -36 95 -36q58 0 95 35q36 34 36 92q0 57 -36 93t-95 36q-58 0 -95 -35q-36 -34 -36 -92q0 -57 36 -93z" />
    <glyph glyph-name="uni278A" unicode="&#x278a;" horiz-adv-x="1624" 
d="M434 1350q-169 -95 -263 -261q-95 -167 -95 -374t95 -374q94 -166 263 -261q167 -94 377 -94t377 94q169 95 263 261q95 167 95 374t-95 374q-94 166 -263 261q-167 94 -377 94t-377 -94zM752 342v475q-12 -16 -39 -16h-131v141h127q19 0 33 20t14 46v79h145v-745h-149z
" />
    <glyph glyph-name="uni278B" unicode="&#x278b;" horiz-adv-x="1624" 
d="M434 1352q-169 -95 -263 -261q-95 -167 -95 -374t95 -374q94 -166 263 -261q167 -94 377 -94t377 94q169 95 263 261q95 167 95 374t-95 374q-94 166 -263 261q-167 94 -377 94t-377 -94zM520 834q0 120 80 194t199 74q128 0 207 -67q77 -65 77 -175q0 -76 -36 -126
q-37 -52 -107 -105l-186 -144h336v-141h-566v133l301 223q50 38 75 73q26 37 26 83q0 49 -35 79t-90 30q-59 0 -95 -36t-36 -102v-8h-150v15z" />
    <glyph glyph-name="uni278C" unicode="&#x278c;" horiz-adv-x="1624" 
d="M434 1352q-169 -95 -263 -261q-95 -167 -95 -374t95 -374q94 -166 263 -261q167 -94 377 -94t377 94q169 95 263 261q95 167 95 374t-95 374q-94 166 -263 261q-167 94 -377 94t-377 -94zM604 1037q77 65 203 65t202 -58q74 -56 74 -151q0 -62 -35 -101t-90 -55
q67 -12 104 -57q38 -46 38 -113q0 -109 -80 -172t-219 -63q-141 0 -217 66t-78 190h151q1 -57 40 -89q38 -32 104 -32q58 0 98 29q39 28 39 75q0 48 -39 75q-40 28 -106 28h-43v102h45q58 0 95 26q36 26 36 70t-33 69q-34 26 -86 26q-57 0 -92 -29q-36 -29 -37 -78h-152
q2 112 78 177z" />
    <glyph glyph-name="uni278D" unicode="&#x278d;" horiz-adv-x="1624" 
d="M434 1352q-169 -95 -263 -261q-95 -167 -95 -374t95 -374q94 -166 263 -261q167 -94 377 -94t377 94q169 95 263 261q95 167 95 374t-95 374q-94 166 -263 261q-167 94 -377 94t-377 -94zM791 1090h188v-435h115v-135h-115v-176h-150v176h-366v135zM829 938l-215 -283
h215v283z" />
    <glyph glyph-name="uni278E" unicode="&#x278e;" horiz-adv-x="1624" 
d="M434 1352q-169 -95 -263 -261q-95 -167 -95 -374t95 -374q94 -166 263 -261q167 -94 377 -94t377 94q169 95 263 261q95 167 95 374t-95 374q-94 166 -263 261q-167 94 -377 94t-377 -94zM1049 956h-363l-12 -178q30 33 74 51q46 19 94 19q110 0 179 -71t69 -183
q0 -119 -77 -191q-75 -71 -200 -71q-115 0 -191 63q-78 64 -85 168h149q7 -42 43 -68q35 -26 86 -26q52 0 87 35q34 34 34 90q0 57 -34 91t-89 34q-41 2 -73 -18q-33 -20 -50 -52h-143l20 441h482v-134z" />
    <glyph glyph-name="uni278F" unicode="&#x278f;" horiz-adv-x="1624" 
d="M434 1352q-169 -95 -263 -261q-95 -167 -95 -374t95 -374q94 -166 263 -261q167 -94 377 -94t377 94q169 95 263 261q95 167 95 374t-95 374q-94 166 -263 261q-167 94 -377 94t-377 -94zM587 993q88 109 230 109q102 0 177 -60q74 -59 89 -163h-145q-7 46 -44 75t-85 29
q-74 0 -120 -65t-46 -166v-50q17 53 64 90q45 35 124 35q118 0 188 -67q71 -68 71 -178q0 -113 -77 -182q-75 -68 -204 -68q-150 0 -229 101q-80 103 -80 272q0 180 87 288zM903 675q-37 36 -94 36q-58 0 -96 -35q-37 -34 -37 -92t37 -94q36 -35 96 -35t95 34q36 35 36 93
q0 57 -37 93z" />
    <glyph glyph-name="uni2790" unicode="&#x2790;" horiz-adv-x="1624" 
d="M434 1352q-169 -95 -263 -261q-95 -167 -95 -374t95 -374q94 -166 263 -261q167 -94 377 -94t377 94q169 95 263 261q95 167 95 374t-95 374q-94 166 -263 261q-167 94 -377 94t-377 -94zM545 1092h547v-125l-314 -623h-164l312 614l-381 -2v136z" />
    <glyph glyph-name="uni2791" unicode="&#x2791;" horiz-adv-x="1624" 
d="M434 1352q-169 -95 -263 -261q-95 -167 -95 -374t95 -374q94 -166 263 -261q167 -94 377 -94t377 94q169 95 263 261q95 167 95 374t-95 374q-94 166 -263 261q-167 94 -377 94t-377 -94zM549 664q37 48 108 69q-122 45 -122 168q0 89 75 145t201 56q125 0 200 -56
q76 -57 76 -145q0 -119 -120 -168q67 -21 104 -68t37 -118q0 -95 -80 -155t-217 -60q-135 0 -218 60t-83 155q0 67 39 117zM902 956q-37 29 -91 29t-91 -29q-36 -28 -36 -73q0 -46 36 -73q37 -28 91 -28t91 28q36 27 36 73q0 45 -36 73zM913 640q-41 32 -102 32
q-60 0 -103 -32q-42 -32 -42 -79q0 -48 41 -78t104 -30q61 0 102 30t41 78q0 47 -41 79z" />
    <glyph glyph-name="uni2792" unicode="&#x2792;" horiz-adv-x="1624" 
d="M434 1352q-169 -95 -263 -261q-95 -167 -95 -374t95 -374q94 -166 263 -261q167 -94 377 -94t377 94q169 95 263 261q95 167 95 374t-95 374q-94 166 -263 261q-167 94 -377 94t-377 -94zM1028 440q-86 -108 -229 -108q-106 0 -178 59q-75 61 -91 164h146q11 -48 45 -76
t84 -28q75 0 122 63q46 62 46 168v49q-17 -53 -65 -89t-124 -36q-118 0 -189 68t-71 178q0 114 77 182t206 68q147 0 227 -102q80 -103 80 -271q0 -180 -86 -289zM712 759q36 -36 95 -36q58 0 95 35q36 34 36 92q0 57 -36 93t-95 36q-58 0 -95 -35q-36 -34 -36 -92
q0 -57 36 -93z" />
    <glyph glyph-name="fl" unicode="&#xfb02;" horiz-adv-x="1120" 
d="M176 1049v104q0 139 72 210q73 71 221 71h213v-195h-182q-52 0 -77 -25q-24 -24 -24 -77v-88h281v-195h-281v-854h-223v854h-182v195h182zM791 1434h221v-1434h-221v1434z" />
    <glyph glyph-name="u1F10B" unicode="&#x1f10b;" horiz-adv-x="1632" 
d="M1194 1352q168 -94 264 -261q96 -166 96 -374q0 -207 -96 -374t-264 -261q-167 -94 -379 -94t-379 94q-168 94 -264 261t-96 374t96 374t264 261q167 94 379 94t379 -94zM519 1231q-132 -77 -207 -211q-74 -133 -74 -303t74 -303q75 -134 207 -211q131 -76 296 -76
q167 0 298 76q132 77 207 211q75 135 75 303t-75 303q-75 134 -207 211q-131 76 -298 76q-165 0 -296 -76zM590 997q84 105 225 105t225 -105t84 -280q0 -176 -84 -281q-83 -104 -225 -104t-225 104q-84 105 -84 281q0 175 84 280zM928 897q-41 68 -113 68t-113 -68
q-40 -67 -40 -180q0 -114 40 -179q41 -67 113 -67t113 67t41 179t-41 180z" />
    <glyph glyph-name="u1F10C" unicode="&#x1f10c;" horiz-adv-x="1624" 
d="M434 1352q-169 -95 -263 -261q-95 -167 -95 -374t95 -374q94 -166 263 -261q167 -94 377 -94t377 94q169 95 263 261q95 167 95 374t-95 374q-94 166 -263 261q-167 94 -377 94t-377 -94zM586 997q84 105 225 105t225 -105t84 -280q0 -176 -84 -281q-83 -104 -225 -104
t-225 104q-84 105 -84 281q0 175 84 280zM924 897q-41 68 -113 68t-113 -68t-41 -180t41 -179t113 -67t113 67t41 179t-41 180z" />
    <glyph glyph-name="J.ss06" horiz-adv-x="1224" 
d="M289 543q0 -165 72 -256q72 -92 214 -92q147 0 219 85q72 86 72 265v889h236v-885q0 -282 -134 -422q-133 -139 -393 -139q-254 0 -389 142t-133 413h236z" />
    <glyph glyph-name="Jcircumflex.ss06" horiz-adv-x="1224" 
d="M289 543q0 -165 72 -256q72 -92 214 -92q147 0 219 85q72 86 72 265v889h236v-885q0 -282 -134 -422q-133 -139 -393 -139q-254 0 -389 142t-133 413h236zM987 1698l-156 -148h-206l260 285h205l260 -285h-209z" />
    <glyph glyph-name="Q.ss07" horiz-adv-x="1544" 
d="M1386 354q-82 -162 -229 -256l166 -258h-238l-112 174q-97 -26 -201 -26q-203 0 -361 94q-159 95 -247 260q-88 166 -88 375t88 375q88 165 247 260q158 94 361 94q204 0 362 -94t246 -260t88 -375q0 -202 -82 -363zM854 201l-164 256h238l110 -174q90 69 140 182
q49 111 49 252q0 147 -58 269q-57 120 -160 186q-105 67 -237 67q-131 0 -236 -67q-104 -66 -161 -186q-58 -122 -58 -269q0 -148 58 -270q57 -120 161 -186q103 -66 236 -66q43 0 82 6z" />
    <glyph glyph-name="a.ss01" horiz-adv-x="1234" 
d="M1126 1049v-1049h-194l-25 160q-56 -79 -141 -125q-86 -47 -201 -47q-144 0 -256 64t-176 187q-63 121 -63 285q0 161 64 282q65 122 177 188q114 67 254 67q117 0 203 -44q87 -44 139 -122l27 154h192zM823 270q84 96 84 250q0 155 -84 254q-83 98 -221 98
q-137 0 -221 -97t-84 -251q0 -156 84 -253t221 -97t221 96z" />
    <glyph glyph-name="a.ss02" horiz-adv-x="1091" 
d="M885 963q114 -99 114 -281v-682h-192l-19 150q-61 -79 -140 -120q-81 -42 -197 -42q-175 0 -279 82t-104 225q0 162 115 249t335 87h262v63q0 90 -61 139q-62 50 -170 50q-95 0 -159 -41q-63 -40 -75 -113h-217q17 158 140 245t321 87q213 0 326 -98zM701 233
q78 74 79 197v37h-274q-103 0 -158 -40t-55 -118q0 -68 52 -108q53 -41 142 -41q138 0 214 73z" />
    <glyph glyph-name="aacute.ss01" horiz-adv-x="1234" 
d="M1126 1049v-1049h-194l-25 160q-56 -79 -141 -125q-86 -47 -201 -47q-144 0 -256 64t-176 187q-63 121 -63 285q0 161 64 282q65 122 177 188q114 67 254 67q117 0 203 -44q87 -44 139 -122l27 154h192zM823 270q84 96 84 250q0 155 -84 254q-83 98 -221 98
q-137 0 -221 -97t-84 -251q0 -156 84 -253t221 -97t221 96zM524 1167l164 283h256l-252 -283h-168z" />
    <glyph glyph-name="aacute.ss02" horiz-adv-x="1091" 
d="M885 963q114 -99 114 -281v-682h-192l-19 150q-61 -79 -140 -120q-81 -42 -197 -42q-175 0 -279 82t-104 225q0 162 115 249t335 87h262v63q0 90 -61 139q-62 50 -170 50q-95 0 -159 -41q-63 -40 -75 -113h-217q17 158 140 245t321 87q213 0 326 -98zM701 233
q78 74 79 197v37h-274q-103 0 -158 -40t-55 -118q0 -68 52 -108q53 -41 142 -41q138 0 214 73zM473 1167l164 283h256l-252 -283h-168z" />
    <glyph glyph-name="abreve.ss01" horiz-adv-x="1234" 
d="M1126 1049v-1049h-194l-25 160q-56 -79 -141 -125q-86 -47 -201 -47q-144 0 -256 64t-176 187q-63 121 -63 285q0 161 64 282q65 122 177 188q114 67 254 67q117 0 203 -44q87 -44 139 -122l27 154h192zM823 270q84 96 84 250q0 155 -84 254q-83 98 -221 98
q-137 0 -221 -97t-84 -251q0 -156 84 -253t221 -97t221 96zM471 1450q0 -60 37 -97q38 -38 94 -38q59 0 97 38t38 97h166q-5 -131 -88 -210t-215 -79t-211 78q-80 78 -84 211h166z" />
    <glyph glyph-name="abreve.ss02" horiz-adv-x="1091" 
d="M885 963q114 -99 114 -281v-682h-192l-19 150q-61 -79 -140 -120q-81 -42 -197 -42q-175 0 -279 82t-104 225q0 162 115 249t335 87h262v63q0 90 -61 139q-62 50 -170 50q-95 0 -159 -41q-63 -40 -75 -113h-217q17 158 140 245t321 87q213 0 326 -98zM701 233
q78 74 79 197v37h-274q-103 0 -158 -40t-55 -118q0 -68 52 -108q53 -41 142 -41q138 0 214 73zM420 1450q0 -60 37 -97q38 -38 94 -38q59 0 97 38t38 97h166q-5 -131 -88 -210t-215 -79q-131 0 -211 78t-84 211h166z" />
    <glyph glyph-name="acircumflex.ss01" horiz-adv-x="1234" 
d="M1126 1049v-1049h-194l-25 160q-56 -79 -141 -125q-86 -47 -201 -47q-144 0 -256 64t-176 187q-63 121 -63 285q0 161 64 282q65 122 177 188q114 67 254 67q117 0 203 -44q87 -44 139 -122l27 154h192zM823 270q84 96 84 250q0 155 -84 254q-83 98 -221 98
q-137 0 -221 -97t-84 -251q0 -156 84 -253t221 -97t221 96zM604 1313l-155 -148h-207l260 285h205l260 -285h-209z" />
    <glyph glyph-name="acircumflex.ss02" horiz-adv-x="1091" 
d="M885 963q114 -99 114 -281v-682h-192l-19 150q-61 -79 -140 -120q-81 -42 -197 -42q-175 0 -279 82t-104 225q0 162 115 249t335 87h262v63q0 90 -61 139q-62 50 -170 50q-95 0 -159 -41q-63 -40 -75 -113h-217q17 158 140 245t321 87q213 0 326 -98zM701 233
q78 74 79 197v37h-274q-103 0 -158 -40t-55 -118q0 -68 52 -108q53 -41 142 -41q138 0 214 73zM553 1313l-156 -148h-207l261 285h204l260 -285h-208z" />
    <glyph glyph-name="adieresis.ss01" horiz-adv-x="1234" 
d="M1126 1049v-1049h-194l-25 160q-56 -79 -141 -125q-86 -47 -201 -47q-144 0 -256 64t-176 187q-63 121 -63 285q0 161 64 282q65 122 177 188q114 67 254 67q117 0 203 -44q87 -44 139 -122l27 154h192zM823 270q84 96 84 250q0 155 -84 254q-83 98 -221 98
q-137 0 -221 -97t-84 -251q0 -156 84 -253t221 -97t221 96zM313 1410q37 36 93 36q54 0 92 -36q37 -36 37 -89t-37 -89q-38 -36 -92 -36q-56 0 -93 36t-37 89t37 89zM713 1410q37 36 90 36q55 0 92 -36t37 -89t-37 -89t-92 -36q-53 0 -90 36t-37 89t37 89z" />
    <glyph glyph-name="adieresis.ss02" horiz-adv-x="1091" 
d="M885 963q114 -99 114 -281v-682h-192l-19 150q-61 -79 -140 -120q-81 -42 -197 -42q-175 0 -279 82t-104 225q0 162 115 249t335 87h262v63q0 90 -61 139q-62 50 -170 50q-95 0 -159 -41q-63 -40 -75 -113h-217q17 158 140 245t321 87q213 0 326 -98zM701 233
q78 74 79 197v37h-274q-103 0 -158 -40t-55 -118q0 -68 52 -108q53 -41 142 -41q138 0 214 73zM262 1410q38 36 92 36t92 -36q37 -36 37 -89t-37 -89q-38 -36 -92 -36t-92 36q-37 36 -37 89t37 89zM662 1410q38 36 90 36q54 0 92 -36q37 -36 37 -89t-37 -89q-38 -36 -92 -36
q-52 0 -90 36q-37 36 -37 89t37 89z" />
    <glyph glyph-name="agrave.ss01" horiz-adv-x="1234" 
d="M1126 1049v-1049h-194l-25 160q-56 -79 -141 -125q-86 -47 -201 -47q-144 0 -256 64t-176 187q-63 121 -63 285q0 161 64 282q65 122 177 188q114 67 254 67q117 0 203 -44q87 -44 139 -122l27 154h192zM823 270q84 96 84 250q0 155 -84 254q-83 98 -221 98
q-137 0 -221 -97t-84 -251q0 -156 84 -253t221 -97t221 96zM270 1450h256l158 -285h-170z" />
    <glyph glyph-name="agrave.ss02" horiz-adv-x="1091" 
d="M885 963q114 -99 114 -281v-682h-192l-19 150q-61 -79 -140 -120q-81 -42 -197 -42q-175 0 -279 82t-104 225q0 162 115 249t335 87h262v63q0 90 -61 139q-62 50 -170 50q-95 0 -159 -41q-63 -40 -75 -113h-217q17 158 140 245t321 87q213 0 326 -98zM701 233
q78 74 79 197v37h-274q-103 0 -158 -40t-55 -118q0 -68 52 -108q53 -41 142 -41q138 0 214 73zM219 1450h256l158 -285h-170z" />
    <glyph glyph-name="amacron.ss01" horiz-adv-x="1234" 
d="M1126 1049v-1049h-194l-25 160q-56 -79 -141 -125q-86 -47 -201 -47q-144 0 -256 64t-176 187q-63 121 -63 285q0 161 64 282q65 122 177 188q114 67 254 67q117 0 203 -44q87 -44 139 -122l27 154h192zM823 270q84 96 84 250q0 155 -84 254q-83 98 -221 98
q-137 0 -221 -97t-84 -251q0 -156 84 -253t221 -97t221 96zM307 1243v162h596v-162h-596z" />
    <glyph glyph-name="amacron.ss02" horiz-adv-x="1091" 
d="M885 963q114 -99 114 -281v-682h-192l-19 150q-61 -79 -140 -120q-81 -42 -197 -42q-175 0 -279 82t-104 225q0 162 115 249t335 87h262v63q0 90 -61 139q-62 50 -170 50q-95 0 -159 -41q-63 -40 -75 -113h-217q17 158 140 245t321 87q213 0 326 -98zM701 233
q78 74 79 197v37h-274q-103 0 -158 -40t-55 -118q0 -68 52 -108q53 -41 142 -41q138 0 214 73zM256 1243v162h596v-162h-596z" />
    <glyph glyph-name="aogonek.ss01" horiz-adv-x="1234" 
d="M1137 -256v-154h-170q-96 0 -161 51q-63 49 -63 134q0 75 49 136q50 62 136 122l-21 127q-56 -79 -141 -125q-86 -47 -201 -47q-144 0 -256 64t-176 187q-63 121 -63 285q0 161 64 282q65 122 177 188q114 67 254 67q117 0 203 -44q87 -44 139 -122l27 154h192v-1049h2
q-101 -50 -152 -95q-52 -46 -52 -95q0 -66 82 -66h131zM823 270q84 96 84 250q0 155 -84 254q-83 98 -221 98q-137 0 -221 -97t-84 -251q0 -156 84 -253t221 -97t221 96z" />
    <glyph glyph-name="aogonek.ss02" horiz-adv-x="1091" 
d="M1008 -256v-154h-170q-96 0 -161 51q-63 49 -63 134q0 77 50 138q52 63 139 124l-15 113q-61 -79 -140 -120q-81 -42 -197 -42q-175 0 -279 82t-104 225q0 162 115 249t335 87h262v63q0 90 -61 139q-62 50 -170 50q-95 0 -159 -41q-63 -40 -75 -113h-217q17 158 140 245
t321 87q213 0 326 -98q114 -99 114 -281v-682q-101 -50 -152 -95q-52 -46 -52 -95q0 -66 82 -66h131zM701 233q78 74 79 197v37h-274q-103 0 -158 -40t-55 -118q0 -68 52 -108q53 -41 142 -41q138 0 214 73z" />
    <glyph glyph-name="aring.ss01" horiz-adv-x="1234" 
d="M1126 1049v-1049h-194l-25 160q-56 -79 -141 -125q-86 -47 -201 -47q-144 0 -256 64t-176 187q-63 121 -63 285q0 161 64 282q65 122 177 188q114 67 254 67q117 0 203 -44q87 -44 139 -122l27 154h192zM823 270q84 96 84 250q0 155 -84 254q-83 98 -221 98
q-137 0 -221 -97t-84 -251q0 -156 84 -253t221 -97t221 96zM427 1542q73 70 177 70t177 -70t73 -166q0 -100 -73 -170q-72 -69 -177 -69t-177 69q-73 70 -73 170q0 96 73 166zM693 1465q-36 36 -89 36t-89 -36t-36 -89q0 -54 36 -92q36 -37 89 -37t89 37q36 38 36 92
q0 53 -36 89z" />
    <glyph glyph-name="aring.ss02" horiz-adv-x="1091" 
d="M885 963q114 -99 114 -281v-682h-192l-19 150q-61 -79 -140 -120q-81 -42 -197 -42q-175 0 -279 82t-104 225q0 162 115 249t335 87h262v63q0 90 -61 139q-62 50 -170 50q-95 0 -159 -41q-63 -40 -75 -113h-217q17 158 140 245t321 87q213 0 326 -98zM701 233
q78 74 79 197v37h-274q-103 0 -158 -40t-55 -118q0 -68 52 -108q53 -41 142 -41q138 0 214 73zM376 1542q73 70 177 70t177 -70t73 -166q0 -100 -73 -170q-72 -69 -177 -69t-177 69q-73 70 -73 170q0 96 73 166zM642 1465q-36 36 -89 36t-89 -36t-36 -89q0 -54 36 -92
q36 -37 89 -37t89 37q36 38 36 92q0 53 -36 89z" />
    <glyph glyph-name="atilde.ss01" horiz-adv-x="1234" 
d="M1126 1049v-1049h-194l-25 160q-56 -79 -141 -125q-86 -47 -201 -47q-144 0 -256 64t-176 187q-63 121 -63 285q0 161 64 282q65 122 177 188q114 67 254 67q117 0 203 -44q87 -44 139 -122l27 154h192zM823 270q84 96 84 250q0 155 -84 254q-83 98 -221 98
q-137 0 -221 -97t-84 -251q0 -156 84 -253t221 -97t221 96zM452 1278q-20 -28 -20 -66h-133v33q0 88 51 145q50 56 133 56q47 0 76 -15q22 -12 66 -45q19 -18 40 -30q17 -10 40 -10q34 0 51 26q18 27 18 66h135v-33q0 -88 -51 -145q-52 -58 -133 -58q-49 0 -80 17
q-32 18 -61 45q-19 18 -40 30q-19 11 -40 11q-32 0 -52 -27z" />
    <glyph glyph-name="atilde.ss02" horiz-adv-x="1091" 
d="M885 963q114 -99 114 -281v-682h-192l-19 150q-61 -79 -140 -120q-81 -42 -197 -42q-175 0 -279 82t-104 225q0 162 115 249t335 87h262v63q0 90 -61 139q-62 50 -170 50q-95 0 -159 -41q-63 -40 -75 -113h-217q17 158 140 245t321 87q213 0 326 -98zM701 233
q78 74 79 197v37h-274q-103 0 -158 -40t-55 -118q0 -68 52 -108q53 -41 142 -41q138 0 214 73zM400 1278q-19 -26 -19 -66h-133v33q0 88 51 145q50 56 133 56q48 0 76 -15q19 -10 65 -45q19 -18 40 -30q17 -10 40 -10q35 0 52 26q18 27 18 66h135v-33q0 -88 -51 -145
q-52 -58 -133 -58q-49 0 -80 17q-35 19 -62 45q-21 19 -39 30q-19 11 -40 11q-33 0 -53 -27z" />
    <glyph glyph-name="f.calt" horiz-adv-x="612" 
d="M180 1363q73 71 221 71h211v-195h-180q-53 0 -78 -25q-24 -24 -24 -77v-88h280v-195h-280v-854h-221v1153q0 140 71 210z" />
    <glyph glyph-name="i.ss03" horiz-adv-x="505" 
d="M382 1431q38 -38 38 -96q0 -57 -38 -95t-95 -38t-97 38q-38 37 -38 95q0 59 38 96t97 37q58 0 95 -37zM174 854h-166v195h389v-1049h-223v854z" />
    <glyph glyph-name="dotlessi.ss03" horiz-adv-x="505" 
d="M8 1049h389v-1049h-223v854h-166v195z" />
    <glyph glyph-name="iacute.ss03" horiz-adv-x="505" 
d="M8 1049h389v-1049h-223v854h-166v195zM197 1165l163 283h256l-251 -283h-168z" />
    <glyph glyph-name="ibreve.ss03" horiz-adv-x="505" 
d="M8 1049h389v-1049h-223v854h-166v195zM143 1448q0 -60 37 -97q38 -38 94 -38q60 0 98 38t38 97h165q-5 -131 -88 -210t-215 -79t-211 78q-80 78 -84 211h166z" />
    <glyph glyph-name="icircumflex.ss03" horiz-adv-x="505" 
d="M8 1049h389v-1049h-223v854h-166v195zM276 1311l-155 -148h-207l260 285h205l260 -285h-209z" />
    <glyph glyph-name="idieresis.ss03" horiz-adv-x="505" 
d="M8 1049h389v-1049h-223v854h-166v195zM-14 1408q37 36 92 36q54 0 92 -36q37 -36 37 -89t-37 -89t-92 -36q-54 0 -92 36q-37 36 -37 89t37 89zM385 1408q37 36 90 36q55 0 92 -36t37 -89t-37 -89t-92 -36q-53 0 -90 36t-37 89t37 89z" />
    <glyph glyph-name="i.loclTRK" horiz-adv-x="438" 
d="M109 1049h221v-1049h-221v1049zM126 1442q37 37 95 37t95 -37q38 -38 38 -92q0 -57 -38 -95q-36 -36 -95 -36t-95 36q-38 38 -38 95q0 54 38 92z" />
    <glyph glyph-name="i.loclTRK.ss03" horiz-adv-x="505" 
d="M8 1049h389v-1049h-223v854h-166v195zM181 1440q37 37 95 37q59 0 96 -37q38 -38 38 -92q0 -57 -38 -95q-36 -36 -96 -36q-59 0 -95 36q-38 38 -38 95q0 54 38 92z" />
    <glyph glyph-name="igrave.ss03" horiz-adv-x="505" 
d="M8 1049h389v-1049h-223v854h-166v195zM-57 1448h256l157 -285h-170z" />
    <glyph glyph-name="ij.ss03" horiz-adv-x="952" 
d="M315 1431q39 -37 39 -96q0 -57 -39 -95q-40 -38 -96 -38t-96 38q-39 38 -39 95q0 59 39 96q38 37 96 37t96 -37zM109 1049h221v-1049h-221v1049zM637 1428q40 38 96 38t96 -38q39 -38 39 -95t-39 -94q-38 -37 -96 -37t-96 37q-39 37 -39 94t39 95zM506 -215q60 0 88 28
q27 27 27 87v954h-168v195h391v-1166q0 -293 -293 -293h-186v195h141z" />
    <glyph glyph-name="ij.ss04" horiz-adv-x="876" 
d="M315 1431q39 -37 39 -96q0 -57 -39 -95q-40 -38 -96 -38t-96 38q-39 38 -39 95q0 59 39 96q38 37 96 37t96 -37zM109 1049h221v-1049h-221v1049zM561 1431q38 37 96 37q59 0 97 -37q39 -38 39 -96q0 -57 -39 -95q-40 -38 -97 -38q-56 0 -96 38q-39 38 -39 95q0 59 39 96z
M547 1049h221v-1459h-221v1459z" />
    <glyph glyph-name="imacron.ss01" horiz-adv-x="505" 
d="M8 1049h389v-1049h-223v854h-166v195zM-20 1241v162h595v-162h-595z" />
    <glyph glyph-name="iogonek.ss03" horiz-adv-x="505" 
d="M190 1240q-38 37 -38 95q0 59 38 96t97 37q58 0 95 -37q38 -38 38 -96q0 -57 -38 -95t-95 -38t-97 38zM276 -256h132v-154h-170q-96 0 -161 51q-63 49 -63 134q0 71 42 128q41 56 118 113v838h-166v195h389v-1049h2q-101 -50 -152 -95q-52 -46 -52 -95q0 -66 81 -66z" />
    <glyph glyph-name="itilde.ss03" horiz-adv-x="505" 
d="M8 1049h389v-1049h-223v854h-166v195zM124 1276q-20 -28 -20 -66h-133v33q0 87 52 145q50 56 133 56q45 0 75 -16q26 -14 66 -44q19 -18 40 -30q19 -11 40 -11q33 0 51 27t18 66h136v-33q0 -88 -52 -146q-51 -57 -133 -57q-49 0 -80 17q-32 18 -61 45q-19 18 -40 30
q-19 11 -40 11q-32 0 -52 -27z" />
    <glyph glyph-name="j.short" horiz-adv-x="448" 
d="M135 1431q38 37 96 37q59 0 96 -37q38 -38 38 -96q0 -57 -38 -95t-96 -38q-59 0 -97 38t-38 95q0 59 39 96zM10 -215q56 0 84 28q27 27 27 87v1149h221v-1166q0 -293 -287 -293h-96v195h51z" />
    <glyph glyph-name="j.ss03" horiz-adv-x="514" 
d="M199 1428q40 38 96 38t96 -38q39 -38 39 -95t-39 -94q-38 -37 -96 -37t-96 37q-39 37 -39 94t39 95zM68 -215q60 0 88 28q26 26 26 87v954h-168v195h392v-1166q0 -293 -293 -293h-187v195h142z" />
    <glyph glyph-name="j.ss04" horiz-adv-x="438" 
d="M123 1431q38 37 96 37t96 -37q39 -37 39 -96q0 -57 -39 -95q-40 -38 -96 -38t-96 38q-39 38 -39 95q0 59 39 96zM109 1049h221v-1459h-221v1459z" />
    <glyph glyph-name="uni0237.short" horiz-adv-x="450" 
d="M10 -215q56 0 84 28q27 27 27 87v1149h221v-1166q0 -293 -287 -293h-96v195h51z" />
    <glyph glyph-name="uni0237.ss03" horiz-adv-x="514" 
d="M68 -215q60 0 88 28q26 26 26 87v954h-168v195h392v-1166q0 -293 -293 -293h-187v195h142z" />
    <glyph glyph-name="uni0237.ss04" horiz-adv-x="438" 
d="M109 1049h221v-1459h-221v1459z" />
    <glyph glyph-name="jcircumflex.short" horiz-adv-x="450" 
d="M10 -215q56 0 84 28q27 27 27 87v1149h221v-1166q0 -293 -287 -293h-96v195h51zM229 1313l-155 -148h-207l260 285h205l260 -285h-209z" />
    <glyph glyph-name="jcircumflex.ss03" horiz-adv-x="514" 
d="M68 -215q60 0 88 28q26 26 26 87v954h-168v195h392v-1166q0 -293 -293 -293h-187v195h142zM297 1313l-156 -148h-207l261 285h204l260 -285h-208z" />
    <glyph glyph-name="jcircumflex.ss04" horiz-adv-x="438" 
d="M109 1049h221v-1459h-221v1459zM221 1313l-155 -148h-207l260 285h205l260 -285h-209z" />
    <glyph glyph-name="t.calt" horiz-adv-x="618" 
d="M109 1341h221v-292h254v-195h-254v-547q0 -61 24 -87q24 -25 84 -25h168v-195h-213q-149 0 -217 70q-67 68 -67 215v1056z" />
    <glyph glyph-name="t.ss05" horiz-adv-x="665" 
d="M-6 1049h184v292h221v-292h246v-195h-246v-854h-221v854h-184v195z" />
    <glyph glyph-name="tbar.calt" horiz-adv-x="618" 
d="M330 854v-203h254v-172h-254v-172q0 -61 24 -87q24 -25 84 -25h168v-195h-213q-149 0 -217 70q-67 68 -67 215v1056h221v-292h254v-195h-254z" />
    <glyph glyph-name="tbar.ss05" horiz-adv-x="704" 
d="M662 854h-246v-221h246v-172h-246v-461h-223v461h-187v172h187v221h-187v195h187v292h223v-292h246v-195z" />
    <glyph glyph-name="tcaron.calt" horiz-adv-x="630" 
d="M109 1341h221v-292h254v-195h-254v-547q0 -61 24 -87q24 -25 84 -25h168v-195h-213q-149 0 -217 70q-67 68 -67 215v1056zM496 1452h209l-130 -301h-157z" />
    <glyph glyph-name="tcaron.ss05" horiz-adv-x="692" 
d="M-6 1049h184v292h221v-292h246v-195h-246v-854h-221v854h-184v195zM569 1446h209l-129 -301h-157z" />
    <glyph glyph-name="uni0163.calt" horiz-adv-x="618" 
d="M109 1341h221v-292h254v-195h-254v-547q0 -61 24 -87q24 -25 84 -25h168v-195h-213q-149 0 -217 70q-67 68 -67 215v1056zM246 -102h215l-158 -295h-162z" />
    <glyph glyph-name="uni0163.ss05" horiz-adv-x="665" 
d="M-6 1049h184v292h221v-292h246v-195h-246v-854h-221v854h-184v195zM178 -102h215l-157 -295h-162z" />
    <glyph glyph-name="uni021B.calt" horiz-adv-x="618" 
d="M109 1341h221v-292h254v-195h-254v-547q0 -61 24 -87q24 -25 84 -25h168v-195h-213q-149 0 -217 70q-67 68 -67 215v1056zM246 -102h215l-158 -295h-162z" />
    <glyph glyph-name="uni021B.ss05" horiz-adv-x="665" 
d="M-6 1049h184v292h221v-292h246v-195h-246v-854h-221v854h-184v195zM178 -102h215l-157 -295h-162z" />
    <glyph glyph-name="y.ss01" horiz-adv-x="1157" 
d="M1049 1049v-1031q0 -200 -123 -320t-375 -120q-202 0 -323 91t-136 263h225q41 -174 252 -174q122 0 192 68q68 67 68 192v142q-55 -78 -130 -121q-74 -43 -187 -43q-185 0 -302 112q-116 111 -116 359v582h223v-560q0 -148 62 -225q61 -76 182 -76q125 0 196 91
q70 89 70 249v521h222z" />
    <glyph glyph-name="yacute.ss01" horiz-adv-x="1157" 
d="M1049 1049v-1031q0 -200 -123 -320t-375 -120q-202 0 -323 91t-136 263h225q41 -174 252 -174q122 0 192 68q68 67 68 192v142q-55 -78 -130 -121q-74 -43 -187 -43q-185 0 -302 112q-116 111 -116 359v582h223v-560q0 -148 62 -225q61 -76 182 -76q125 0 196 91
q70 89 70 249v521h222zM492 1167l163 283h256l-252 -283h-167z" />
    <glyph glyph-name="ycircumflex.ss01" horiz-adv-x="1157" 
d="M1049 1049v-1031q0 -200 -123 -320t-375 -120q-202 0 -323 91t-136 263h225q41 -174 252 -174q122 0 192 68q68 67 68 192v142q-55 -78 -130 -121q-74 -43 -187 -43q-185 0 -302 112q-116 111 -116 359v582h223v-560q0 -148 62 -225q61 -76 182 -76q125 0 196 91
q70 89 70 249v521h222zM571 1313l-155 -148h-207l260 285h205l260 -285h-209z" />
    <glyph glyph-name="ydieresis.ss01" horiz-adv-x="1157" 
d="M1049 1049v-1031q0 -200 -123 -320t-375 -120q-202 0 -323 91t-136 263h225q41 -174 252 -174q122 0 192 68q68 67 68 192v142q-55 -78 -130 -121q-74 -43 -187 -43q-185 0 -302 112q-116 111 -116 359v582h223v-560q0 -148 62 -225q61 -76 182 -76q125 0 196 91
q70 89 70 249v521h222zM281 1410q37 36 92 36t92 -36t37 -89t-37 -89t-92 -36t-92 36t-37 89t37 89zM680 1410q38 36 90 36q54 0 92 -36q37 -36 37 -89t-37 -89q-38 -36 -92 -36q-52 0 -90 36q-37 36 -37 89t37 89z" />
    <glyph glyph-name="ygrave.ss01" horiz-adv-x="1157" 
d="M1049 1049v-1031q0 -200 -123 -320t-375 -120q-202 0 -323 91t-136 263h225q41 -174 252 -174q122 0 192 68q68 67 68 192v142q-55 -78 -130 -121q-74 -43 -187 -43q-185 0 -302 112q-116 111 -116 359v582h223v-560q0 -148 62 -225q61 -76 182 -76q125 0 196 91
q70 89 70 249v521h222zM238 1450h256l157 -285h-170z" />
    <glyph glyph-name="w_w_w" horiz-adv-x="4421" 
d="M4188 1049h225l-348 -1049h-237l-221 713l-230 -713l-239 -2l-232 711l-235 -709h-238l-221 713l-230 -713l-239 -2l-232 709l-233 -707h-238l-221 713l-229 -713l-240 -2l-342 1051h234l239 -803l240 803h203l229 -803l248 803h233l240 -803l240 803h202l230 -803
l247 803h236l240 -803l239 803h203l229 -803z" />
    <glyph glyph-name="zero.osf" horiz-adv-x="1265" 
d="M147 800q72 122 200 191q129 70 286 70q158 0 287 -70q126 -68 199 -191t73 -276q0 -154 -72 -275q-74 -124 -199 -192q-127 -69 -288 -69q-159 0 -287 69q-125 68 -199 192q-71 120 -71 275q0 156 71 276zM923 700q-44 80 -120 125t-170 45q-93 0 -170 -45
q-75 -44 -119 -125q-43 -79 -43 -176t43 -176q44 -81 119 -125q77 -45 170 -45t170 45q76 45 120 125t44 176t-44 176z" />
    <glyph glyph-name="one.osf" horiz-adv-x="641" 
d="M201 815q51 0 77 36q25 35 25 93v105h219v-1049h-223v637q-38 -14 -100 -14h-187v192h189z" />
    <glyph glyph-name="two.osf" horiz-adv-x="1054" 
d="M987 184v-184h-919v174l458 262q115 67 167 120t52 132q0 83 -62 133q-63 51 -163 51q-105 0 -170 -61t-65 -162v-26h-222v26q0 115 57 209q58 96 161 149q105 54 243 54q132 0 235 -47q98 -45 157 -130q57 -82 57 -192q0 -197 -252 -332l-320 -176h586z" />
    <glyph glyph-name="three.osf" horiz-adv-x="1169" 
d="M1012 246q84 -80 84 -221q0 -121 -65 -213q-67 -95 -182 -143q-120 -50 -274 -50q-239 0 -381 125q-141 124 -141 344h223q2 -137 83 -211q82 -74 216 -74q126 0 210 64q83 63 83 170q0 102 -78 156q-79 55 -219 55h-116v188h106q126 0 201 61q74 60 74 156
q0 102 -72 162q-71 59 -189 59t-193 -69t-77 -184h-221q0 133 62 230q64 100 176 154t258 54q150 0 258 -48q109 -49 167 -133q58 -85 58 -198q0 -127 -75 -211q-76 -85 -204 -115q144 -28 228 -108z" />
    <glyph glyph-name="four.osf" horiz-adv-x="1208" 
d="M698 1049h277v-856h205v-193h-205v-369h-215v369h-717v193zM760 829l-486 -636h486v636z" />
    <glyph glyph-name="five.osf" horiz-adv-x="1193" 
d="M898 515q105 -63 165 -172q59 -108 59 -247q0 -153 -68 -259q-69 -107 -186 -163q-116 -55 -258 -55q-151 0 -263 59q-114 60 -177 160q-64 102 -70 225h224q12 -110 89 -183q78 -73 197 -73q120 0 203 80q82 79 82 211q0 127 -79 209t-206 82q-93 0 -163 -44
q-67 -42 -107 -130l-219 2l43 832h870v-199h-674l-26 -408q115 136 325 136q134 0 239 -63z" />
    <glyph glyph-name="six.osf" horiz-adv-x="1214" 
d="M973 1315q126 -105 153 -295h-223q-27 100 -94 156q-67 57 -178 57q-167 0 -256 -125q-88 -124 -88 -344q0 -25 2 -55q3 8 9 22l9 19q52 90 150 134q97 44 219 44q137 0 242 -60q104 -59 161 -165q58 -107 58 -242q0 -139 -66 -247q-66 -107 -182 -167q-115 -59 -262 -59
q-273 0 -420 219q-60 87 -95 218q-34 129 -34 275q0 339 145 530t416 191q207 0 334 -106zM430 669q-80 -77 -80 -196q0 -132 77 -217q77 -84 204 -84t204 80q76 79 76 207q0 129 -74 207q-75 79 -200 79q-128 0 -207 -76z" />
    <glyph glyph-name="seven.osf" horiz-adv-x="1069" 
d="M33 1049h987v-187l-633 -1231h-246l631 1223h-739v195z" />
    <glyph glyph-name="eight.osf" horiz-adv-x="1208" 
d="M1051 615q82 -88 82 -234q0 -117 -63 -206t-182 -138t-284 -49q-164 0 -283 49q-120 49 -183 138q-62 87 -62 206q0 143 82 231q83 89 211 119q-109 33 -181 114q-71 80 -71 206q0 109 59 192q61 85 169 131q111 47 259 47t259 -47q108 -46 169 -131q60 -84 60 -192
q0 -119 -72 -201t-178 -115q124 -29 209 -120zM414 1199q-74 -60 -74 -155q0 -96 74 -156q75 -61 190 -61q116 0 191 61q73 60 73 156q0 95 -73 155q-75 61 -191 61q-115 0 -190 -61zM821 222q86 69 86 175q0 107 -86 176q-87 70 -217 70t-217 -70q-86 -69 -86 -176
q0 -106 86 -175q84 -68 217 -68t217 68z" />
    <glyph glyph-name="nine.osf" horiz-adv-x="1214" 
d="M1104 622q33 -130 33 -276q0 -339 -146 -533t-416 -194q-207 0 -334 107q-127 108 -151 294h221q27 -98 96 -155q70 -58 177 -58q171 0 260 128q88 127 88 352q0 15 -4 55q-5 -15 -27 -51q-50 -88 -146 -130q-95 -42 -214 -42q-141 0 -244 59q-105 60 -162 166
q-57 107 -57 244q0 139 65 245q64 105 183 166q117 60 264 60q273 0 420 -219q61 -88 94 -218zM378 381q75 -80 202 -80q126 0 206 80t80 207q0 128 -78 207t-204 79q-125 0 -203 -79t-78 -205q0 -130 75 -209z" />
    <glyph glyph-name="one.osf.ss08" horiz-adv-x="1228" 
d="M1137 184v-184h-965v184h371v461q-43 -18 -101 -18h-243v180h245q52 0 77 36q26 37 26 93v111h219v-863h371z" />
    <glyph glyph-name="seven.osf.ss08" horiz-adv-x="1120" 
d="M68 1049h1003v-187l-633 -1231h-245l630 1221h-563v-238h-192v435z" />
    <glyph glyph-name="four.osf.ss09" horiz-adv-x="1103" 
d="M705 1049h280v-1418h-217v369h-725v193zM768 831l-489 -638h489v638z" />
    <glyph glyph-name="zero.osf.zero" horiz-adv-x="1265" 
d="M920 991q126 -68 199 -191t73 -276q0 -154 -72 -275q-74 -124 -199 -192q-127 -69 -288 -69q-159 0 -287 69q-125 68 -199 192q-71 120 -71 275q0 156 71 276q72 122 200 191q129 70 286 70q158 0 287 -70zM462 827q-78 -46 -121 -125q-44 -80 -44 -178q0 -107 53 -192
l473 483q-83 57 -190 57q-95 0 -171 -45zM804 221q78 46 121 125q44 80 44 178q0 109 -54 195l-471 -486q82 -57 189 -57q95 0 171 45z" />
    <glyph glyph-name="one.ss08" horiz-adv-x="1114" 
d="M1040 199v-199h-954v197h369v768q-29 -15 -74 -15h-252v193h227q49 0 76 38q27 37 27 95v158h221v-1235h360z" />
    <glyph glyph-name="seven.ss08" horiz-adv-x="1134" 
d="M1090 1434v-152l-654 -1282h-237l647 1235h-578v-236h-190v435h1012z" />
    <glyph glyph-name="four.ss09" horiz-adv-x="1171" 
d="M733 1434h291v-1434h-227v330h-750v200zM797 1208l-521 -678h521v678z" />
    <glyph glyph-name="zero.tf" horiz-adv-x="1228" 
d="M76 752q0 204 65 361q65 158 188 247q121 88 285 88q165 0 286 -88t187 -247t66 -361v-66q0 -202 -66 -361t-187 -247t-286 -88q-164 0 -285 88q-123 89 -188 247q-65 157 -65 361v66zM928 743q0 228 -83 370q-82 140 -231 140q-148 0 -230 -140q-83 -142 -83 -370v-49
q0 -226 83 -368t230 -142q148 0 231 142t83 368v49z" />
    <glyph glyph-name="one.tf" horiz-adv-x="1228" 
d="M1118 199v-199h-954v197h368v768q-28 -15 -73 -15h-252v193h227q49 0 76 38q27 37 27 95v158h221v-1235h360z" />
    <glyph glyph-name="two.tf" horiz-adv-x="1218" 
d="M641 651q110 89 169 172q56 78 56 174q0 122 -73 189t-201 67q-124 0 -198 -78q-75 -79 -75 -210v-27h-227v39q0 135 63 242q62 105 175 167t262 62q239 0 373 -120q133 -120 133 -320q0 -146 -76 -255q-78 -112 -227 -237l-381 -317h692v-199h-1016v182z" />
    <glyph glyph-name="three.tf" horiz-adv-x="1239" 
d="M1056 628q89 -87 89 -229q0 -122 -67 -216q-66 -93 -188 -144q-121 -51 -284 -51q-246 0 -390 126t-144 345h227q1 -131 90 -207q88 -76 232 -76q127 0 209 66q83 66 83 174q0 103 -80 161t-231 58h-131v188h117q140 0 216 62q75 61 75 164q0 95 -74 152q-72 56 -191 56
q-122 0 -201 -64q-80 -65 -81 -175h-223q2 199 137 313q136 115 360 115q155 0 270 -47q114 -46 174 -134q60 -87 60 -200q0 -129 -75 -212q-77 -84 -201 -112q135 -27 222 -113z" />
    <glyph glyph-name="four.tf" horiz-adv-x="1249" 
d="M27 524l682 910h274v-906h217v-196h-217v-332h-223v332h-733v192zM254 528h506v672z" />
    <glyph glyph-name="five.tf" horiz-adv-x="1230" 
d="M919 905q106 -60 168 -172t62 -252q0 -153 -70 -266q-69 -111 -188 -168t-262 -57q-158 0 -276 61q-116 60 -183 167q-66 106 -74 235h226q12 -117 96 -195t211 -78q75 0 142 35q68 36 108 102q41 68 41 164q0 132 -79 215q-79 84 -210 84q-86 0 -170 -39
q-85 -39 -119 -137l-219 4l43 826h893v-199h-684l-27 -399q61 67 148 99t180 32q134 0 243 -62z" />
    <glyph glyph-name="six.tf" horiz-adv-x="1243" 
d="M106 438q-30 125 -30 269q0 232 67 397t195 254q127 88 303 88q198 0 331 -109q131 -107 158 -297h-225q-23 103 -95 160t-185 57q-162 0 -252 -132t-90 -357v-55q0 1 2 5.5t3 7.5q3 9 11 22q50 96 146 151q97 55 225 55q141 0 252 -60t171 -170q60 -109 60 -253
q0 -140 -64 -250t-183 -172q-118 -61 -267 -61q-145 0 -258 60q-112 60 -184 171q-62 97 -91 219zM850 685q-78 83 -207 83q-130 0 -213 -83q-82 -82 -82 -216q0 -130 80 -213q79 -82 209 -82q131 0 211 83t80 214t-78 214z" />
    <glyph glyph-name="seven.tf" horiz-adv-x="1202" 
d="M102 1434h1031v-152l-672 -1282h-246l668 1235h-781v199z" />
    <glyph glyph-name="eight.tf" horiz-adv-x="1234" 
d="M1061 627q88 -91 88 -240q0 -115 -64 -208q-63 -91 -183 -141q-121 -50 -286 -50q-164 0 -285 50t-184 141t-63 208q0 146 86 238q85 91 221 120q-114 27 -190 112t-76 210q0 115 59 199q61 86 171 134q111 48 261 48q151 0 262 -48q110 -48 171 -134q59 -84 59 -199
q0 -120 -78 -209q-79 -89 -194 -113q137 -27 225 -118zM422 1215q-76 -60 -76 -154q0 -96 76 -156q75 -59 194 -59t194 60t75 155q0 94 -75 154q-76 61 -194 61q-116 0 -194 -61zM836 225q86 68 86 174q0 105 -87 175q-88 71 -219 71q-132 0 -220 -71q-87 -70 -87 -175
q0 -107 87 -174q86 -67 220 -67q135 0 220 67z" />
    <glyph glyph-name="nine.tf" horiz-adv-x="1243" 
d="M1120 1001q33 -128 33 -274q0 -350 -148 -544q-149 -195 -417 -195q-206 0 -336 108q-131 108 -158 297h225q24 -99 96 -159q70 -58 185 -58q164 0 254 133t90 359v55q-18 -38 -22 -43q-50 -92 -144 -144q-95 -53 -219 -53q-143 0 -253 59t-170 167t-60 254q0 139 64 248
q64 108 182 172q117 63 268 63q144 0 254 -58q109 -58 182 -165q61 -93 94 -222zM379 752q78 -82 207 -82q131 0 213 82t82 215q0 128 -80 211q-79 82 -209 82q-132 0 -211 -82q-80 -83 -80 -213q0 -131 78 -213z" />
    <glyph glyph-name="seven.tf.ss08" horiz-adv-x="1202" 
d="M1133 1434v-152l-654 -1282h-237l647 1235h-578v-236h-190v435h1012z" />
    <glyph glyph-name="four.tf.ss09" horiz-adv-x="1228" 
d="M762 1434h291v-1434h-228v330h-749v200zM825 1208l-520 -678h520v678z" />
    <glyph glyph-name="zero.tf.zero" horiz-adv-x="1228" 
d="M900 1360q121 -88 187 -247t66 -361v-66q0 -202 -66 -361t-187 -247t-286 -88q-164 0 -285 88q-123 89 -188 247q-65 157 -65 361v66q0 204 65 361q65 158 188 247q121 88 285 88q165 0 286 -88zM299 694q0 -97 16 -186l551 571q-86 181 -252 181q-149 0 -232 -142
t-83 -375v-49zM930 743q0 99 -15 172l-546 -569q41 -80 103 -123t142 -43q150 0 233 142t83 372v49z" />
    <glyph glyph-name="zero.tosf" horiz-adv-x="1228" 
d="M142 798q71 122 194 191q125 70 278 70q154 0 279 -70q122 -68 193 -191q71 -122 71 -276q0 -150 -71 -274q-71 -123 -193 -192q-121 -68 -279 -68q-157 0 -278 68q-124 69 -194 192q-70 122 -70 274q0 155 70 276zM892 698q-42 79 -115 125q-72 45 -163 45
q-90 0 -162 -45q-73 -46 -115 -125q-42 -80 -42 -176t42 -175q41 -78 115 -124q72 -45 162 -45q91 0 163 45q74 46 115 124q42 79 42 175t-42 176z" />
    <glyph glyph-name="one.tosf" horiz-adv-x="1228" 
d="M1137 184v-184h-965v184h371v461q-43 -18 -101 -18h-243v180h245q52 0 77 36q26 37 26 93v111h219v-863h371z" />
    <glyph glyph-name="two.tosf" horiz-adv-x="1228" 
d="M1087 184v-184h-919v174l459 262q115 67 167 120t52 132q0 82 -63 133t-162 51q-105 0 -170 -61q-66 -61 -66 -162v-26h-221v26q0 116 56 209q58 96 161 149q105 54 244 54q131 0 234 -47q100 -45 158 -130q56 -81 56 -192q0 -197 -252 -332l-319 -176h585z" />
    <glyph glyph-name="three.tosf" horiz-adv-x="1228" 
d="M1054 243q89 -87 89 -229q0 -122 -67 -216q-66 -93 -188 -144t-284 -51q-246 0 -390 126t-144 345h227q1 -130 90 -207q88 -76 231 -76q128 0 210 66q83 66 83 174q0 101 -81 160q-82 59 -230 59h-131v188h117q140 0 216 62q75 62 75 164q0 95 -74 152q-72 56 -191 56
q-122 0 -201 -64q-80 -65 -81 -175h-224q1 198 138 313q136 115 360 115q154 0 269 -47t175 -134t60 -200q0 -130 -75 -212q-76 -84 -202 -112q136 -28 223 -113z" />
    <glyph glyph-name="four.tosf" horiz-adv-x="1228" 
d="M698 1049h277v-856h205v-193h-205v-369h-215v369h-717v193zM760 829l-486 -636h486v636z" />
    <glyph glyph-name="five.tosf" horiz-adv-x="1228" 
d="M910 517q105 -63 165 -172t60 -247q0 -151 -69 -259t-185 -163t-258 -55q-150 0 -264 60q-115 61 -177 159q-63 100 -69 226h223q12 -112 89 -184t198 -72q120 0 202 79t82 211q0 127 -79 209t-205 82q-93 0 -163 -44q-68 -43 -108 -130l-219 2l43 832h871v-199h-674
l-27 -408q115 136 326 136q133 0 238 -63z" />
    <glyph glyph-name="six.tosf" horiz-adv-x="1228" 
d="M979 1315q127 -106 154 -295h-224q-27 100 -94 156q-68 57 -178 57q-167 0 -256 -125q-88 -124 -88 -344q0 -25 2 -55q3 8 9 22l9 19q52 90 150 134q97 44 219 44q137 0 242 -60q104 -59 161 -165q58 -107 58 -242q0 -139 -66 -247q-66 -107 -182 -167q-115 -59 -262 -59
q-273 0 -420 219q-60 87 -95 218q-34 129 -34 275q0 339 145 530t416 191q207 0 334 -106zM436 669q-80 -77 -80 -196q0 -132 77 -217q77 -84 204 -84t204 80t77 207t-75 207q-75 79 -200 79q-128 0 -207 -76z" />
    <glyph glyph-name="seven.tosf" horiz-adv-x="1228" 
d="M102 1049h988v-187l-633 -1231h-246l631 1223h-740v195z" />
    <glyph glyph-name="eight.tosf" horiz-adv-x="1228" 
d="M1061 615q82 -88 82 -234q0 -117 -63 -206t-182 -138t-284 -49q-164 0 -283 49q-120 49 -183 138q-62 87 -62 206q0 143 82 231q83 89 211 119q-108 33 -180 114t-72 206q0 109 59 192q61 85 169 131q111 47 259 47t259 -47q108 -46 169 -131q60 -84 60 -192
q0 -119 -72 -201t-178 -115q124 -29 209 -120zM424 1199q-74 -60 -74 -155q0 -96 74 -156q75 -61 190 -61q116 0 191 61q74 60 74 156q0 95 -74 155q-75 61 -191 61q-115 0 -190 -61zM831 222q86 69 86 175q0 107 -86 176q-87 70 -217 70t-217 -70q-86 -69 -86 -176
q0 -106 86 -175q84 -68 217 -68t217 68z" />
    <glyph glyph-name="nine.tosf" horiz-adv-x="1228" 
d="M1110 622q33 -130 33 -276q0 -339 -146 -533t-415 -194q-208 0 -335 107q-127 108 -151 294h221q27 -98 96 -155q70 -58 177 -58q171 0 260 128q88 127 88 352q0 15 -4 55q-5 -15 -27 -51q-50 -88 -146 -130q-95 -42 -214 -42q-141 0 -244 59q-105 60 -162 166
q-57 107 -57 244t66 245q65 106 182 166t264 60q273 0 420 -219q61 -88 94 -218zM384 381q75 -80 202 -80t207 80q79 79 79 207q0 129 -77 207q-78 79 -205 79q-125 0 -203 -79t-78 -205q0 -130 75 -209z" />
    <glyph glyph-name="seven.tosf.ss08" horiz-adv-x="1208" 
d="M100 1049h1004v-187l-633 -1231h-246l631 1221h-563v-238h-193v435z" />
    <glyph glyph-name="four.tosf.ss09" horiz-adv-x="1228" 
d="M762 1049h291v-1434h-228v330h-749v200zM825 823l-520 -678h520v678z" />
    <glyph glyph-name="zero.tosf.zero" horiz-adv-x="1228" 
d="M893 989q122 -68 193 -191q71 -122 71 -276q0 -150 -71 -274q-71 -123 -193 -192q-121 -68 -279 -68q-157 0 -278 68q-124 69 -194 192q-70 122 -70 274q0 155 70 276q71 122 194 191q125 70 278 70q154 0 279 -70zM451 825q-74 -45 -116 -125t-42 -178q0 -102 45 -182
l461 471q-81 59 -185 59q-90 0 -163 -45zM778 221q75 46 116 124q42 79 42 177q0 106 -47 189l-461 -475q86 -60 186 -60q90 0 164 45z" />
    <glyph glyph-name="zero.zero" horiz-adv-x="1300" 
d="M943 1359q128 -87 200 -246q71 -157 71 -363v-66q0 -215 -70 -371t-199 -241q-127 -84 -294 -84q-169 0 -296 84q-128 84 -198 241q-71 159 -71 371v66q0 203 71 363q71 159 199 246q129 87 295 87q165 0 292 -87zM311 692q0 -114 21 -198l577 600q-44 77 -110 117
q-65 40 -148 40q-157 0 -248 -136q-92 -137 -92 -374v-49zM989 741q0 107 -20 201l-580 -602q45 -76 114 -118q65 -40 148 -40q155 0 246 135q92 136 92 375v49z" />
    <glyph glyph-name="u1F10C.zero" horiz-adv-x="1624" 
d="M434 1352q-169 -95 -263 -261q-95 -167 -95 -374t95 -374q94 -166 263 -261q167 -94 377 -94t377 94q169 95 263 261q95 167 95 374t-95 374q-94 166 -263 261q-167 94 -377 94t-377 -94zM1036 997q84 -105 84 -280q0 -176 -84 -281q-83 -104 -225 -104t-225 104
q-84 105 -84 281q0 175 84 280t225 105t225 -105zM697 898q-42 -69 -42 -181q0 -58 11 -99l258 283q-44 66 -113 66q-72 0 -114 -69zM925 537q42 67 42 180q0 60 -11 96l-256 -283q43 -61 111 -61q72 0 114 68z" />
    <glyph glyph-name="u1F10B.zero" horiz-adv-x="1632" 
d="M1194 1352q168 -94 264 -261q96 -166 96 -374q0 -207 -96 -374t-264 -261q-167 -94 -379 -94t-379 94q-168 94 -264 261t-96 374t96 374t264 261q167 94 379 94t379 -94zM519 1231q-132 -77 -207 -211q-74 -133 -74 -303t74 -303q75 -134 207 -211q131 -76 296 -76
q167 0 298 76q132 77 207 211q75 135 75 303t-75 303q-75 134 -207 211q-131 76 -298 76q-165 0 -296 -76zM1040 997q84 -105 84 -280q0 -176 -84 -281q-83 -104 -225 -104t-225 104q-84 105 -84 281q0 175 84 280t225 105t225 -105zM701 898q-42 -69 -42 -181q0 -58 11 -99
l258 283q-44 66 -113 66q-72 0 -114 -69zM929 537q42 67 42 180q0 63 -10 96l-256 -283q43 -61 110 -61q72 0 114 68z" />
    <glyph glyph-name="zero.dnom" horiz-adv-x="704" 
d="M127 653q84 105 225 105q142 0 226 -105t84 -280q0 -176 -84 -281q-83 -104 -226 -104q-142 0 -225 104q-84 105 -84 281q0 175 84 280zM465 553q-41 68 -113 68q-71 0 -112 -68t-41 -180t41 -179t112 -67q72 0 113 67t41 179t-41 180z" />
    <glyph glyph-name="one.dnom" horiz-adv-x="389" 
d="M170 0v475q-12 -16 -39 -16h-131v141h127q20 0 34 20q13 19 13 46v79h145v-745h-149z" />
    <glyph glyph-name="two.dnom" horiz-adv-x="655" 
d="M43 489q0 121 80 195t199 74q127 0 206 -67q78 -66 78 -175q0 -74 -37 -126q-38 -53 -106 -105l-187 -144h336v-141h-565v133l301 223q50 38 75 73q26 37 26 83q0 49 -35 79q-34 30 -90 30q-60 0 -96 -36q-35 -35 -35 -102v-8h-150v14z" />
    <glyph glyph-name="three.dnom" horiz-adv-x="675" 
d="M135 693q77 65 203 65t202 -58q74 -56 74 -151q0 -63 -35 -102q-34 -38 -90 -54q67 -12 104 -57q38 -46 38 -113q0 -109 -80 -172q-79 -63 -219 -63t-217 66q-76 66 -78 190h151q1 -57 40 -89q38 -32 104 -32q58 0 98 29q39 28 39 75q0 48 -39 75q-40 28 -106 28h-43v102
h45q58 0 95 26q36 26 36 70t-33 69q-34 26 -86 26q-57 0 -92 -29q-36 -29 -37 -78h-152q1 112 78 177z" />
    <glyph glyph-name="four.dnom" horiz-adv-x="708" 
d="M367 745h188v-434h115v-135h-115v-176h-149v176h-367v135zM406 594l-216 -283h216v283z" />
    <glyph glyph-name="five.dnom" horiz-adv-x="647" 
d="M561 612h-362l-13 -178q30 33 74 51q46 19 94 19q111 0 180 -71q68 -69 68 -183q0 -119 -77 -191q-75 -71 -199 -71q-116 0 -192 63q-78 64 -85 168h150q7 -42 43 -68q35 -26 86 -26q52 0 87 35q34 34 34 90q0 57 -34 91t-89 34q-41 2 -73 -18q-33 -20 -50 -52h-144
l21 440h481v-133z" />
    <glyph glyph-name="six.dnom" horiz-adv-x="667" 
d="M126 649q88 109 230 109q103 0 178 -60q74 -59 89 -163h-146q-7 46 -44 75t-85 29q-74 0 -120 -66q-46 -65 -46 -165v-50q16 52 64 89q46 36 125 36q117 0 187 -67q71 -68 71 -178q0 -113 -77 -182q-75 -68 -204 -68q-150 0 -229 101q-80 103 -80 271q0 181 87 289z
M442 331q-38 36 -94 36q-58 0 -96 -35q-37 -34 -37 -92t37 -94q36 -35 96 -35t95 34q36 35 36 93q0 57 -37 93z" />
    <glyph glyph-name="seven.dnom" horiz-adv-x="614" 
d="M37 748h547v-125l-314 -623h-164l312 614l-381 -2v136z" />
    <glyph glyph-name="eight.dnom" horiz-adv-x="679" 
d="M80 319q38 49 108 70q-122 45 -122 168q0 88 75 144q77 57 201 57t200 -57t76 -144q0 -119 -120 -168q67 -21 104 -68t37 -118q0 -95 -80 -155q-79 -60 -217 -60q-136 0 -218 60q-83 60 -83 155q0 67 39 116zM433 612q-37 29 -91 29t-91 -29q-36 -28 -36 -73
q0 -46 36 -73q37 -28 91 -28t91 28q36 27 36 73q0 45 -36 73zM444 296q-41 32 -102 32q-60 0 -103 -32q-42 -32 -42 -79q0 -48 41 -78q40 -30 104 -30q62 0 102 30q41 30 41 78q0 47 -41 79z" />
    <glyph glyph-name="nine.dnom" horiz-adv-x="667" 
d="M543 96q-85 -108 -230 -108q-106 0 -178 59q-74 60 -90 164h145q11 -47 46 -76t83 -29q75 0 122 64q46 62 46 168v49q-17 -54 -64 -89q-48 -36 -124 -36q-118 0 -189 68t-71 178q0 114 77 182t206 68q148 0 227 -102q80 -103 80 -271q0 -180 -86 -289zM226 415
q36 -36 96 -36q58 0 95 35q36 34 36 92q0 57 -36 93t-95 36t-96 -35q-36 -34 -36 -92q0 -57 36 -93z" />
    <glyph glyph-name="zero.numr" horiz-adv-x="704" 
d="M127 1343q84 105 225 105q142 0 226 -105t84 -280q0 -176 -84 -281q-83 -104 -226 -104q-142 0 -225 104q-84 105 -84 281q0 175 84 280zM465 1243q-41 68 -113 68q-71 0 -112 -68t-41 -180t41 -179t112 -67q72 0 113 67t41 179t-41 180z" />
    <glyph glyph-name="one.numr" horiz-adv-x="389" 
d="M170 690v475q-12 -16 -39 -16h-131v141h127q20 0 34 20q13 19 13 46v80h145v-746h-149z" />
    <glyph glyph-name="two.numr" horiz-adv-x="655" 
d="M43 1178q0 120 80 194t199 74q127 0 206 -67q78 -66 78 -175q0 -74 -37 -126q-38 -53 -106 -105l-187 -144h336v-141h-565v133l301 223q50 38 75 73q26 37 26 83q0 49 -35 79q-34 30 -90 30q-60 0 -96 -36q-35 -35 -35 -102v-8h-150v15z" />
    <glyph glyph-name="three.numr" horiz-adv-x="675" 
d="M135 1385q77 65 203 65q127 0 202 -57q74 -56 74 -152q0 -62 -35 -101t-90 -55q67 -12 104 -57q38 -46 38 -113q0 -109 -80 -172q-79 -63 -219 -63t-217 66q-76 66 -78 190h151q1 -57 40 -89q38 -32 104 -32q58 0 98 29q39 28 39 76q0 47 -39 74q-40 28 -106 28h-43v102
h45q58 0 95 26q36 26 36 71q0 43 -33 68q-34 26 -86 26q-57 0 -92 -29q-36 -29 -37 -78h-152q1 112 78 177z" />
    <glyph glyph-name="four.numr" horiz-adv-x="708" 
d="M367 1434h188v-435h115v-135h-115v-176h-149v176h-367v135zM406 1282l-216 -283h216v283z" />
    <glyph glyph-name="five.numr" horiz-adv-x="647" 
d="M561 1300h-362l-13 -178q31 34 74 52t94 18q111 0 180 -71q68 -69 68 -183q0 -118 -77 -190t-199 -72q-116 0 -192 63q-78 64 -85 168h150q7 -42 43 -68q35 -26 86 -26q52 0 87 35q34 34 34 90q0 57 -34 91t-89 34q-43 2 -73 -17q-32 -20 -50 -53h-144l21 441h481v-134z
" />
    <glyph glyph-name="six.numr" horiz-adv-x="667" 
d="M126 1339q88 109 230 109q104 0 178 -59t89 -164h-146q-7 46 -44 75t-85 29q-74 0 -120 -65t-46 -166v-49q16 52 64 89q47 36 125 36q116 0 187 -68t71 -178q0 -113 -77 -182q-75 -68 -204 -68q-150 0 -229 101q-80 103 -80 272q0 180 87 288zM442 1021q-38 36 -94 36
q-58 0 -96 -35q-37 -34 -37 -92q0 -57 37 -93q38 -36 96 -36t95 35q36 34 36 92q0 57 -37 93z" />
    <glyph glyph-name="seven.numr" horiz-adv-x="614" 
d="M37 1434h547v-125l-314 -623h-164l312 614l-381 -2v136z" />
    <glyph glyph-name="eight.numr" horiz-adv-x="679" 
d="M80 1010q37 48 108 69q-122 45 -122 168q0 89 75 145t201 56q125 0 200 -56q76 -57 76 -145q0 -119 -120 -168q67 -21 104 -68t37 -118q0 -95 -80 -155q-79 -60 -217 -60q-136 0 -218 60q-83 60 -83 155q0 67 39 117zM433 1303q-35 28 -91 28t-91 -28q-36 -29 -36 -74
q0 -46 36 -73q37 -28 91 -28t91 28q36 27 36 73q0 45 -36 74zM444 986q-41 32 -102 32q-60 0 -103 -32q-42 -32 -42 -79q0 -48 41 -78q40 -30 104 -30q62 0 102 30q41 30 41 78q0 47 -41 79z" />
    <glyph glyph-name="nine.numr" horiz-adv-x="667" 
d="M543 786q-85 -108 -230 -108q-106 0 -178 59q-74 60 -90 164h145q11 -47 46 -76q34 -28 83 -28q76 0 122 63q46 62 46 168v49q-17 -54 -64 -89q-48 -36 -124 -36q-118 0 -189 68t-71 178q0 114 77 182t206 68q148 0 227 -101q80 -103 80 -272q0 -180 -86 -289zM226 1105
q36 -36 96 -36q58 0 95 35q36 34 36 92q0 57 -36 93t-95 36t-96 -35q-36 -34 -36 -92q0 -57 36 -93z" />
    <glyph glyph-name="uni2080.zero" horiz-adv-x="704" 
d="M578 449q84 -105 84 -281t-84 -281q-83 -104 -226 -104q-142 0 -225 104q-84 105 -84 281t84 281q83 104 225 104q143 0 226 -104zM239 349q-42 -69 -42 -181q0 -61 10 -98l258 282q-44 66 -113 66q-71 0 -113 -69zM466 -12q42 68 42 180q0 63 -10 96l-256 -282
q44 -62 110 -62q72 0 114 68z" />
    <glyph glyph-name="zero.dnom.zero" horiz-adv-x="704" 
d="M578 653q84 -105 84 -280q0 -176 -84 -281q-83 -104 -226 -104q-142 0 -225 104q-84 105 -84 281q0 175 84 280t225 105q142 0 226 -105zM239 554q-42 -69 -42 -181q0 -62 10 -99l258 283q-44 66 -113 66q-71 0 -113 -69zM466 193q42 67 42 180q0 63 -10 96l-256 -283
q43 -61 110 -61q72 0 114 68z" />
    <glyph glyph-name="zero.numr.zero" horiz-adv-x="704" 
d="M578 1343q84 -105 84 -280q0 -176 -84 -281q-83 -104 -226 -104q-142 0 -225 104q-84 105 -84 281q0 175 84 280t225 105q142 0 226 -105zM239 1244q-42 -69 -42 -181q0 -61 10 -98l258 282q-44 66 -113 66q-71 0 -113 -69zM466 883q42 67 42 180q0 63 -10 96l-256 -282
q44 -62 110 -62q72 0 114 68z" />
    <glyph glyph-name="uni2070.zero" horiz-adv-x="704" 
d="M578 1548q84 -105 84 -280q0 -176 -84 -281q-83 -104 -226 -104q-142 0 -225 104q-84 105 -84 281q0 175 84 280t225 105q142 0 226 -105zM239 1449q-42 -69 -42 -181q0 -62 10 -99l258 283q-44 66 -113 66q-71 0 -113 -69zM466 1087q42 67 42 181q0 63 -10 96l-256 -283
q43 -61 110 -61q72 0 114 67z" />
    <glyph glyph-name="backslash.case" horiz-adv-x="681" 
d="M238 1434l475 -1434h-224l-473 1434h222z" />
    <glyph glyph-name="periodcentered.case" horiz-adv-x="540" 
d="M169 815q41 39 101 39q62 0 103 -39t41 -100q0 -62 -41 -101t-103 -39q-60 0 -101 39q-40 39 -40 101q0 61 40 100z" />
    <glyph glyph-name="colon.case" horiz-adv-x="458" 
d="M128 1137q40 39 101 39q63 0 103 -39q41 -39 41 -101q0 -61 -41 -100q-40 -39 -103 -39q-61 0 -101 39t-40 100q0 62 40 101zM128 393q40 39 101 39q63 0 103 -39q41 -39 41 -100t-41 -100q-40 -39 -103 -39q-61 0 -101 39t-40 100t40 100z" />
    <glyph glyph-name="semicolon.case" horiz-adv-x="458" 
d="M344 362q51 -67 51 -167q0 -148 -88 -230q-89 -83 -241 -84v119q89 1 135 47q45 45 45 107q0 16 -2 26q-26 -20 -68 -20q-53 0 -87 34t-34 97q0 59 43 99t113 40q82 0 133 -68zM120 1137q40 39 101 39q63 0 103 -39q41 -39 41 -101q0 -61 -41 -100q-40 -39 -103 -39
q-61 0 -101 39t-40 100q0 62 40 101z" />
    <glyph glyph-name="slash.case" horiz-adv-x="681" 
d="M467 1434h221l-473 -1434h-223z" />
    <glyph glyph-name="braceleft.case" horiz-adv-x="741" 
d="M500 1195q-43 -42 -43 -126q0 -43 8 -86l1 -12q2 -12 3 -19q2 -24 2 -41q0 -79 -48 -128t-118 -66q72 -17 120 -66t48 -127q0 -18 -8 -71q-8 -46 -8 -88q0 -84 43 -126q44 -43 137 -44h68v-195h-93q-170 0 -264 66t-94 225q0 14 8 80q6 47 6 80q0 92 -50 133t-155 41v188
q106 0 155 40q50 41 50 132q0 33 -6 76q-8 61 -8 82q0 159 94 225t264 66h93v-195h-68q-93 -1 -137 -44z" />
    <glyph glyph-name="braceright.case" horiz-adv-x="741" 
d="M523 853q49 -40 155 -40v-188q-105 0 -155 -41t-50 -133q0 -33 6 -80q8 -66 8 -80q0 -159 -94 -225q-95 -66 -264 -66h-92v195h67q94 1 138 44q43 42 43 126q0 36 -9 88q-8 53 -8 71q0 78 48 127t120 66q-70 17 -118 66t-48 128q0 17 2 41q1 7 2 19l2 12q9 49 9 86
q0 84 -43 126q-44 43 -138 44h-67v195h92q169 0 264 -66q94 -66 94 -225q0 -21 -8 -82q-6 -44 -6 -76q0 -91 50 -132z" />
    <glyph glyph-name="bracketleft.case" horiz-adv-x="649" 
d="M119 1434h493v-195h-286v-1044h286v-195h-493v1434z" />
    <glyph glyph-name="bracketright.case" horiz-adv-x="649" 
d="M530 1434v-1434h-493v195h287v1044h-287v195h493z" />
    <glyph glyph-name="parenleft.case" horiz-adv-x="573" 
d="M152 1104q56 193 143 330h229q-99 -145 -154 -335q-55 -191 -55 -382t55 -383q54 -189 154 -334h-229q-86 133 -143 329q-56 194 -56 388q0 195 56 387z" />
    <glyph glyph-name="parenright.case" horiz-adv-x="573" 
d="M49 0q102 147 155 334q54 189 54 383q0 195 -54 382t-155 335h230q87 -137 143 -330q55 -189 55 -387t-55 -388q-57 -196 -143 -329h-230z" />
    <glyph glyph-name="emdash.case" horiz-adv-x="1910" 
d="M106 823h1698v-192h-1698v192z" />
    <glyph glyph-name="endash.case" horiz-adv-x="1236" 
d="M106 631v192h1024v-192h-1024z" />
    <glyph glyph-name="hyphen.case" horiz-adv-x="909" 
d="M106 631v192h697v-192h-697z" />
    <glyph glyph-name="guillemotleft.case" horiz-adv-x="1236" 
d="M641 1243l-315 -524l315 -524h-223l-320 524l320 524h223zM1137 1241l-316 -524l316 -524h-224l-319 524l319 524h224z" />
    <glyph glyph-name="guillemotright.case" horiz-adv-x="1236" 
d="M596 1243h223l320 -524l-320 -524h-223l315 524zM100 1241h224l319 -524l-319 -524h-224l316 524z" />
    <glyph glyph-name="guilsinglleft.case" horiz-adv-x="737" 
d="M408 1239h239l-315 -522l315 -522h-239l-320 522z" />
    <glyph glyph-name="guilsinglright.case" horiz-adv-x="737" 
d="M330 1239l319 -522l-319 -522h-240l316 522l-316 522h240z" />
    <glyph glyph-name="dotmath.case" horiz-adv-x="458" 
d="M128 834q39 38 101 38q64 0 103 -38q41 -39 41 -101q0 -61 -41 -100q-40 -39 -103 -39q-61 0 -101 39t-40 100q0 62 40 101z" />
    <glyph glyph-name="plus.case" 
d="M430 1167h203v-346h328v-186h-328v-346h-203v346h-326v186h326v346z" />
    <glyph glyph-name="minus.case" 
d="M104 635v186h857v-186h-857z" />
    <glyph glyph-name="multiply.case" 
d="M246 1149l293 -291l284 287l131 -131l-284 -287l291 -291l-144 -141l-291 291l-284 -287l-131 133l286 285l-291 291z" />
    <glyph glyph-name="divide.case" 
d="M436 1211q40 38 99 38q58 0 99 -38q40 -37 40 -97t-40 -97q-41 -38 -99 -38q-59 0 -99 38q-39 37 -39 97t39 97zM104 635v186h857v-186h-857zM436 464q40 38 99 38q58 0 99 -38q40 -37 40 -97q0 -61 -40 -98q-41 -38 -99 -38q-59 0 -99 38q-39 37 -39 98q0 59 39 97z" />
    <glyph glyph-name="equal.case" 
d="M125 834v188h815v-188h-815zM125 401v187h815v-187h-815z" />
    <glyph glyph-name="notequal.case" 
d="M940 834h-266l-82 -246h348v-187h-412l-63 -192h-209l63 192h-194v187h258l82 246h-340v188h401l62 182h209l-62 -182h205v-188z" />
    <glyph glyph-name="greater.case" 
d="M928 829v-208l-791 -342v215l545 231l-545 231v215z" />
    <glyph glyph-name="less.case" 
d="M137 621v208l791 342v-215l-545 -231l545 -231v-215z" />
    <glyph glyph-name="greaterequal.case" 
d="M928 870v-208l-791 -343v216l545 231l-545 231v215zM137 33v186h791v-186h-791z" />
    <glyph glyph-name="lessequal.case" 
d="M137 662v208l791 342v-215l-545 -231l545 -231v-216zM137 33v186h791v-186h-791z" />
    <glyph glyph-name="plusminus.case" 
d="M430 1217h203v-347h328v-186h-328v-346h-203v346h-326v186h326v347zM104 31v186h857v-186h-857z" />
    <glyph glyph-name="approxequal.case" 
d="M104 274q0 158 66 242t184 84q72 0 116 -20q48 -22 99 -58q30 -24 59 -38q22 -11 50 -11q55 0 79 33q23 32 23 94h181q0 -159 -66 -241q-66 -83 -184 -83q-68 0 -116 20q-46 19 -101 58q-37 27 -57 37q-24 12 -50 12q-102 0 -102 -129h-181zM104 733q0 158 66 242t184 84
q70 0 116 -21q52 -24 99 -57q30 -24 59 -38q22 -11 50 -11q55 0 79 33q23 32 23 94h181q0 -158 -66 -241t-184 -83q-68 0 -116 20q-46 19 -101 58q-37 27 -57 37q-24 12 -50 12q-102 0 -102 -129h-181z" />
    <glyph glyph-name="asciitilde.case" 
d="M104 539q0 157 66 241t184 84q72 0 116 -20q48 -22 99 -58q27 -21 59 -37q24 -12 50 -12q55 0 79 33q23 32 23 94h181q0 -158 -66 -240q-66 -83 -184 -83q-71 0 -116 19q-46 19 -101 58q-37 27 -57 37q-26 13 -50 13q-102 0 -102 -129h-181z" />
    <glyph glyph-name="logicalnot.case" 
d="M104 866h777v-522h-197v334h-580v188z" />
    <glyph glyph-name="arrowup.case" horiz-adv-x="1523" 
d="M88 770l674 678l676 -678l-162 -162l-399 408v-1018h-228v1018l-401 -408z" />
    <glyph glyph-name="uni2197.case" horiz-adv-x="1359" 
d="M315 1434l957 2v-957h-228l5 574l-801 -801l-160 160l801 798l-574 -4v228z" />
    </font>
</defs>
</svg>
