<?xml version="1.0" standalone="no"?>
<!DOCTYPE svg PUBLIC "-//W3C//DTD SVG 1.1//EN" "http://www.w3.org/Graphics/SVG/1.1/DTD/svg11.dtd" >
<svg xmlns="http://www.w3.org/2000/svg" xmlns:xlink="http://www.w3.org/1999/xlink" version="1.1">
<metadata>
Created by FontForge 20201107 at Wed Dec 27 15:33:37 2023
 By 
Mark Bloom and Joe Leadbeater (c) 2018
</metadata>
<defs>
<font id="Aeonik-Black" horiz-adv-x="1044" >
  <font-face 
    font-family="Aeonik Black"
    font-weight="900"
    font-stretch="normal"
    units-per-em="2048"
    panose-1="2 1 5 3 3 3 0 0 0 0"
    ascent="1638"
    descent="-410"
    x-height="1057"
    cap-height="1434"
    bbox="-870 -422 4485 1921"
    underline-thickness="204"
    underline-position="-614"
    unicode-range="U+0020-1F10C"
  />
<missing-glyph horiz-adv-x="1269" 
d="M164 1434h942v-1573h-942v1573z" />
    <glyph glyph-name="fi" unicode="fi" horiz-adv-x="1308" 
d="M899 1186q-57 56 -57 137t57 137q58 56 141 56q84 0 142 -56q57 -56 57 -137t-57 -137q-58 -56 -142 -56q-83 0 -141 56zM1217 0h-355v764h-350v-764h-354v764h-166v293h166v78q0 139 89 219t253 80h219v-295h-135q-72 0 -72 -70v-12h705v-1057z" />
    <glyph glyph-name="f_f.liga" unicode="ff" horiz-adv-x="1474" 
d="M1217 1069v-12h247v-293h-247v-764h-355v764h-350v-764h-354v764h-166v293h166v78q0 139 89 219t253 80h219v-295h-135q-72 0 -72 -70v-12h350v78q0 139 89 219t253 80h260v-295h-176q-71 0 -71 -70z" />
    <glyph glyph-name="f_f_i.liga" unicode="ffi" horiz-adv-x="2013" 
d="M1604 1186q-58 56 -58 137t58 137t141 56t141 -56t58 -137t-58 -137t-141 -56t-141 56zM1921 0h-354v764h-350v-764h-355v764h-350v-764h-354v764h-166v293h166v78q0 139 89 219t253 80h219v-295h-135q-72 0 -72 -70v-12h350v78q0 139 89 219t253 80h219v-295h-135
q-71 0 -71 -70v-12h704v-1057z" />
    <glyph glyph-name="f_f_t.liga" unicode="fft" horiz-adv-x="2177" 
d="M1919 764v-375q0 -51 23 -74q22 -22 73 -22h131v-293h-264q-152 0 -234 81q-83 81 -83 236v447h-348v-764h-355v764h-350v-764h-354v764h-166v293h166v78q0 139 89 219t253 80h219v-295h-135q-72 0 -72 -70v-12h350v78q0 139 89 219t253 80h219v-295h-135q-71 0 -71 -70
v-12h348v297h354v-297h227v-293h-227z" />
    <glyph glyph-name="f_t.liga" unicode="ft" horiz-adv-x="1472" 
d="M1214 764v-375q0 -51 23 -74q22 -22 74 -22h131v-293h-264q-152 0 -235 81t-83 236v447h-348v-764h-354v764h-166v293h166v78q0 139 89 219t253 80h219v-295h-135q-72 0 -72 -70v-12h348v297h354v-297h228v-293h-228z" />
    <glyph glyph-name="t_t.liga" unicode="tt" horiz-adv-x="1492" 
d="M1235 764v-375q0 -52 22 -74t74 -22h131v-293h-264q-152 0 -234 81q-83 81 -83 236v447h-369v-375q0 -51 23 -74q22 -22 73 -22h111v-293h-244q-151 0 -234 81t-83 236v447h-166v293h166v297h354v-297h369v297h354v-297h227v-293h-227z" />
    <glyph glyph-name=".notdef" horiz-adv-x="1269" 
d="M164 1434h942v-1573h-942v1573z" />
    <glyph glyph-name=".null" horiz-adv-x="0" 
 />
    <glyph glyph-name="nonmarkingreturn" horiz-adv-x="682" 
 />
    <glyph glyph-name="space" unicode=" " horiz-adv-x="491" 
 />
    <glyph glyph-name="exclam" unicode="!" horiz-adv-x="634" 
d="M186 455l-59 979h381l-55 -979h-267zM171 332q59 57 146 57q89 0 147 -57t58 -144q0 -86 -58 -143t-147 -57q-87 0 -146 57q-58 57 -58 143q0 87 58 144z" />
    <glyph glyph-name="quotedbl" unicode="&#x22;" horiz-adv-x="897" 
d="M51 1280q0 72 48 119q49 47 137 47q87 0 136 -47q48 -47 48 -119q0 -16 -4 -41l-74 -391h-213l-74 391q-4 25 -4 41zM477 1280q0 72 48 119q49 47 136 47q88 0 137 -47q48 -47 48 -119q0 -16 -4 -41l-74 -391h-213l-74 391q-4 25 -4 41z" />
    <glyph glyph-name="numbersign" unicode="#" horiz-adv-x="1132" 
d="M287 1241h288l-38 -260h161l39 260h289l-39 -260h113v-291h-156l-18 -139h131v-291h-174l-39 -260h-289l39 260h-162l-39 -260h-289l39 260h-112v291h155l19 139h-131v291h174zM494 690l-21 -139h164l20 139h-163z" />
    <glyph glyph-name="dollar" unicode="$" horiz-adv-x="1298" 
d="M1038 803q97 -41 155 -123t58 -219q0 -172 -124 -299q-125 -128 -322 -162v-219h-307v223q-199 41 -321 170q-122 130 -122 299l367 -8q6 -83 72 -136q67 -53 178 -53q89 0 145 35q55 34 55 103q0 43 -30 67q-29 23 -96 42q-66 18 -211 48q-139 29 -238 73
q-96 43 -152 127q-57 85 -57 226q0 160 113 279q113 118 297 156v223h307v-225q187 -39 300 -160q114 -122 114 -283h-367q-6 75 -59 122q-52 46 -146 46q-81 0 -130 -33q-50 -33 -50 -96q0 -43 30 -67q26 -21 93 -40q69 -20 207 -47q145 -28 241 -69z" />
    <glyph glyph-name="percent" unicode="%" horiz-adv-x="1949" 
d="M131 1272q49 82 137 128t197 46t197 -46t137 -128t49 -185q0 -102 -49 -184t-137 -128t-197 -46t-197 46t-137 128t-49 184q0 103 49 185zM307 0l987 1434h348l-987 -1434h-348zM541 1166q-30 32 -76 32t-76 -32q-31 -33 -31 -79q0 -45 31 -78q30 -32 76 -32t76 32
q30 31 30 78t-30 79zM1151 530q49 82 137 128q89 47 197 47q107 0 196 -47t138 -128q49 -82 49 -184t-49 -184q-49 -81 -138 -128q-88 -46 -196 -46q-109 0 -197 46t-137 128t-49 184t49 184zM1561 425q-30 32 -76 32t-76 -32q-31 -33 -31 -79t31 -79q30 -31 76 -31t76 31
t30 79t-30 79z" />
    <glyph glyph-name="ampersand" unicode="&#x26;" horiz-adv-x="1714" 
d="M1359 293q19 -6 50 -6h152v-287h-209q-90 0 -170 25q-76 24 -138 86q-92 -66 -176 -94q-86 -29 -196 -29q-242 0 -393 100q-152 101 -152 293q0 110 64 211t223 178q-63 81 -80 139q-19 63 -19 154q0 108 60 195q62 89 168 138q109 50 245 50q120 0 219 -45
q98 -44 157 -125q59 -80 59 -180q0 -109 -67 -196q-65 -84 -245 -163l15 -16l184 -189l150 242h323l-293 -426l29 -29q20 -20 40 -26zM691 1171q-36 -39 -36 -98q0 -46 19 -86q18 -37 63 -84q84 40 123 85q37 43 37 99q0 55 -33 90q-32 33 -84 33q-53 0 -89 -39zM546 296
q55 -44 150 -44q91 0 170 41l-299 309q-75 -65 -75 -178q0 -84 54 -128z" />
    <glyph glyph-name="quotesingle" unicode="'" horiz-adv-x="471" 
d="M51 1280q0 72 48 119q49 47 137 47q87 0 136 -47q48 -47 48 -119q0 -16 -4 -41l-74 -391h-213l-74 391q-4 25 -4 41z" />
    <glyph glyph-name="parenleft" unicode="(" horiz-adv-x="729" 
d="M791 1434q-192 -255 -268 -456q-77 -205 -77 -466q0 -257 77 -461q76 -201 268 -461h-373q-166 223 -243 445t-77 477q0 259 77 479t243 443h373z" />
    <glyph glyph-name="parenright" unicode=")" horiz-adv-x="729" 
d="M574 991q77 -220 77 -479q0 -255 -77 -477q-78 -225 -242 -445h-373q190 257 267 461t77 461q0 261 -77 466q-76 204 -267 456h373q164 -221 242 -443z" />
    <glyph glyph-name="asterisk" unicode="*" horiz-adv-x="899" 
d="M848 1100l-230 -80l158 -166l-184 -154l-143 215l-144 -213l-184 156l158 164l-228 82l99 215l190 -105l-10 220h237l-10 -222l191 105z" />
    <glyph glyph-name="plus" unicode="+" 
d="M362 1042h320v-313h295v-297h-295v-315h-320v315h-294v297h294v313z" />
    <glyph glyph-name="comma" unicode="," horiz-adv-x="552" 
d="M433 300q67 -84 67 -218q0 -191 -116 -290t-316 -99v178q97 0 150 34q54 34 54 91q0 17 -2 31q-36 -13 -63 -13q-67 0 -110 46q-44 47 -44 133q0 76 61 134q59 56 144 56q109 0 175 -83z" />
    <glyph glyph-name="hyphen" unicode="-" horiz-adv-x="872" 
d="M68 438v287h737v-287h-737z" />
    <glyph glyph-name="period" unicode="." horiz-adv-x="552" 
d="M130 332q58 57 146 57t147 -57q58 -57 58 -144q0 -86 -58 -143q-59 -57 -147 -57t-146 57t-58 143q0 87 58 144z" />
    <glyph glyph-name="slash" unicode="/" horiz-adv-x="712" 
d="M-111 -410l600 1844h334l-602 -1844h-332z" />
    <glyph glyph-name="zero" unicode="0" horiz-adv-x="1347" 
d="M57 750q0 214 78 372q79 160 218 241q142 83 321 83q178 0 320 -83q139 -81 218 -241q78 -158 78 -372v-66q0 -216 -78 -373q-78 -158 -218 -240q-142 -83 -320 -83q-179 0 -321 83q-140 82 -218 240q-78 157 -78 373v66zM860 1040q-69 107 -186 107q-118 0 -187 -107
q-69 -106 -69 -303v-41q0 -199 69 -304t187 -105q117 0 186 105q70 107 70 304v41q0 195 -70 303z" />
    <glyph glyph-name="one" unicode="1" horiz-adv-x="804" 
d="M692 1434v-1434h-360v862h-68h-244v293h203q55 0 85 45t30 111v123h354z" />
    <glyph glyph-name="two" unicode="2" horiz-adv-x="1191" 
d="M590 705q93 75 137 136q43 59 43 128q0 87 -50 134q-49 46 -134 46q-78 0 -129 -58q-51 -59 -51 -155v-21h-365v41q0 137 68 249t191 177q124 66 286 66q264 0 406 -127q143 -128 143 -338q0 -146 -70 -254q-69 -107 -219 -225l-262 -207h557v-297h-1088v272z" />
    <glyph glyph-name="three" unicode="3" horiz-adv-x="1261" 
d="M1204 401q0 -126 -70 -218q-70 -93 -201 -144t-306 -51q-267 0 -421 135q-155 135 -155 373h359q2 -108 67 -171q66 -63 170 -63q82 0 136 45q55 46 55 125q0 71 -55 112q-53 40 -158 40h-154v282h133q100 0 152 43q53 44 53 117q0 72 -46 109q-45 36 -122 36
q-86 0 -142 -49t-61 -135h-350q1 212 148 336q146 123 391 123q259 0 402 -104q142 -103 142 -281q0 -127 -78 -202q-79 -76 -208 -109q319 -78 319 -349z" />
    <glyph glyph-name="four" unicode="4" horiz-adv-x="1300" 
d="M41 578l588 856h448v-856h183v-293h-183v-285h-352v285h-684v293zM373 578h352v518z" />
    <glyph glyph-name="five" unicode="5" horiz-adv-x="1232" 
d="M951 923q112 -64 176 -175q65 -113 65 -259q0 -161 -75 -275q-74 -112 -203 -170q-125 -56 -287 -56q-166 0 -292 63t-197 173t-77 245h359q11 -85 68 -139q59 -56 139 -56q82 0 142 57t60 158q0 95 -56 157q-57 63 -146 63q-59 0 -118 -31q-56 -30 -79 -96h-350l37 852
h989v-297h-660l-10 -244q112 92 269 92q137 0 246 -62z" />
    <glyph glyph-name="six" unicode="6" horiz-adv-x="1277" 
d="M57 698q0 365 165 557q166 193 452 193q137 0 252 -50q113 -49 189 -148q74 -97 91 -232h-354q-18 72 -74 110q-55 37 -135 37q-115 0 -176 -85t-61 -255v-16l22 27q51 62 132 96q82 35 171 35q144 0 255 -63q112 -63 173 -174q62 -112 62 -253q0 -145 -70 -258
q-69 -110 -196 -171q-126 -60 -289 -60q-152 0 -269 55q-119 55 -198 162q-142 192 -142 493zM806 634q-53 62 -140 62q-89 0 -144 -61t-55 -156q0 -94 55 -155q56 -62 142 -62q85 0 141 62q55 61 55 153q0 94 -54 157z" />
    <glyph glyph-name="seven" unicode="7" horiz-adv-x="1132" 
d="M20 1434h1072v-228l-590 -1206h-391l583 1135h-674v299z" />
    <glyph glyph-name="eight" unicode="8" horiz-adv-x="1253" 
d="M1113 635q83 -91 83 -244q0 -182 -148 -293q-147 -110 -421 -110q-276 0 -422 109q-148 110 -148 294q0 153 82 242q83 90 207 117q-107 33 -177 112q-71 80 -71 207q0 113 63 199q64 87 181 133q120 47 285 47q164 0 284 -47q118 -46 182 -133q62 -84 62 -199
q0 -119 -72 -202q-72 -82 -176 -115q124 -27 206 -117zM502 1160q-49 -43 -49 -111q0 -70 48 -115t126 -45t126 45t48 115q0 68 -49 111q-50 44 -125 44t-125 -44zM775 284q61 55 61 134q0 81 -61 137q-59 55 -148 55q-90 0 -149 -55q-60 -55 -60 -137q0 -80 60 -134
q61 -55 149 -55q87 0 148 55z" />
    <glyph glyph-name="nine" unicode="9" horiz-adv-x="1277" 
d="M1221 737q0 -365 -158 -558q-157 -191 -459 -191q-237 0 -377 110q-142 112 -166 320h355q17 -73 71 -110q56 -38 138 -38q119 0 180 87q61 86 61 253v21q-28 -37 -43 -49q-105 -105 -276 -105q-145 0 -256 60q-110 60 -172 168q-62 109 -62 251t70 255q69 110 196 174
q126 63 289 63q283 0 447 -193q162 -190 162 -518zM472 808q54 -60 140 -60q88 0 144 60q55 59 55 153q0 93 -55 152q-56 61 -142 61t-141 -60q-55 -59 -55 -151q0 -95 54 -155z" />
    <glyph glyph-name="colon" unicode=":" horiz-adv-x="552" 
d="M130 1014q58 57 146 57t147 -57q58 -57 58 -144q0 -86 -58 -143q-59 -57 -147 -57t-146 57t-58 143q0 87 58 144zM130 332q58 57 146 57t147 -57q58 -57 58 -144q0 -86 -58 -143q-59 -57 -147 -57t-146 57t-58 143q0 87 58 144z" />
    <glyph glyph-name="semicolon" unicode=";" horiz-adv-x="552" 
d="M433 300q67 -84 67 -218q0 -191 -116 -290t-316 -99v178q97 0 150 34q54 34 54 91q0 17 -2 31q-36 -13 -63 -13q-67 0 -110 46q-44 47 -44 133q0 76 61 134q59 56 144 56q109 0 175 -83zM118 1012q59 57 146 57q88 0 147 -57q58 -57 58 -144q0 -86 -58 -143
q-59 -57 -147 -57t-146 57q-59 57 -59 143q0 87 59 144z" />
    <glyph glyph-name="less" unicode="&#x3c;" 
d="M109 418v327l827 330v-340l-434 -153l434 -154v-340z" />
    <glyph glyph-name="equal" unicode="=" 
d="M88 649v297h868v-297h-868zM88 201v297h868v-297h-868z" />
    <glyph glyph-name="greater" unicode="&#x3e;" 
d="M936 745v-327l-827 -330v340l434 154l-434 153v340z" />
    <glyph glyph-name="question" unicode="?" horiz-adv-x="1116" 
d="M93 1190q64 118 183 186q123 70 287 70q159 0 274 -51t177 -142q61 -89 61 -206q0 -98 -28 -163q-29 -66 -74 -110t-117 -90q-89 -61 -124 -102q-34 -40 -34 -97v-12h-331v49q0 122 51 188q52 67 166 130q71 40 100 81q31 43 31 93q0 61 -40 98t-110 37q-81 0 -127 -59
q-47 -61 -47 -158h-360q0 143 62 258zM403 317q58 56 142 56q83 0 141 -56q57 -56 57 -137q0 -82 -57 -137q-56 -55 -141 -55q-86 0 -142 55q-57 56 -57 137q0 82 57 137z" />
    <glyph glyph-name="at" unicode="@" horiz-adv-x="2007" 
d="M210 957q129 208 348 321q222 115 484 115q255 0 459 -96q201 -95 313 -265q111 -170 111 -389q0 -167 -68 -290t-189 -191t-271 -68q-92 0 -151 46q-61 47 -79 120l-6 25q-42 -88 -123 -138q-82 -51 -180 -51q-84 0 -160 45t-123 134t-47 214q0 131 52 241
q50 107 143 169q92 62 211 62q89 0 149 -36q61 -36 68 -81l39 104h287l-68 -563q-2 -14 -2 -31q0 -37 15 -52t48 -15q52 0 101 48q50 48 81 133q31 84 31 187q0 169 -77 292q-78 125 -225 191t-347 66q-192 0 -356 -93q-165 -94 -259 -256q-95 -164 -95 -359
q0 -304 184 -460q186 -157 526 -157q231 0 439 92l-11 -209q-71 -38 -193 -62q-120 -24 -265 -24q-265 0 -475 99q-211 99 -328 282q-119 185 -119 435q0 259 128 465zM1099 674q-34 37 -89 37q-63 0 -109 -58q-45 -57 -45 -139t36 -123t85 -41q62 0 109 58t47 155
q0 74 -34 111z" />
    <glyph glyph-name="A" unicode="A" horiz-adv-x="1474" 
d="M0 0l512 1434h455l508 -1434h-406l-90 272h-500l-88 -272h-391zM575 569h306l-154 465z" />
    <glyph glyph-name="B" unicode="B" horiz-adv-x="1347" 
d="M680 1434q260 0 404 -99q145 -100 145 -280q0 -137 -78 -218t-217 -102q165 -18 253 -99q89 -81 89 -228q0 -188 -149 -298t-416 -110h-598v1434h567zM489 862h197q78 0 122 39t44 105q0 65 -44 104q-43 39 -122 39h-197v-287zM489 287h226q81 0 128 39q46 39 46 108
q0 70 -46 109q-47 39 -128 39h-226v-295z" />
    <glyph glyph-name="C" unicode="C" horiz-adv-x="1427" 
d="M139 1102q85 163 247 254q161 90 380 90q173 0 311 -70q137 -69 219 -193q83 -125 95 -284h-377q-21 107 -91 171q-71 65 -178 65q-144 0 -226 -115q-81 -114 -81 -303t81 -303q82 -115 226 -115q107 0 178 65q70 64 91 171h377q-12 -159 -95 -284t-219 -194
q-137 -69 -311 -69q-220 0 -380 90q-162 91 -247 254q-86 164 -86 385t86 385z" />
    <glyph glyph-name="D" unicode="D" horiz-adv-x="1429" 
d="M113 1434h538q210 0 378 -93q164 -91 256 -255q91 -163 91 -369q0 -207 -91 -370q-92 -164 -256 -255q-166 -92 -378 -92h-538v1434zM651 307q162 0 251 113t89 297t-89 297q-88 112 -251 112h-162v-819h162z" />
    <glyph glyph-name="E" unicode="E" horiz-adv-x="1185" 
d="M113 1434h989v-320h-613v-246h490v-299h-490v-250h635v-319h-1011v1434z" />
    <glyph glyph-name="F" unicode="F" horiz-adv-x="1130" 
d="M113 1434h977v-320h-601v-258h490v-299h-490v-557h-376v1434z" />
    <glyph glyph-name="G" unicode="G" horiz-adv-x="1536" 
d="M140 1102q87 164 251 254q163 90 387 90q176 0 319 -70q141 -69 223 -193t97 -284h-370q-22 106 -95 171t-184 65q-153 0 -242 -116q-88 -115 -88 -302q0 -190 87 -304t247 -114q100 0 187 51q88 52 118 168v2h-317v287h663v-807h-249l-41 152q-62 -77 -163 -121
q-98 -43 -231 -43q-204 0 -360 90q-155 90 -241 255q-85 164 -85 384q0 222 87 385z" />
    <glyph glyph-name="H" unicode="H" horiz-adv-x="1456" 
d="M113 1434h376v-551h478v551h376v-1434h-376v563h-478v-563h-376v1434z" />
    <glyph glyph-name="I" unicode="I" horiz-adv-x="602" 
d="M113 1434h376v-1434h-376v1434z" />
    <glyph glyph-name="J" unicode="J" horiz-adv-x="864" 
d="M752 1434v-1031q0 -186 -109 -295q-108 -108 -297 -108h-305v319h174q84 0 122 41t38 127v947h377z" />
    <glyph glyph-name="K" unicode="K" horiz-adv-x="1447" 
d="M113 1432h376v-553l494 553h457l-527 -584l560 -848h-455l-369 557l-160 -178v-379h-376v1432z" />
    <glyph glyph-name="L" unicode="L" horiz-adv-x="1054" 
d="M113 0v1434h376v-1115h525v-319h-901z" />
    <glyph glyph-name="M" unicode="M" horiz-adv-x="1875" 
d="M113 1434h499l340 -979l322 979h489v-1434h-358v868l-318 -868h-299l-317 868v-868h-358v1434z" />
    <glyph glyph-name="N" unicode="N" horiz-adv-x="1460" 
d="M113 0v1434h342l522 -793v793h371v-1434h-342l-523 793v-793h-370z" />
    <glyph glyph-name="O" unicode="O" horiz-adv-x="1556" 
d="M1412 344q-92 -167 -256 -261q-166 -95 -378 -95t-378 95q-164 94 -256 261q-91 166 -91 373t91 373q92 167 256 261q166 95 378 95t378 -95q164 -94 256 -261q91 -166 91 -373t-91 -373zM531 417q93 -118 247 -118t247 118q93 119 93 300t-93 300q-93 118 -247 118
t-247 -118q-93 -119 -93 -300t93 -300z" />
    <glyph glyph-name="P" unicode="P" horiz-adv-x="1304" 
d="M715 1434q160 0 284 -62q123 -62 191 -173q67 -110 67 -261t-67 -261q-68 -111 -191 -173q-124 -62 -284 -62h-226v-442h-376v1434h602zM489 750h191q89 0 142 50q52 49 52 138t-52 138q-53 50 -142 50h-191v-376z" />
    <glyph glyph-name="Q" unicode="Q" horiz-adv-x="1572" 
d="M1540 311v-311h-158q-84 0 -133 22q-47 21 -86 66q-172 -100 -385 -100q-212 0 -378 95q-164 94 -256 261q-91 166 -91 373t91 373q92 167 256 261q166 95 378 95t378 -95q164 -94 256 -261q91 -166 91 -373q0 -232 -110 -406h147zM531 417q93 -118 247 -118q99 0 172 49
l-8 8q-27 30 -45 45t-47 15h-139v309h159q65 0 103 -13q39 -14 61 -34q29 -27 53 -57l19 -23q12 55 12 119q0 181 -93 300q-93 118 -247 118t-247 -118q-93 -119 -93 -300t93 -300z" />
    <glyph glyph-name="R" unicode="R" horiz-adv-x="1347" 
d="M717 1434q163 0 289 -62q125 -62 194 -173q70 -113 70 -261q0 -126 -58 -233q-57 -104 -155 -170l260 -535h-414l-211 442h-203v-442h-376v1434h604zM489 750h197q92 0 145 50q54 51 54 138t-54 138q-53 50 -145 50h-197v-376z" />
    <glyph glyph-name="S" unicode="S" horiz-adv-x="1298" 
d="M422 465q6 -83 72 -136q67 -53 178 -53q89 0 145 35q55 34 55 103q0 43 -30 67q-29 23 -96 42q-66 18 -211 48q-139 29 -238 73q-96 43 -152 127q-57 85 -57 226q0 127 73 230q72 102 200 161q126 58 286 58q161 0 292 -60t205 -164q75 -105 75 -235h-367q-6 75 -59 122
q-52 46 -146 46q-81 0 -130 -33q-50 -33 -50 -96q0 -43 30 -67q26 -21 93 -40q69 -20 207 -47q145 -28 241 -69q97 -41 155 -123t58 -219q0 -136 -75 -242q-77 -109 -210 -170q-132 -61 -300 -61q-172 0 -312 63t-219 174q-80 112 -80 248z" />
    <glyph glyph-name="T" unicode="T" horiz-adv-x="1232" 
d="M41 1434h1151v-320h-387v-1114h-377v1114h-387v320z" />
    <glyph glyph-name="U" unicode="U" horiz-adv-x="1429" 
d="M479 1434v-832q0 -146 56 -222q55 -75 180 -75t180 75q55 74 55 222v832h377v-811q0 -306 -157 -471q-156 -164 -455 -164q-300 0 -456 164q-157 165 -157 471v811h377z" />
    <glyph glyph-name="V" unicode="V" horiz-adv-x="1370" 
d="M-10 1434h399l295 -975l305 975h391l-471 -1434h-446z" />
    <glyph glyph-name="W" unicode="W" horiz-adv-x="2027" 
d="M-4 1434l389 4l227 -967l242 963h328l235 -963l236 963h379l-387 -1434h-431l-204 854l-197 -854h-430z" />
    <glyph glyph-name="X" unicode="X" horiz-adv-x="1427" 
d="M473 731l-440 703h461l241 -394l246 394h414l-441 -703l459 -731h-463l-258 422l-266 -422h-412z" />
    <glyph glyph-name="Y" unicode="Y" horiz-adv-x="1392" 
d="M-10 1434h440l266 -523l289 523h418l-518 -902v-532h-377v532z" />
    <glyph glyph-name="Z" unicode="Z" horiz-adv-x="1308" 
d="M66 1434h1177v-242l-670 -877h684v-315h-1206v242l670 876h-655v316z" />
    <glyph glyph-name="bracketleft" unicode="[" horiz-adv-x="706" 
d="M92 1434h598v-310h-268v-1224h268v-310h-598v1844z" />
    <glyph glyph-name="backslash" unicode="\" horiz-adv-x="712" 
d="M823 -410h-331l-603 1844h334z" />
    <glyph glyph-name="bracketright" unicode="]" horiz-adv-x="706" 
d="M614 -410h-598v310h269v1224h-269v310h598v-1844z" />
    <glyph glyph-name="asciicircum" unicode="^" horiz-adv-x="1091" 
d="M53 795l357 639h272l356 -639h-321l-178 327l-181 -327h-305z" />
    <glyph glyph-name="underscore" unicode="_" horiz-adv-x="1032" 
d="M92 -332v320h848v-320h-848z" />
    <glyph glyph-name="grave" unicode="`" horiz-adv-x="819" 
d="M2 1434h401l129 -304h-262z" />
    <glyph glyph-name="a" unicode="a" horiz-adv-x="1171" 
d="M1161 291v-291h-178q-105 0 -152 44t-47 120v8q-61 -93 -141 -138q-82 -46 -197 -46q-177 0 -287 81t-110 230q0 174 133 268q134 95 385 95h156v40q0 55 -44 90q-42 33 -116 33q-65 0 -107 -27q-41 -27 -46 -75h-340q15 167 149 256q135 90 361 90q236 0 364 -98
q129 -99 129 -289v-328q0 -36 16 -50q14 -13 50 -13h22zM723 442h-150q-78 0 -122 -31q-45 -32 -45 -85q0 -44 31 -69q32 -26 85 -26q91 0 145 57q55 58 56 150v4z" />
    <glyph glyph-name="b" unicode="b" horiz-adv-x="1271" 
d="M990 1004q110 -66 171 -189q62 -124 62 -285q0 -157 -62 -283q-61 -124 -170 -192q-107 -67 -248 -67q-196 0 -309 149l-31 -137h-311v1434h354v-494q112 129 297 129q139 0 247 -65zM805 340q57 72 57 188q0 117 -57 189q-56 71 -154 71t-153 -71q-56 -73 -56 -189
q0 -115 56 -188q56 -72 153 -72t154 72z" />
    <glyph glyph-name="c" unicode="c" horiz-adv-x="1189" 
d="M979 102q-141 -114 -369 -114q-172 0 -298 66q-123 65 -194 189q-69 121 -69 285t69 287q69 124 194 189q124 65 298 65q225 0 367 -113q141 -113 170 -311h-369q-17 68 -59 104q-43 37 -109 37q-92 0 -146 -70t-54 -188q0 -116 54 -187t146 -71q71 0 114 40
q44 41 56 110h369q-29 -204 -170 -318z" />
    <glyph glyph-name="d" unicode="d" horiz-adv-x="1271" 
d="M1180 1434v-1434h-312l-30 137q-113 -149 -310 -149q-140 0 -247 67q-109 68 -170 192q-62 126 -62 283q0 161 62 285q61 123 171 189q108 65 246 65q184 0 297 -129v494h355zM774 340q55 71 55 188q0 118 -55 189t-153 71t-154 -71q-57 -72 -57 -189q0 -116 57 -188
t154 -72t153 72z" />
    <glyph glyph-name="e" unicode="e" horiz-adv-x="1214" 
d="M118 813q70 126 192 190q124 66 288 66q168 0 296 -63q127 -63 200 -180q71 -114 71 -267q0 -68 -10 -115h-737v-4q27 -196 205 -196q152 0 182 116h348q-15 -102 -79 -187t-174 -135q-111 -50 -253 -50q-188 0 -321 65q-136 67 -206 187q-71 122 -71 284q0 166 69 289z
M815 662q-15 76 -66 115q-52 40 -133 40q-83 0 -132 -40q-50 -41 -62 -115h393z" />
    <glyph glyph-name="f" unicode="f" horiz-adv-x="770" 
d="M158 1057v78q0 139 89 219t253 80h260v-295h-176q-72 0 -72 -70v-12h248v-293h-248v-764h-354v764h-166v293h166z" />
    <glyph glyph-name="g" unicode="g" horiz-adv-x="1271" 
d="M1180 1057v-1037q0 -196 -143 -319t-445 -123q-237 0 -378 101t-146 288h356q34 -133 194 -133q101 0 158 51q58 52 58 148v110q-117 -127 -306 -127q-135 0 -246 67q-110 66 -171 186q-62 121 -62 276q0 156 62 277q61 120 171 186q108 65 246 65q191 0 312 -149l26 133
h314zM774 359q55 68 55 182t-55 182q-56 70 -153 70q-96 0 -154 -70q-57 -69 -57 -182t57 -182q56 -68 154 -68t153 68z" />
    <glyph glyph-name="h" unicode="h" horiz-adv-x="1239" 
d="M1047 954q120 -113 120 -389v-565h-354v551q0 116 -42 176q-41 59 -132 59q-93 0 -142 -61q-51 -63 -51 -174v-551h-354v1434h354v-486q52 59 124 90q73 31 171 31q183 0 306 -115z" />
    <glyph glyph-name="i" unicode="i" horiz-adv-x="538" 
d="M412 1460q57 -56 57 -137t-57 -137q-58 -56 -142 -56q-83 0 -141 56q-57 56 -57 137t57 137q58 56 141 56q84 0 142 -56zM92 1057h354v-1057h-354v1057z" />
    <glyph glyph-name="j" unicode="j" horiz-adv-x="546" 
d="M420 1460q57 -56 57 -137t-57 -137q-58 -56 -141 -56q-84 0 -142 56q-57 56 -57 137t57 137q58 56 142 56q83 0 141 -56zM4 -117q98 0 98 119v1055h355v-1123q0 -153 -86 -248q-87 -96 -236 -96h-217v293h86z" />
    <glyph glyph-name="k" unicode="k" horiz-adv-x="1202" 
d="M92 1434h354v-764l353 387h389l-363 -404l377 -653h-403l-224 389l-129 -143v-246h-354v1434z" />
    <glyph glyph-name="l" unicode="l" horiz-adv-x="538" 
d="M92 1434h354v-1434h-354v1434z" />
    <glyph glyph-name="m" unicode="m" horiz-adv-x="1861" 
d="M1684 955q106 -115 106 -390v-567h-354v588q0 100 -35 150t-113 50q-77 0 -123 -52q-47 -53 -47 -148v-588h-354v588q0 102 -34 151t-114 49q-77 0 -123 -52q-47 -53 -47 -148v-588h-354v1059h311l27 -127q56 68 130 102q77 36 185 37q219 0 308 -168q59 82 152 125
q92 43 208 43q166 0 271 -114z" />
    <glyph glyph-name="n" unicode="n" horiz-adv-x="1239" 
d="M1048 955q119 -113 119 -390v-565h-354v547q0 119 -41 180q-40 59 -133 59t-142 -61q-51 -63 -51 -178v-547h-354v1057h311l27 -127q55 67 131 103q77 36 184 36q183 0 303 -114z" />
    <glyph glyph-name="o" unicode="o" horiz-adv-x="1249" 
d="M321 54q-130 66 -201 190t-71 284q0 161 71 285q70 123 201 189q132 67 304 67t304 -67q129 -65 200 -189t71 -285q0 -160 -71 -284q-72 -125 -200 -190q-131 -66 -304 -66t-304 66zM782 341q58 72 58 187q0 116 -58 188q-57 70 -157 70q-101 0 -158 -70t-57 -188
q0 -116 57 -187t158 -71q100 0 157 71z" />
    <glyph glyph-name="p" unicode="p" horiz-adv-x="1271" 
d="M991 1001q109 -68 170 -191q62 -126 62 -284q0 -160 -62 -284q-61 -123 -171 -189q-108 -65 -247 -65q-185 0 -297 133v-531h-354v1467h311l29 -133q114 145 311 145q139 0 248 -68zM805 341q57 72 57 189q0 119 -56 188q-57 70 -155 70t-153 -70q-56 -71 -56 -188
q0 -116 56 -189t153 -73q96 0 154 73z" />
    <glyph glyph-name="q" unicode="q" horiz-adv-x="1271" 
d="M1180 1057v-1467h-355v531q-112 -133 -297 -133q-138 0 -246 65q-110 66 -171 189q-62 124 -62 284q0 158 62 284q61 123 170 191t247 68q198 0 312 -145l28 133h312zM774 341q55 71 55 189t-55 188t-153 70t-155 -70q-56 -69 -56 -188q0 -117 57 -189q58 -73 154 -73
q97 0 153 73z" />
    <glyph glyph-name="r" unicode="r" horiz-adv-x="815" 
d="M795 1057v-314h-133q-216 0 -216 -235v-508h-354v1057h326l28 -156q46 77 117 117q69 39 180 39h52z" />
    <glyph glyph-name="s" unicode="s" horiz-adv-x="1150" 
d="M383 354q11 -58 62 -92q53 -35 130 -35q81 0 127 23t46 69q0 28 -20 43q-19 14 -61 22q-12 2 -32 5t-54.5 7.5t-60.5 8.5q-219 27 -333 93q-113 65 -113 215q0 163 130 262q129 98 347 98q231 0 375 -93q143 -93 151 -253h-332q-5 48 -53 77q-49 30 -127 30
q-71 0 -112 -23t-41 -66q0 -34 41 -48q36 -12 149 -23l41 -4q213 -23 331 -91q118 -69 118 -235q0 -107 -64 -188t-179 -124q-117 -44 -269 -44q-229 0 -373 99q-143 99 -154 267h330z" />
    <glyph glyph-name="t" unicode="t" horiz-adv-x="770" 
d="M158 764h-166v293h166v297h354v-297h227v-293h-227v-375q0 -51 23 -74q22 -22 73 -22h131v-293h-264q-151 0 -234 81t-83 236v447z" />
    <glyph glyph-name="u" unicode="u" horiz-adv-x="1226" 
d="M1135 1057v-1057h-316l-26 121q-54 -63 -128 -99q-69 -34 -173 -34q-185 0 -302 113q-118 114 -118 391v565h354v-516q0 -135 39 -201t129 -66q88 0 137 69q49 68 49 198v516h355z" />
    <glyph glyph-name="v" unicode="v" horiz-adv-x="1167" 
d="M-10 1057h379l221 -707l217 707h371l-373 -1057h-440z" />
    <glyph glyph-name="w" unicode="w" horiz-adv-x="1718" 
d="M-10 1057h375l186 -684l158 684h315l156 -686l186 686h363l-347 -1057h-372l-148 559l-149 -559h-375z" />
    <glyph glyph-name="x" unicode="x" horiz-adv-x="1183" 
d="M387 537l-373 520h400l186 -271l193 271h374l-368 -520l385 -537h-400l-204 283l-205 -283h-375z" />
    <glyph glyph-name="y" unicode="y" horiz-adv-x="1175" 
d="M367 1057l221 -703l219 703h379l-459 -1192q-38 -101 -73 -156q-37 -59 -90 -88q-56 -31 -138 -31h-324v293h166q50 0 74 15q25 15 39 57l14 39l-405 1063h377z" />
    <glyph glyph-name="z" unicode="z" horiz-adv-x="1058" 
d="M68 1057h923v-234l-469 -530h492v-293h-969v233l469 531h-446v293z" />
    <glyph glyph-name="braceleft" unicode="{" horiz-adv-x="718" 
d="M539 1095q-31 -31 -31 -81q0 -23 6 -47l39 -156q8 -29 8 -61q0 -82 -55 -144q-56 -64 -154 -92q98 -18 155 -78q56 -59 56 -145q0 -34 -10 -78l-39 -156q-6 -27 -6 -49q0 -52 30 -80t87 -30l77 -2v-308h-61q-220 0 -346 94q-125 93 -125 252q0 38 8 80l35 174q4 16 4 52
q0 118 -176 118v308q178 0 178 118q0 25 -6 52l-35 174q-8 42 -8 82q0 160 126 251q128 93 345 93h61v-308l-77 -2q-57 -2 -86 -31z" />
    <glyph glyph-name="bar" unicode="|" horiz-adv-x="579" 
d="M113 1434h354v-1844h-354v1844z" />
    <glyph glyph-name="braceright" unicode="}" horiz-adv-x="718" 
d="M502 240q0 -36 4 -52l35 -174q8 -42 8 -80q0 -159 -125 -252q-126 -94 -346 -94h-62v308l78 2q57 2 87 30t30 80q0 22 -6 49l-39 156q-10 44 -10 78q0 86 56 145q57 60 155 78q-98 28 -154 92q-55 62 -55 144q0 32 8 61l39 156q6 24 6 47q0 50 -31 81q-29 29 -86 31
l-78 2v308h62q217 0 345 -93q126 -91 126 -251q0 -40 -8 -82l-35 -174q-6 -27 -6 -52q0 -118 178 -118v-308q-176 0 -176 -118z" />
    <glyph glyph-name="asciitilde" unicode="~" 
d="M55 342q0 204 69 303q68 98 208 98q68 0 115 -15q45 -14 96 -44q33 -19 47 -25q19 -8 39 -8q84 0 84 90h276q0 -205 -68 -303t-208 -98q-69 0 -116 15q-42 14 -95 44q-33 19 -47 25q-19 8 -39 8q-84 0 -84 -90h-277z" />
    <glyph glyph-name="exclamdown" unicode="&#xa1;" horiz-adv-x="634" 
d="M464 1389q58 -57 58 -144q0 -86 -58 -143q-60 -58 -147 -58q-86 0 -146 58q-58 57 -58 143q0 87 58 144t146 57q89 0 147 -57zM186 979h267l55 -979h-381z" />
    <glyph glyph-name="cent" unicode="&#xa2;" horiz-adv-x="1189" 
d="M1029 338q-97 -107 -257 -145v-193h-307v190q-193 39 -305 179q-111 139 -111 348q0 210 110 349q109 138 306 177v191h307v-193q158 -38 255 -142q97 -105 120 -265h-369q-17 66 -59 103q-44 38 -109 38q-92 0 -146 -71q-54 -70 -54 -187t54 -188q54 -70 146 -70
q71 0 114 40q44 41 56 109h369q-23 -162 -120 -270z" />
    <glyph glyph-name="sterling" unicode="&#xa3;" horiz-adv-x="1284" 
d="M178 764q-20 67 -30 115q-9 45 -9 94q0 140 70 248q68 105 190 164q123 59 273 59q171 0 299 -65q126 -64 197 -184q70 -120 75 -280h-358q-1 103 -54 166q-51 62 -145 62q-86 0 -137 -52q-51 -53 -51 -141q0 -37 10 -76q14 -55 31 -110h366v-246h-334q0 -30 -30 -99
q-28 -65 -62 -102l758 -6v-311h-1145v297q73 79 119 221h-170v246h137z" />
    <glyph glyph-name="currency" unicode="&#xa4;" horiz-adv-x="1404" 
d="M457 1210q118 56 245 56q128 0 246 -56l137 138l248 -248l-133 -133q64 -123 64 -262q0 -128 -56 -246l125 -125l-248 -248l-120 121q-123 -64 -263 -64q-139 0 -262 64l-121 -121l-247 248l125 125q-56 118 -56 246q0 139 64 262l-133 133l247 248zM517 517
q77 -77 185 -77q110 0 187 77q76 76 76 188q0 110 -77 187t-186 77q-108 0 -185 -77t-77 -187q0 -111 77 -188z" />
    <glyph glyph-name="yen" unicode="&#xa5;" horiz-adv-x="1484" 
d="M1403 1434l-379 -682h213v-246h-336v-103h336v-245h-336v-158h-377v158h-336v245h336v103h-336v246h209l-397 682h442l263 -523l276 523h422z" />
    <glyph glyph-name="brokenbar" unicode="&#xa6;" horiz-adv-x="579" 
d="M113 1434h354v-856h-354v856zM113 434h354v-844h-354v844z" />
    <glyph glyph-name="section" unicode="&#xa7;" horiz-adv-x="1341" 
d="M1008 377q125 -83 125 -234q0 -163 -126 -262q-125 -98 -339 -98q-207 0 -336 93t-137 253h340q5 -48 39 -77q35 -29 94 -29q54 0 86 22t32 66q0 49 -34 74q-36 26 -123 53q-187 56 -287 92q-94 34 -161 98q-66 63 -66 166q0 178 207 266q-115 79 -115 225q0 164 126 263
q125 98 339 98q207 0 336 -93t137 -253h-340q-5 47 -40 77q-35 29 -93 29q-54 0 -86 -22q-33 -22 -33 -66q0 -49 35 -75q33 -25 123 -52q181 -53 288 -92q94 -34 161 -98t67 -166q0 -174 -219 -258zM762 475q50 23 72 50q24 30 24 75q0 46 -41 73q-43 28 -155 58l-78 21
q-103 -39 -103 -123q0 -46 41 -73q42 -28 156 -58z" />
    <glyph glyph-name="dieresis" unicode="&#xa8;" horiz-adv-x="819" 
d="M50 1437q53 50 128 50q79 0 129 -49q51 -50 51 -125q0 -73 -51 -123q-50 -49 -129 -49q-76 0 -128 49t-52 123q0 75 52 124zM514 1438q50 49 127 49q79 0 129 -49q51 -50 51 -125q0 -73 -51 -123q-50 -49 -129 -49q-77 0 -127 49q-51 50 -51 123q0 75 51 125z" />
    <glyph glyph-name="copyright" unicode="&#xa9;" horiz-adv-x="1613" 
d="M147 1090q99 167 271 261q173 95 387 95q215 0 388 -95q172 -94 271 -261q99 -166 99 -373t-99 -373q-99 -167 -271 -261q-173 -95 -388 -95q-214 0 -387 95q-172 94 -271 261q-98 165 -98 373t98 373zM1313 1017q-77 134 -209 210q-133 76 -299 76t-299 -76t-208 -210
q-75 -133 -75 -300t75 -300q75 -134 208 -210t299 -76t299 76q132 76 209 210q76 133 76 300t-76 300zM1067 379q-101 -82 -260 -82q-123 0 -215 57t-140 154q-49 98 -49 209q0 113 49 211q48 96 140 153q93 58 215 58q150 0 255 -81t122 -235h-205q-17 58 -61 95
q-43 36 -107 36q-93 0 -143 -66q-50 -67 -50 -171q0 -100 51 -168q49 -66 142 -66q65 0 109 34q45 34 61 95h205q-16 -150 -119 -233z" />
    <glyph glyph-name="ordfeminine" unicode="&#xaa;" horiz-adv-x="864" 
d="M169 1125q85 57 247 57h92v24q0 35 -26 55q-25 19 -70 19q-34 0 -56 -16q-21 -16 -26 -45h-234q7 107 95 167q87 60 231 60q150 0 234 -64q83 -63 83 -188v-197q0 -22 10 -30q11 -9 29 -9h15v-174h-109q-70 0 -101 27q-32 27 -32 72v6q-34 -57 -86 -84q-51 -27 -127 -27
q-110 0 -182 48t-72 139q0 103 85 160zM508 1051h-100q-41 0 -66 -19t-25 -49q0 -24 20 -39q18 -14 54 -14q53 0 85 32t32 87v2zM82 676h711v-184h-711v184z" />
    <glyph glyph-name="guillemotleft" unicode="&#xab;" horiz-adv-x="1273" 
d="M694 1057l-299 -529l299 -528h-354l-303 528l303 529h354zM1227 1055l-299 -529l299 -528h-355l-303 528l303 529h355z" />
    <glyph glyph-name="logicalnot" unicode="&#xac;" 
d="M68 760h841v-621h-315v324h-526v297z" />
    <glyph glyph-name="registered" unicode="&#xae;" horiz-adv-x="1087" 
d="M136 1221q63 103 173 164t234 61q125 0 235 -61q109 -61 173 -163q65 -104 65 -229q0 -124 -65 -228t-173 -164t-235 -60q-126 0 -234 60t-173 164q-64 103 -64 226q0 126 64 230zM841 1163q-47 78 -125 124q-79 46 -173 46q-95 0 -172 -46q-79 -47 -123 -125
q-45 -80 -45 -173q0 -91 45 -171q45 -79 123 -124t172 -45t173 46q78 46 125 124q46 77 46 172t-46 172zM559 1227q83 0 136 -44t53 -118q0 -86 -76 -135l84 -170h-144l-69 139h-49v-139h-132v467h197zM496 1008h53q31 0 47 15t16 42q0 57 -63 57h-53v-114z" />
    <glyph glyph-name="macron" unicode="&#xaf;" horiz-adv-x="819" 
d="M72 1188v246h676v-246h-676z" />
    <glyph glyph-name="degree" unicode="&#xb0;" horiz-adv-x="901" 
d="M122 1271q50 81 137 128q88 47 192 47q103 0 191 -47q87 -47 137 -128q50 -82 50 -179q0 -100 -50 -182q-50 -81 -137 -128q-88 -47 -191 -47q-104 0 -192 47q-87 47 -137 128q-50 82 -50 182q0 97 50 179zM554 1198q-43 41 -103 41q-61 0 -104 -41q-42 -40 -42 -106
q0 -64 42 -107t104 -43q61 0 103 43t42 107q0 66 -42 106z" />
    <glyph glyph-name="plusminus" unicode="&#xb1;" 
d="M977 514h-295v-217h295v-297h-909v297h294v217h-294v297h294v313h320v-313h295v-297z" />
    <glyph glyph-name="uni00B2" unicode="&#xb2;" horiz-adv-x="681" 
d="M20 1354q0 132 89 215q88 82 219 82q139 0 229 -73q88 -72 88 -189q0 -75 -36 -125t-95 -88l-115 -74h256v-209h-618v197l295 190q67 43 67 102q0 28 -19 46q-20 18 -48 18q-37 0 -57 -26q-19 -25 -19 -74v-5h-236v13z" />
    <glyph glyph-name="uni00B3" unicode="&#xb3;" horiz-adv-x="700" 
d="M132 1583q84 70 226 70q139 0 216 -59t77 -148q0 -62 -36 -104t-91 -58q73 -15 111 -58q39 -44 39 -110q0 -110 -86 -172q-85 -61 -244 -61t-239 70t-85 206h240q4 -36 23 -56q18 -20 57 -20q33 0 54 15q22 16 22 43q0 55 -84 55h-37v154h41q33 0 53 14q21 15 21 37
q0 24 -17 38q-16 13 -45 13q-31 0 -48 -16q-16 -15 -21 -45h-234q5 123 87 192z" />
    <glyph glyph-name="acute" unicode="&#xb4;" horiz-adv-x="819" 
d="M287 1137l139 297h401l-284 -297h-256z" />
    <glyph glyph-name="uni00B5" unicode="&#xb5;" horiz-adv-x="1247" 
d="M446 -410h-354v1467h354v-516q0 -134 41 -201q41 -66 136 -66q84 0 131 70t47 197v516h354v-1057h-315l-27 123q-54 -65 -119 -100q-64 -35 -149 -35q-49 0 -99 20v-418z" />
    <glyph glyph-name="paragraph" unicode="&#xb6;" horiz-adv-x="1613" 
d="M707 442h-123q-161 0 -285 62q-122 61 -190 173t-68 261t68 261t190 173q124 62 285 62h458v-1434h-335v442zM1165 1434h336v-1434h-336v1434z" />
    <glyph glyph-name="periodcentered" unicode="&#xb7;" horiz-adv-x="552" 
d="M130 760q58 57 146 57t147 -57q58 -57 58 -144q0 -86 -58 -143q-59 -57 -147 -57t-146 57t-58 143q0 87 58 144z" />
    <glyph glyph-name="cedilla" unicode="&#xb8;" horiz-adv-x="819" 
d="M518 82l-35 -131h43q88 0 138 -43q51 -44 51 -117q0 -92 -66 -146q-67 -55 -176 -55h-278v164h204q47 0 47 41q0 37 -47 37h-129l62 250h186z" />
    <glyph glyph-name="uni00B9" unicode="&#xb9;" horiz-adv-x="442" 
d="M162 893v412h-37h-125v208h109q29 0 44 24t15 58v43h227v-745h-233z" />
    <glyph glyph-name="ordmasculine" unicode="&#xba;" horiz-adv-x="878" 
d="M699 869q-97 -91 -261 -91q-162 0 -259 91t-97 243t97 243t259 91q164 0 261 -91q98 -92 98 -243t-98 -243zM351 998q31 -42 87 -42q58 0 89 42q32 43 32 114t-32 114q-32 42 -89 42q-56 0 -87 -42q-32 -43 -32 -114t32 -114zM84 676h711v-184h-711v184z" />
    <glyph glyph-name="guillemotright" unicode="&#xbb;" horiz-adv-x="1273" 
d="M580 1057h354l303 -529l-303 -528h-354l299 528zM47 1055h354l304 -529l-304 -528h-354l299 528z" />
    <glyph glyph-name="onequarter" unicode="&#xbc;" horiz-adv-x="1452" 
d="M162 688v412h-37h-125v209h109q30 0 44 23q15 24 15 59v43h227v-746h-233zM53 0l908 1434h282l-907 -1434h-283zM1081 745h297v-389h105v-202h-105v-154h-233v154h-338v202zM1145 526l-117 -170h117v170z" />
    <glyph glyph-name="onehalf" unicode="&#xbd;" horiz-adv-x="1503" 
d="M162 688v412h-37h-125v209h109q30 0 44 23q15 24 15 59v43h227v-746h-233zM53 0l908 1434h282l-907 -1434h-283zM858 461q0 133 88 215t219 82q140 0 230 -73q88 -72 88 -189q0 -76 -36 -125q-36 -50 -95 -88l-115 -74h256v-209h-619v197l295 190q68 44 68 102
q0 29 -19 47q-18 17 -49 17q-36 0 -56 -26q-19 -25 -19 -74v-4h-236v12z" />
    <glyph glyph-name="threequarters" unicode="&#xbe;" horiz-adv-x="1710" 
d="M132 1378q84 70 226 70q140 0 216 -58q77 -59 77 -149q0 -61 -36 -103q-37 -43 -91 -59q73 -15 111 -58q39 -44 39 -110q0 -110 -86 -172q-85 -61 -244 -61q-157 0 -239 71q-81 70 -85 205h240q4 -36 23 -56q18 -19 57 -19q34 0 54 14q22 16 22 43q0 55 -84 55h-37v154
h41q33 0 53 14q21 15 21 37q0 24 -17 38q-16 13 -45 13q-31 0 -48 -16q-16 -15 -21 -45h-234q5 123 87 192zM311 0l908 1434h282l-907 -1434h-283zM1339 745h297v-389h105v-202h-105v-154h-233v154h-338v202zM1403 526l-117 -170h117v170z" />
    <glyph glyph-name="questiondown" unicode="&#xbf;" horiz-adv-x="1105" 
d="M713 1116q-56 -55 -142 -55q-85 0 -141 55q-57 56 -57 137q0 83 57 138q56 55 141 55q86 0 142 -55q57 -55 57 -138q0 -81 -57 -137zM1023 244q-64 -120 -183 -187q-122 -69 -287 -69q-157 0 -273 51q-117 52 -178 141t-61 207q0 96 29 163q28 66 73 109q48 47 117 91
q89 61 124 102q34 40 34 96v13h332v-50q0 -120 -52 -187t-166 -130q-71 -40 -100 -81q-31 -43 -31 -93q0 -61 40 -98t110 -37q81 0 127 59q47 61 47 158h360q0 -143 -62 -258z" />
    <glyph glyph-name="Agrave" unicode="&#xc0;" horiz-adv-x="1474" 
d="M0 0l512 1434h455l508 -1434h-406l-90 272h-500l-88 -272h-391zM575 569h306l-154 465zM334 1835h401l129 -303h-262z" />
    <glyph glyph-name="Aacute" unicode="&#xc1;" horiz-adv-x="1474" 
d="M0 0l512 1434h455l508 -1434h-406l-90 272h-500l-88 -272h-391zM575 569h306l-154 465zM618 1538l140 297h401l-285 -297h-256z" />
    <glyph glyph-name="Acircumflex" unicode="&#xc2;" horiz-adv-x="1474" 
d="M0 0l512 1434h455l508 -1434h-406l-90 272h-500l-88 -272h-391zM575 569h306l-154 465zM741 1632l-98 -94h-321l264 297h311l264 -297h-321z" />
    <glyph glyph-name="Atilde" unicode="&#xc3;" horiz-adv-x="1474" 
d="M0 0l512 1434h455l508 -1434h-406l-90 272h-500l-88 -272h-391zM575 569h306l-154 465zM625 1606q-19 -22 -19 -50h-203v52q0 103 60 169t147 66q40 0 67 -12t54 -33q28 -17 43 -24q20 -9 39 -9q27 0 46 21q20 22 20 49h200v-51q0 -101 -58 -168q-59 -68 -147 -68
q-40 0 -69 13q-31 14 -62 34q-45 31 -71 31q-30 0 -47 -20z" />
    <glyph glyph-name="Adieresis" unicode="&#xc4;" horiz-adv-x="1474" 
d="M0 0l512 1434h455l508 -1434h-406l-90 272h-500l-88 -272h-391zM575 569h306l-154 465zM382 1838q53 50 128 50q79 0 129 -49q51 -49 51 -125q0 -74 -51 -123q-50 -49 -129 -49q-76 0 -128 49t-52 123q0 75 52 124zM846 1839q50 49 127 49q79 0 129 -49q51 -49 51 -125
q0 -74 -51 -123q-50 -49 -129 -49q-77 0 -127 49q-51 49 -51 123q0 76 51 125z" />
    <glyph glyph-name="Aring" unicode="&#xc5;" horiz-adv-x="1474" 
d="M1475 0h-406l-90 272h-500l-88 -272h-391l508 1423q-55 67 -55 156q0 70 37 129q37 58 103 94q65 35 142 35q78 0 143 -35t102 -94q38 -61 38 -129q0 -81 -49 -149zM654 1659q-33 -32 -33 -80q0 -50 33 -82q34 -33 81 -33t81 33t34 82q0 47 -34 80t-81 33t-81 -33z
M575 569h306l-154 465z" />
    <glyph glyph-name="AE" unicode="&#xc6;" horiz-adv-x="2080" 
d="M1384 319h635v-319h-1011v270h-482l-157 -270h-389l825 1434h1192v-320h-613v-246h490v-299h-490v-250zM698 567h310v545z" />
    <glyph glyph-name="Ccedilla" unicode="&#xc7;" horiz-adv-x="1427" 
d="M923 364q70 64 91 171h377q-12 -145 -83 -263q-70 -116 -189 -190t-269 -90l-10 -41h43q87 0 137 -43q51 -44 51 -117q0 -93 -65 -146q-67 -55 -177 -55h-278v164h205q47 0 47 41q0 37 -47 37h-129l39 160q-194 21 -328 114q-138 95 -211 251q-74 157 -74 360
q0 221 86 385q85 163 247 254q161 90 380 90q173 0 311 -70q137 -69 219 -193q83 -125 95 -284h-377q-21 107 -91 171q-71 65 -178 65q-144 0 -226 -115q-81 -114 -81 -303t81 -303q82 -115 226 -115q107 0 178 65z" />
    <glyph glyph-name="Egrave" unicode="&#xc8;" horiz-adv-x="1185" 
d="M113 1434h989v-320h-613v-246h490v-299h-490v-250h635v-319h-1011v1434zM221 1835h402l129 -303h-263z" />
    <glyph glyph-name="Eacute" unicode="&#xc9;" horiz-adv-x="1185" 
d="M113 1434h989v-320h-613v-246h490v-299h-490v-250h635v-319h-1011v1434zM506 1538l139 297h402l-285 -297h-256z" />
    <glyph glyph-name="Ecircumflex" unicode="&#xca;" horiz-adv-x="1185" 
d="M113 1434h989v-320h-613v-246h490v-299h-490v-250h635v-319h-1011v1434zM629 1632l-99 -94h-321l264 297h311l265 -297h-322z" />
    <glyph glyph-name="Edieresis" unicode="&#xcb;" horiz-adv-x="1185" 
d="M113 1434h989v-320h-613v-246h490v-299h-490v-250h635v-319h-1011v1434zM269 1838q53 50 128 50q79 0 129 -49q52 -50 52 -125q0 -73 -52 -123q-50 -49 -129 -49q-76 0 -128 49t-52 123q0 75 52 124zM733 1839q50 49 127 49q79 0 129 -49q51 -49 51 -125q0 -74 -51 -123
q-50 -49 -129 -49q-77 0 -127 49q-51 49 -51 123q0 76 51 125z" />
    <glyph glyph-name="Igrave" unicode="&#xcc;" horiz-adv-x="602" 
d="M113 1434h376v-1434h-376v1434zM-106 1835h401l129 -303h-262z" />
    <glyph glyph-name="Iacute" unicode="&#xcd;" horiz-adv-x="602" 
d="M113 1434h376v-1434h-376v1434zM178 1538l139 297h402l-285 -297h-256z" />
    <glyph glyph-name="Icircumflex" unicode="&#xce;" horiz-adv-x="602" 
d="M113 1434h376v-1434h-376v1434zM301 1632l-98 -94h-322l264 297h312l264 -297h-322z" />
    <glyph glyph-name="Idieresis" unicode="&#xcf;" horiz-adv-x="602" 
d="M113 1434h376v-1434h-376v1434zM-58 1838q53 50 128 50q79 0 129 -49q51 -49 51 -125q0 -74 -51 -123q-50 -49 -129 -49q-76 0 -128 49q-53 50 -53 123q0 74 53 124zM406 1839q50 49 126 49q80 0 130 -49q51 -49 51 -125q0 -74 -51 -123q-50 -49 -130 -49q-76 0 -126 49
q-52 50 -52 123q0 75 52 125z" />
    <glyph glyph-name="Eth" unicode="&#xd0;" horiz-adv-x="1449" 
d="M1062 1341q164 -91 256 -255q91 -163 91 -369q0 -207 -91 -370q-92 -164 -256 -255q-166 -92 -378 -92h-539v602h-153v246h153v586h539q210 0 378 -93zM935 420q89 113 89 297t-89 297q-88 112 -251 112h-162v-278h199v-246h-199v-295h162q162 0 251 113z" />
    <glyph glyph-name="Ntilde" unicode="&#xd1;" horiz-adv-x="1460" 
d="M113 0v1434h342l522 -793v793h371v-1434h-342l-523 793v-793h-370zM586 1606q-19 -22 -19 -50h-202v52q0 104 59 169q60 66 147 66q40 0 67 -12t54 -33q28 -17 43 -24q20 -9 39 -9q26 0 46 21q20 22 20 49h200v-51q0 -101 -58 -168q-59 -68 -146 -68q-41 0 -70 13
q-28 12 -61 34q-45 31 -72 31q-30 0 -47 -20z" />
    <glyph glyph-name="Ograve" unicode="&#xd2;" horiz-adv-x="1556" 
d="M1412 344q-92 -167 -256 -261q-166 -95 -378 -95t-378 95q-164 94 -256 261q-91 166 -91 373t91 373q92 167 256 261q166 95 378 95t378 -95q164 -94 256 -261q91 -166 91 -373t-91 -373zM531 417q93 -118 247 -118t247 118q93 119 93 300t-93 300q-93 118 -247 118
t-247 -118q-93 -119 -93 -300t93 -300zM371 1835h401l129 -303h-262z" />
    <glyph glyph-name="Oacute" unicode="&#xd3;" horiz-adv-x="1556" 
d="M1412 344q-92 -167 -256 -261q-166 -95 -378 -95t-378 95q-164 94 -256 261q-91 166 -91 373t91 373q92 167 256 261q166 95 378 95t378 -95q164 -94 256 -261q91 -166 91 -373t-91 -373zM531 417q93 -118 247 -118t247 118q93 119 93 300t-93 300q-93 118 -247 118
t-247 -118q-93 -119 -93 -300t93 -300zM655 1538l140 297h401l-285 -297h-256z" />
    <glyph glyph-name="Ocircumflex" unicode="&#xd4;" horiz-adv-x="1556" 
d="M1412 344q-92 -167 -256 -261q-166 -95 -378 -95t-378 95q-164 94 -256 261q-91 166 -91 373t91 373q92 167 256 261q166 95 378 95t378 -95q164 -94 256 -261q91 -166 91 -373t-91 -373zM531 417q93 -118 247 -118t247 118q93 119 93 300t-93 300q-93 118 -247 118
t-247 -118q-93 -119 -93 -300t93 -300zM778 1632l-98 -94h-322l265 297h311l264 -297h-321z" />
    <glyph glyph-name="Otilde" unicode="&#xd5;" horiz-adv-x="1556" 
d="M1412 344q-92 -167 -256 -261q-166 -95 -378 -95t-378 95q-164 94 -256 261q-91 166 -91 373t91 373q92 167 256 261q166 95 378 95t378 -95q164 -94 256 -261q91 -166 91 -373t-91 -373zM531 417q93 -118 247 -118t247 118q93 119 93 300t-93 300q-93 118 -247 118
t-247 -118q-93 -119 -93 -300t93 -300zM662 1606q-19 -22 -19 -50h-203v52q0 103 60 169t147 66q40 0 67 -12t54 -33q28 -17 43 -24q20 -9 39 -9q26 0 46 21q19 20 19 49h201v-51q0 -101 -58 -168q-59 -68 -147 -68q-40 0 -69 13q-31 14 -62 34q-45 31 -71 31q-30 0 -47 -20
z" />
    <glyph glyph-name="Odieresis" unicode="&#xd6;" horiz-adv-x="1556" 
d="M1412 344q-92 -167 -256 -261q-166 -95 -378 -95t-378 95q-164 94 -256 261q-91 166 -91 373t91 373q92 167 256 261q166 95 378 95t378 -95q164 -94 256 -261q91 -166 91 -373t-91 -373zM531 417q93 -118 247 -118t247 118q93 119 93 300t-93 300q-93 118 -247 118
t-247 -118q-93 -119 -93 -300t93 -300zM419 1838q53 50 128 50q79 0 129 -49q51 -49 51 -125q0 -74 -51 -123q-50 -49 -129 -49q-76 0 -128 49t-52 123q0 75 52 124zM883 1839q50 49 127 49q79 0 129 -49q51 -49 51 -125q0 -74 -51 -123q-50 -49 -129 -49q-77 0 -127 49
q-52 50 -52 123q0 75 52 125z" />
    <glyph glyph-name="multiply" unicode="&#xd7;" 
d="M264 1057l266 -266l258 258l209 -209l-258 -258l267 -267l-226 -227l-266 268l-258 -258l-209 209l258 258l-266 264z" />
    <glyph glyph-name="Oslash" unicode="&#xd8;" horiz-adv-x="1556" 
d="M1378 1145q125 -187 125 -428q0 -207 -91 -373q-92 -167 -256 -261q-166 -95 -378 -95q-243 0 -424 125l-123 -125l-178 178l125 125q-125 187 -125 426q0 207 91 373q92 167 256 261q166 95 378 95q242 0 426 -125l125 125l174 -174zM457 569l506 508q-81 58 -185 58
q-154 0 -247 -118q-93 -119 -93 -300q0 -77 19 -148zM1100 864l-504 -510q82 -55 182 -55q154 0 247 118q93 119 93 300q0 79 -18 147z" />
    <glyph glyph-name="Ugrave" unicode="&#xd9;" horiz-adv-x="1429" 
d="M479 1434v-832q0 -146 56 -222q55 -75 180 -75t180 75q55 74 55 222v832h377v-811q0 -306 -157 -471q-156 -164 -455 -164q-300 0 -456 164q-157 165 -157 471v811h377zM307 1835h402l129 -303h-263z" />
    <glyph glyph-name="Uacute" unicode="&#xda;" horiz-adv-x="1429" 
d="M479 1434v-832q0 -146 56 -222q55 -75 180 -75t180 75q55 74 55 222v832h377v-811q0 -306 -157 -471q-156 -164 -455 -164q-300 0 -456 164q-157 165 -157 471v811h377zM592 1538l139 297h402l-285 -297h-256z" />
    <glyph glyph-name="Ucircumflex" unicode="&#xdb;" horiz-adv-x="1429" 
d="M479 1434v-832q0 -146 56 -222q55 -75 180 -75t180 75q55 74 55 222v832h377v-811q0 -306 -157 -471q-156 -164 -455 -164q-300 0 -456 164q-157 165 -157 471v811h377zM715 1632l-99 -94h-321l264 297h311l265 -297h-322z" />
    <glyph glyph-name="Udieresis" unicode="&#xdc;" horiz-adv-x="1429" 
d="M479 1434v-832q0 -146 56 -222q55 -75 180 -75t180 75q55 74 55 222v832h377v-811q0 -306 -157 -471q-156 -164 -455 -164q-300 0 -456 164q-157 165 -157 471v811h377zM355 1838q53 50 128 50q79 0 129 -49q52 -50 52 -125q0 -73 -52 -123q-50 -49 -129 -49
q-76 0 -128 49t-52 123q0 75 52 124zM819 1839q50 49 127 49q79 0 129 -49q51 -49 51 -125q0 -74 -51 -123q-50 -49 -129 -49q-77 0 -127 49q-51 49 -51 123q0 76 51 125z" />
    <glyph glyph-name="Yacute" unicode="&#xdd;" horiz-adv-x="1392" 
d="M-10 1434h440l266 -523l289 523h418l-518 -902v-532h-377v532zM586 1538l139 297h401l-284 -297h-256z" />
    <glyph glyph-name="Thorn" unicode="&#xde;" horiz-adv-x="1306" 
d="M489 1434v-207h197q175 0 305 -62t199 -173q70 -113 70 -261q0 -149 -71 -261q-71 -111 -200 -173q-128 -61 -301 -61h-199v-236h-376v1434h376zM489 543h187q90 0 145 51q56 51 56 137t-56 137q-57 52 -145 52h-187v-377z" />
    <glyph glyph-name="germandbls" unicode="&#xdf;" horiz-adv-x="1314" 
d="M559 20v250q77 -26 158 -26q85 0 142 45q56 44 56 127q0 82 -61 128t-166 46q-27 0 -67 -4v250q106 0 153 50t47 122q0 76 -45 119q-46 44 -129 44q-82 0 -130 -48t-48 -126v-997h-356v979q0 238 151 352q153 115 387 115q159 0 277 -48q117 -47 184 -137q66 -89 66 -208
q0 -100 -48 -182q-46 -78 -126 -119q128 -46 198 -128t70 -212q0 -134 -66 -229t-177 -144t-249 -51q-123 1 -221 32z" />
    <glyph glyph-name="agrave" unicode="&#xe0;" horiz-adv-x="1171" 
d="M1161 291v-291h-178q-105 0 -152 44t-47 120v8q-61 -93 -141 -138q-82 -46 -197 -46q-177 0 -287 81t-110 230q0 174 133 268q134 95 385 95h156v40q0 55 -44 90q-42 33 -116 33q-65 0 -107 -27q-41 -27 -46 -75h-340q15 167 149 256q135 90 361 90q236 0 364 -98
q129 -99 129 -289v-328q0 -36 16 -50q14 -13 50 -13h22zM723 442h-150q-78 0 -122 -31q-45 -32 -45 -85q0 -44 31 -69q32 -26 85 -26q91 0 145 57q55 58 56 150v4zM172 1458h401l129 -303h-262z" />
    <glyph glyph-name="aacute" unicode="&#xe1;" horiz-adv-x="1171" 
d="M1161 291v-291h-178q-105 0 -152 44t-47 120v8q-61 -93 -141 -138q-82 -46 -197 -46q-177 0 -287 81t-110 230q0 174 133 268q134 95 385 95h156v40q0 55 -44 90q-42 33 -116 33q-65 0 -107 -27q-41 -27 -46 -75h-340q15 167 149 256q135 90 361 90q236 0 364 -98
q129 -99 129 -289v-328q0 -36 16 -50q14 -13 50 -13h22zM723 442h-150q-78 0 -122 -31q-45 -32 -45 -85q0 -44 31 -69q32 -26 85 -26q91 0 145 57q55 58 56 150v4zM457 1161l139 297h401l-284 -297h-256z" />
    <glyph glyph-name="acircumflex" unicode="&#xe2;" horiz-adv-x="1171" 
d="M1161 291v-291h-178q-105 0 -152 44t-47 120v8q-61 -93 -141 -138q-82 -46 -197 -46q-177 0 -287 81t-110 230q0 174 133 268q134 95 385 95h156v40q0 55 -44 90q-42 33 -116 33q-65 0 -107 -27q-41 -27 -46 -75h-340q15 167 149 256q135 90 361 90q236 0 364 -98
q129 -99 129 -289v-328q0 -36 16 -50q14 -13 50 -13h22zM723 442h-150q-78 0 -122 -31q-45 -32 -45 -85q0 -44 31 -69q32 -26 85 -26q91 0 145 57q55 58 56 150v4zM580 1255l-99 -94h-321l264 297h311l264 -297h-321z" />
    <glyph glyph-name="atilde" unicode="&#xe3;" horiz-adv-x="1171" 
d="M1161 291v-291h-178q-105 0 -152 44t-47 120v8q-61 -93 -141 -138q-82 -46 -197 -46q-177 0 -287 81t-110 230q0 174 133 268q134 95 385 95h156v40q0 55 -44 90q-42 33 -116 33q-65 0 -107 -27q-41 -27 -46 -75h-340q15 167 149 256q135 90 361 90q236 0 364 -98
q129 -99 129 -289v-328q0 -36 16 -50q14 -13 50 -13h22zM723 442h-150q-78 0 -122 -31q-45 -32 -45 -85q0 -44 31 -69q32 -26 85 -26q91 0 145 57q55 58 56 150v4zM463 1229q-19 -22 -19 -49h-202v51q0 104 59 169q60 66 148 66q39 0 66 -12t54 -33q28 -17 43 -24
q18 -8 39 -8q27 0 46 20q20 22 20 49h201v-51q0 -100 -59 -168t-146 -68q-41 0 -70 13q-23 10 -61 35q-44 30 -72 30q-30 0 -47 -20z" />
    <glyph glyph-name="adieresis" unicode="&#xe4;" horiz-adv-x="1171" 
d="M1161 291v-291h-178q-105 0 -152 44t-47 120v8q-61 -93 -141 -138q-82 -46 -197 -46q-177 0 -287 81t-110 230q0 174 133 268q134 95 385 95h156v40q0 55 -44 90q-42 33 -116 33q-65 0 -107 -27q-41 -27 -46 -75h-340q15 167 149 256q135 90 361 90q236 0 364 -98
q129 -99 129 -289v-328q0 -36 16 -50q14 -13 50 -13h22zM723 442h-150q-78 0 -122 -31q-45 -32 -45 -85q0 -44 31 -69q32 -26 85 -26q91 0 145 57q55 58 56 150v4zM220 1461q53 50 128 50q79 0 129 -49q51 -50 51 -125q0 -73 -51 -123q-50 -49 -129 -49q-76 0 -128 49
t-52 123q0 75 52 124zM684 1462q50 49 127 49q79 0 129 -49q51 -50 51 -125q0 -73 -51 -123q-50 -49 -129 -49q-77 0 -127 49q-51 50 -51 123q0 75 51 125z" />
    <glyph glyph-name="aring" unicode="&#xe5;" horiz-adv-x="1171" 
d="M1161 291v-291h-178q-105 0 -152 44t-47 120v8q-61 -93 -141 -138q-82 -46 -197 -46q-177 0 -287 81t-110 230q0 174 133 268q134 95 385 95h156v40q0 55 -44 90q-42 33 -116 33q-65 0 -107 -27q-41 -27 -46 -75h-340q15 167 149 256q135 90 361 90q236 0 364 -98
q129 -99 129 -289v-328q0 -36 16 -50q14 -13 50 -13h22zM723 442h-150q-78 0 -122 -31q-45 -32 -45 -85q0 -44 31 -69q32 -26 85 -26q91 0 145 57q55 58 56 150v4zM335 1516q37 59 102 94t143 35q77 0 142 -35t102 -94q38 -61 38 -130q0 -70 -38 -131q-37 -59 -102 -94
t-142 -35q-78 0 -143 35t-102 94q-38 61 -38 131q0 69 38 130zM660 1466q-34 33 -80 33t-81 -33q-34 -33 -34 -80q0 -48 34 -81q35 -33 81 -33t80 33t34 81q0 47 -34 80z" />
    <glyph glyph-name="ae" unicode="&#xe6;" horiz-adv-x="1871" 
d="M1075 444v-4q27 -196 205 -196q152 0 182 116h348q-15 -104 -78 -187q-64 -85 -174 -135q-111 -50 -253 -50q-145 0 -253 46q-109 46 -175 132q-81 -93 -179 -136q-96 -42 -237 -42q-176 0 -294 82t-118 229q0 164 133 252t385 88h156v63q0 55 -44 90q-42 33 -116 33
q-65 0 -107 -27q-41 -27 -46 -75h-340q15 167 149 256q135 90 361 90q110 0 211 -33q100 -33 159 -92q131 125 322 125q162 0 287 -63q124 -63 194 -180t70 -267q0 -63 -11 -115h-737zM1142 777q-52 -42 -63 -115h394q-15 75 -67 115t-132 40q-83 0 -132 -40zM723 430h-131
q-85 0 -136 -28q-50 -27 -50 -76q0 -44 31 -69q32 -26 85 -26q89 0 146 52q55 51 55 137v10z" />
    <glyph glyph-name="ccedilla" unicode="&#xe7;" horiz-adv-x="1189" 
d="M1007 128q-116 -112 -305 -134l-10 -43h43q87 0 137 -43q52 -44 52 -117q0 -92 -66 -146q-67 -55 -176 -55h-279v164h205q47 0 47 41q0 37 -47 37h-129l39 162q-217 24 -343 168t-126 366q0 164 69 287q69 124 194 189q124 65 298 65q225 0 367 -113q141 -113 170 -311
h-369q-17 68 -59 104q-43 37 -109 37q-92 0 -146 -70t-54 -188q0 -116 54 -187t146 -71q71 0 114 40q44 41 56 110h369q-27 -182 -142 -292z" />
    <glyph glyph-name="egrave" unicode="&#xe8;" horiz-adv-x="1214" 
d="M118 813q70 126 192 190q124 66 288 66q168 0 296 -63q127 -63 200 -180q71 -114 71 -267q0 -68 -10 -115h-737v-4q27 -196 205 -196q152 0 182 116h348q-15 -102 -79 -187t-174 -135q-111 -50 -253 -50q-188 0 -321 65q-136 67 -206 187q-71 122 -71 284q0 166 69 289z
M815 662q-15 76 -66 115q-52 40 -133 40q-83 0 -132 -40q-50 -41 -62 -115h393zM193 1458h401l129 -303h-262z" />
    <glyph glyph-name="eacute" unicode="&#xe9;" horiz-adv-x="1214" 
d="M118 813q70 126 192 190q124 66 288 66q168 0 296 -63q127 -63 200 -180q71 -114 71 -267q0 -68 -10 -115h-737v-4q27 -196 205 -196q152 0 182 116h348q-15 -102 -79 -187t-174 -135q-111 -50 -253 -50q-188 0 -321 65q-136 67 -206 187q-71 122 -71 284q0 166 69 289z
M815 662q-15 76 -66 115q-52 40 -133 40q-83 0 -132 -40q-50 -41 -62 -115h393zM477 1161l139 297h402l-285 -297h-256z" />
    <glyph glyph-name="ecircumflex" unicode="&#xea;" horiz-adv-x="1214" 
d="M118 813q70 126 192 190q124 66 288 66q168 0 296 -63q127 -63 200 -180q71 -114 71 -267q0 -68 -10 -115h-737v-4q27 -196 205 -196q152 0 182 116h348q-15 -102 -79 -187t-174 -135q-111 -50 -253 -50q-188 0 -321 65q-136 67 -206 187q-71 122 -71 284q0 166 69 289z
M815 662q-15 76 -66 115q-52 40 -133 40q-83 0 -132 -40q-50 -41 -62 -115h393zM600 1255l-98 -94h-322l264 297h312l264 -297h-322z" />
    <glyph glyph-name="edieresis" unicode="&#xeb;" horiz-adv-x="1214" 
d="M118 813q70 126 192 190q124 66 288 66q168 0 296 -63q127 -63 200 -180q71 -114 71 -267q0 -68 -10 -115h-737v-4q27 -196 205 -196q152 0 182 116h348q-15 -102 -79 -187t-174 -135q-111 -50 -253 -50q-188 0 -321 65q-136 67 -206 187q-71 122 -71 284q0 166 69 289z
M815 662q-15 76 -66 115q-52 40 -133 40q-83 0 -132 -40q-50 -41 -62 -115h393zM241 1461q53 50 128 50q79 0 129 -49q51 -50 51 -125q0 -73 -51 -123q-50 -49 -129 -49q-76 0 -128 49q-53 50 -53 123q0 74 53 124zM705 1462q50 49 126 49q80 0 130 -49q51 -50 51 -125
q0 -73 -51 -123q-50 -49 -130 -49q-76 0 -126 49q-52 50 -52 123q0 75 52 125z" />
    <glyph glyph-name="igrave" unicode="&#xec;" horiz-adv-x="540" 
d="M92 1057h357v-1057h-357v1057zM-137 1458h401l129 -303h-262z" />
    <glyph glyph-name="iacute" unicode="&#xed;" horiz-adv-x="540" 
d="M92 1057h357v-1057h-357v1057zM147 1161l140 297h401l-285 -297h-256z" />
    <glyph glyph-name="icircumflex" unicode="&#xee;" horiz-adv-x="540" 
d="M92 1057h357v-1057h-357v1057zM270 1255l-98 -94h-322l265 297h311l264 -297h-321z" />
    <glyph glyph-name="idieresis" unicode="&#xef;" horiz-adv-x="540" 
d="M92 1057h357v-1057h-357v1057zM-89 1461q53 50 128 50q79 0 129 -49q51 -50 51 -125q0 -73 -51 -123q-50 -49 -129 -49q-76 0 -128 49t-52 123q0 75 52 124zM375 1462q50 49 127 49q79 0 129 -49q51 -50 51 -125q0 -73 -51 -123q-50 -49 -129 -49q-77 0 -127 49
q-51 50 -51 123q0 75 51 125z" />
    <glyph glyph-name="eth" unicode="&#xf0;" horiz-adv-x="1257" 
d="M1102 931q86 -160 86 -360q0 -161 -63 -293q-63 -133 -192 -211q-130 -79 -323 -79q-170 0 -297 63q-125 62 -195 174q-69 111 -69 250q0 149 68 249q67 99 175 145q107 46 230 46q79 0 142 -18q61 -17 145 -74q-63 130 -205 236l-225 -129l-107 176l134 76
q-60 34 -193 92l203 172q131 -44 256 -111l227 131l105 -178l-138 -78q152 -123 236 -279zM765 323q58 58 58 150q0 93 -58 151t-155 58q-90 0 -145 -58t-55 -151q0 -92 55 -150q56 -59 145 -59q96 0 155 59z" />
    <glyph glyph-name="ntilde" unicode="&#xf1;" horiz-adv-x="1239" 
d="M1048 955q119 -113 119 -390v-565h-354v547q0 119 -41 180q-40 59 -133 59t-142 -61q-51 -63 -51 -178v-547h-354v1057h311l27 -127q55 67 131 103q77 36 184 36q183 0 303 -114zM567 1229q-18 -21 -18 -49h-203v51q0 103 60 169t147 66q40 0 67 -12t54 -33
q28 -17 43 -24q18 -8 39 -8q27 0 46 20t19 49h201v-51q0 -101 -58 -168q-59 -68 -147 -68q-40 0 -69 13q-26 12 -62 35q-44 30 -72 30q-30 0 -47 -20z" />
    <glyph glyph-name="ograve" unicode="&#xf2;" horiz-adv-x="1249" 
d="M321 54q-130 66 -201 190t-71 284q0 161 71 285q70 123 201 189q132 67 304 67t304 -67q129 -65 200 -189t71 -285q0 -160 -71 -284q-72 -125 -200 -190q-131 -66 -304 -66t-304 66zM782 341q58 72 58 187q0 116 -58 188q-57 70 -157 70q-101 0 -158 -70t-57 -188
q0 -116 57 -187t158 -71q100 0 157 71zM217 1458h401l130 -303h-263z" />
    <glyph glyph-name="oacute" unicode="&#xf3;" horiz-adv-x="1249" 
d="M321 54q-130 66 -201 190t-71 284q0 161 71 285q70 123 201 189q132 67 304 67t304 -67q129 -65 200 -189t71 -285q0 -160 -71 -284q-72 -125 -200 -190q-131 -66 -304 -66t-304 66zM782 341q58 72 58 187q0 116 -58 188q-57 70 -157 70q-101 0 -158 -70t-57 -188
q0 -116 57 -187t158 -71q100 0 157 71zM502 1161l139 297h401l-284 -297h-256z" />
    <glyph glyph-name="ocircumflex" unicode="&#xf4;" horiz-adv-x="1249" 
d="M321 54q-130 66 -201 190t-71 284q0 161 71 285q70 123 201 189q132 67 304 67t304 -67q129 -65 200 -189t71 -285q0 -160 -71 -284q-72 -125 -200 -190q-131 -66 -304 -66t-304 66zM782 341q58 72 58 187q0 116 -58 188q-57 70 -157 70q-101 0 -158 -70t-57 -188
q0 -116 57 -187t158 -71q100 0 157 71zM625 1255l-99 -94h-321l264 297h311l264 -297h-321z" />
    <glyph glyph-name="otilde" unicode="&#xf5;" horiz-adv-x="1249" 
d="M321 54q-130 66 -201 190t-71 284q0 161 71 285q70 123 201 189q132 67 304 67t304 -67q129 -65 200 -189t71 -285q0 -160 -71 -284q-72 -125 -200 -190q-131 -66 -304 -66t-304 66zM782 341q58 72 58 187q0 116 -58 188q-57 70 -157 70q-101 0 -158 -70t-57 -188
q0 -116 57 -187t158 -71q100 0 157 71zM508 1229q-19 -22 -19 -49h-202v51q0 104 59 169q60 66 148 66q39 0 66 -12t54 -33q28 -17 43 -24q18 -8 39 -8q27 0 46 20q20 22 20 49h201v-51q0 -100 -59 -168t-146 -68q-41 0 -70 13q-23 10 -61 35q-43 30 -72 30q-30 0 -47 -20z
" />
    <glyph glyph-name="odieresis" unicode="&#xf6;" horiz-adv-x="1249" 
d="M321 54q-130 66 -201 190t-71 284q0 161 71 285q70 123 201 189q132 67 304 67t304 -67q129 -65 200 -189t71 -285q0 -160 -71 -284q-72 -125 -200 -190q-131 -66 -304 -66t-304 66zM782 341q58 72 58 187q0 116 -58 188q-57 70 -157 70q-101 0 -158 -70t-57 -188
q0 -116 57 -187t158 -71q100 0 157 71zM265 1461q53 50 128 50q79 0 129 -49q51 -50 51 -125q0 -73 -51 -123q-50 -49 -129 -49q-76 0 -128 49t-52 123q0 75 52 124zM729 1462q50 49 127 49q79 0 129 -49q51 -50 51 -125q0 -73 -51 -123q-50 -49 -129 -49q-77 0 -127 49
q-51 50 -51 123q0 75 51 125z" />
    <glyph glyph-name="divide" unicode="&#xf7;" 
d="M383 1111q55 54 139 54t140 -54q55 -54 55 -136t-55 -136q-57 -55 -140 -55q-82 0 -139 55q-55 54 -55 136t55 136zM68 432v297h909v-297h-909zM383 337q55 54 139 54t140 -54q55 -54 55 -136t-55 -136q-57 -55 -140 -55q-82 0 -139 55q-55 54 -55 136t55 136z" />
    <glyph glyph-name="oslash" unicode="&#xf8;" horiz-adv-x="1247" 
d="M1116 834q82 -128 82 -308q0 -161 -71 -283q-72 -124 -200 -189q-131 -66 -306 -66q-186 0 -328 80l-84 -80l-160 157l82 76q-82 128 -82 305q0 162 70 287q69 123 198 189q131 67 304 67q194 0 333 -82l86 82l158 -158zM397 469l328 307q-51 23 -104 23q-108 0 -168 -75
t-60 -198q0 -24 4 -57zM850 586l-330 -307q47 -21 101 -21q108 0 171 74q62 72 62 194q0 27 -4 60z" />
    <glyph glyph-name="ugrave" unicode="&#xf9;" horiz-adv-x="1226" 
d="M1135 1057v-1057h-316l-26 121q-54 -63 -128 -99q-69 -34 -173 -34q-185 0 -302 113q-118 114 -118 391v565h354v-516q0 -135 39 -201t129 -66q88 0 137 69q49 68 49 198v516h355zM197 1458h401l129 -303h-262z" />
    <glyph glyph-name="uacute" unicode="&#xfa;" horiz-adv-x="1226" 
d="M1135 1057v-1057h-316l-26 121q-54 -63 -128 -99q-69 -34 -173 -34q-185 0 -302 113q-118 114 -118 391v565h354v-516q0 -135 39 -201t129 -66q88 0 137 69q49 68 49 198v516h355zM481 1161l140 297h401l-285 -297h-256z" />
    <glyph glyph-name="ucircumflex" unicode="&#xfb;" horiz-adv-x="1226" 
d="M1135 1057v-1057h-316l-26 121q-54 -63 -128 -99q-69 -34 -173 -34q-185 0 -302 113q-118 114 -118 391v565h354v-516q0 -135 39 -201t129 -66q88 0 137 69q49 68 49 198v516h355zM604 1255l-98 -94h-322l265 297h311l264 -297h-322z" />
    <glyph glyph-name="udieresis" unicode="&#xfc;" horiz-adv-x="1226" 
d="M1135 1057v-1057h-316l-26 121q-54 -63 -128 -99q-69 -34 -173 -34q-185 0 -302 113q-118 114 -118 391v565h354v-516q0 -135 39 -201t129 -66q88 0 137 69q49 68 49 198v516h355zM245 1461q53 50 128 50q79 0 129 -49q51 -50 51 -125q0 -73 -51 -123q-50 -49 -129 -49
q-76 0 -128 49t-52 123q0 75 52 124zM709 1462q50 49 127 49q79 0 129 -49q51 -50 51 -125q0 -73 -51 -123q-50 -49 -129 -49q-77 0 -127 49q-52 50 -52 123q0 75 52 125z" />
    <glyph glyph-name="yacute" unicode="&#xfd;" horiz-adv-x="1175" 
d="M367 1057l221 -703l219 703h379l-459 -1192q-38 -101 -73 -156q-37 -59 -90 -88q-56 -31 -138 -31h-324v293h166q50 0 74 15q25 15 39 57l14 39l-405 1063h377zM461 1161l139 297h401l-284 -297h-256z" />
    <glyph glyph-name="thorn" unicode="&#xfe;" horiz-adv-x="1271" 
d="M430 1434v-514q113 149 313 149q139 0 248 -68t170 -191q62 -126 62 -284q0 -160 -62 -284q-61 -123 -171 -189q-108 -65 -247 -65q-185 0 -297 133v-531h-354v1844h338zM806 718q-57 70 -155 70t-153 -70q-56 -71 -56 -188q0 -116 56 -189t153 -73q96 0 154 73
q57 72 57 189q0 119 -56 188z" />
    <glyph glyph-name="ydieresis" unicode="&#xff;" horiz-adv-x="1175" 
d="M367 1057l221 -703l219 703h379l-459 -1192q-38 -101 -73 -156q-37 -59 -90 -88q-56 -31 -138 -31h-324v293h166q50 0 74 15q25 15 39 57l14 39l-405 1063h377zM224 1461q53 50 128 50q79 0 129 -49q51 -50 51 -125q0 -73 -51 -123q-50 -49 -129 -49q-76 0 -128 49
t-52 123q0 75 52 124zM688 1462q50 49 127 49q79 0 129 -49q51 -50 51 -125q0 -73 -51 -123q-50 -49 -129 -49q-77 0 -127 49q-51 50 -51 123q0 75 51 125z" />
    <glyph glyph-name="Amacron" unicode="&#x100;" horiz-adv-x="1474" 
d="M0 0l512 1434h455l508 -1434h-406l-90 272h-500l-88 -272h-391zM575 569h306l-154 465zM403 1589v246h676v-246h-676z" />
    <glyph glyph-name="amacron" unicode="&#x101;" horiz-adv-x="1171" 
d="M1161 291v-291h-178q-105 0 -152 44t-47 120v8q-61 -93 -141 -138q-82 -46 -197 -46q-177 0 -287 81t-110 230q0 174 133 268q134 95 385 95h156v40q0 55 -44 90q-42 33 -116 33q-65 0 -107 -27q-41 -27 -46 -75h-340q15 167 149 256q135 90 361 90q236 0 364 -98
q129 -99 129 -289v-328q0 -36 16 -50q14 -13 50 -13h22zM723 442h-150q-78 0 -122 -31q-45 -32 -45 -85q0 -44 31 -69q32 -26 85 -26q91 0 145 57q55 58 56 150v4zM242 1212v246h676v-246h-676z" />
    <glyph glyph-name="Abreve" unicode="&#x102;" horiz-adv-x="1474" 
d="M0 0l512 1434h455l508 -1434h-406l-90 272h-500l-88 -272h-391zM575 569h306l-154 465zM647 1835q0 -43 26 -69q25 -25 68 -25q42 0 67 25q26 26 26 69h245q-7 -139 -102 -225t-242 -86q-144 0 -235 86t-97 225h244z" />
    <glyph glyph-name="abreve" unicode="&#x103;" horiz-adv-x="1171" 
d="M1161 291v-291h-178q-105 0 -152 44t-47 120v8q-61 -93 -141 -138q-82 -46 -197 -46q-177 0 -287 81t-110 230q0 174 133 268q134 95 385 95h156v40q0 55 -44 90q-42 33 -116 33q-65 0 -107 -27q-41 -27 -46 -75h-340q15 167 149 256q135 90 361 90q236 0 364 -98
q129 -99 129 -289v-328q0 -36 16 -50q14 -13 50 -13h22zM723 442h-150q-78 0 -122 -31q-45 -32 -45 -85q0 -44 31 -69q32 -26 85 -26q91 0 145 57q55 58 56 150v4zM485 1458q0 -42 26 -68t69 -26q40 0 66 26t26 68h246q-7 -139 -103 -225q-95 -86 -242 -86q-144 0 -235 86
q-90 85 -96 225h243z" />
    <glyph glyph-name="Aogonek" unicode="&#x104;" horiz-adv-x="1474" 
d="M1343 -178h132v-232h-197q-113 0 -189 58q-75 57 -75 155q0 111 96 197h-41l-90 272h-500l-88 -272h-391l512 1434h455l508 -1434q-98 -39 -140 -71q-45 -35 -45 -68q0 -39 53 -39zM575 569h306l-154 465z" />
    <glyph glyph-name="aogonek" unicode="&#x105;" horiz-adv-x="1171" 
d="M1022 -71q-45 -35 -45 -68q0 -39 53 -39h131v-232h-196q-114 0 -190 58q-75 57 -75 155q0 74 37 130q38 58 105 104q-58 41 -58 127v8q-61 -93 -141 -138q-82 -46 -197 -46q-177 0 -287 81t-110 230q0 174 133 268q134 95 385 95h156v40q0 55 -44 90q-42 33 -116 33
q-65 0 -107 -27q-41 -27 -46 -75h-340q15 167 149 256q135 90 361 90q236 0 364 -98q129 -99 129 -289v-328q0 -36 16 -50q14 -13 50 -13h22v-291q-96 -38 -139 -71zM723 442h-150q-78 0 -122 -31q-45 -32 -45 -85q0 -44 31 -69q32 -26 85 -26q91 0 145 57q55 58 56 150v4z
" />
    <glyph glyph-name="Cacute" unicode="&#x106;" horiz-adv-x="1427" 
d="M139 1102q85 163 247 254q161 90 380 90q173 0 311 -70q137 -69 219 -193q83 -125 95 -284h-377q-21 107 -91 171q-71 65 -178 65q-144 0 -226 -115q-81 -114 -81 -303t81 -303q82 -115 226 -115q107 0 178 65q70 64 91 171h377q-12 -159 -95 -284t-219 -194
q-137 -69 -311 -69q-220 0 -380 90q-162 91 -247 254q-86 164 -86 385t86 385zM643 1538l139 297h402l-285 -297h-256z" />
    <glyph glyph-name="cacute" unicode="&#x107;" horiz-adv-x="1189" 
d="M979 102q-141 -114 -369 -114q-172 0 -298 66q-123 65 -194 189q-69 121 -69 285t69 287q69 124 194 189q124 65 298 65q225 0 367 -113q141 -113 170 -311h-369q-17 68 -59 104q-43 37 -109 37q-92 0 -146 -70t-54 -188q0 -116 54 -187t146 -71q71 0 114 40
q44 41 56 110h369q-29 -204 -170 -318zM496 1161l139 297h401l-284 -297h-256z" />
    <glyph glyph-name="Ccircumflex" unicode="&#x108;" horiz-adv-x="1427" 
d="M139 1102q85 163 247 254q161 90 380 90q173 0 311 -70q137 -69 219 -193q83 -125 95 -284h-377q-21 107 -91 171q-71 65 -178 65q-144 0 -226 -115q-81 -114 -81 -303t81 -303q82 -115 226 -115q107 0 178 65q70 64 91 171h377q-12 -159 -95 -284t-219 -194
q-137 -69 -311 -69q-220 0 -380 90q-162 91 -247 254q-86 164 -86 385t86 385zM766 1632l-98 -94h-322l264 297h312l264 -297h-322z" />
    <glyph glyph-name="ccircumflex" unicode="&#x109;" horiz-adv-x="1189" 
d="M979 102q-141 -114 -369 -114q-172 0 -298 66q-123 65 -194 189q-69 121 -69 285t69 287q69 124 194 189q124 65 298 65q225 0 367 -113q141 -113 170 -311h-369q-17 68 -59 104q-43 37 -109 37q-92 0 -146 -70t-54 -188q0 -116 54 -187t146 -71q71 0 114 40
q44 41 56 110h369q-29 -204 -170 -318zM618 1255l-98 -94h-321l264 297h311l264 -297h-321z" />
    <glyph glyph-name="Cdotaccent" unicode="&#x10a;" horiz-adv-x="1427" 
d="M139 1102q85 163 247 254q161 90 380 90q173 0 311 -70q137 -69 219 -193q83 -125 95 -284h-377q-21 107 -91 171q-71 65 -178 65q-144 0 -226 -115q-81 -114 -81 -303t81 -303q82 -115 226 -115q107 0 178 65q70 64 91 171h377q-12 -159 -95 -284t-219 -194
q-137 -69 -311 -69q-220 0 -380 90q-162 91 -247 254q-86 164 -86 385t86 385zM625 1866q56 55 141 55t141 -55q58 -56 58 -137q0 -82 -58 -138q-56 -55 -141 -55t-141 55q-58 56 -58 138q0 81 58 137z" />
    <glyph glyph-name="cdotaccent" unicode="&#x10b;" horiz-adv-x="1189" 
d="M979 102q-141 -114 -369 -114q-172 0 -298 66q-123 65 -194 189q-69 121 -69 285t69 287q69 124 194 189q124 65 298 65q225 0 367 -113q141 -113 170 -311h-369q-17 68 -59 104q-43 37 -109 37q-92 0 -146 -70t-54 -188q0 -116 54 -187t146 -71q71 0 114 40
q44 41 56 110h369q-29 -204 -170 -318zM477 1489q56 55 141 55q86 0 142 -55q57 -55 57 -137t-57 -138q-56 -55 -142 -55q-85 0 -141 55q-57 56 -57 138t57 137z" />
    <glyph glyph-name="Ccaron" unicode="&#x10c;" horiz-adv-x="1427" 
d="M139 1102q85 163 247 254q161 90 380 90q173 0 311 -70q137 -69 219 -193q83 -125 95 -284h-377q-21 107 -91 171q-71 65 -178 65q-144 0 -226 -115q-81 -114 -81 -303t81 -303q82 -115 226 -115q107 0 178 65q70 64 91 171h377q-12 -159 -95 -284t-219 -194
q-137 -69 -311 -69q-220 0 -380 90q-162 91 -247 254q-86 164 -86 385t86 385zM766 1741l98 94h322l-264 -297h-312l-264 297h322z" />
    <glyph glyph-name="ccaron" unicode="&#x10d;" horiz-adv-x="1189" 
d="M979 102q-141 -114 -369 -114q-172 0 -298 66q-123 65 -194 189q-69 121 -69 285t69 287q69 124 194 189q124 65 298 65q225 0 367 -113q141 -113 170 -311h-369q-17 68 -59 104q-43 37 -109 37q-92 0 -146 -70t-54 -188q0 -116 54 -187t146 -71q71 0 114 40
q44 41 56 110h369q-29 -204 -170 -318zM618 1364l99 94h321l-264 -297h-311l-264 297h321z" />
    <glyph glyph-name="Dcaron" unicode="&#x10e;" horiz-adv-x="1429" 
d="M113 1434h538q210 0 378 -93q164 -91 256 -255q91 -163 91 -369q0 -207 -91 -370q-92 -164 -256 -255q-166 -92 -378 -92h-538v1434zM651 307q162 0 251 113t89 297t-89 297q-88 112 -251 112h-162v-819h162zM700 1741l99 94h321l-264 -297h-311l-264 297h321z" />
    <glyph glyph-name="dcaron" unicode="&#x10f;" horiz-adv-x="1415" 
d="M1180 1434v-1434h-312l-30 137q-113 -149 -310 -149q-140 0 -247 67q-109 68 -170 192q-62 126 -62 283q0 161 62 285q61 123 171 189q108 65 246 65q184 0 297 -129v494h355zM774 340q55 71 55 188q0 118 -55 189t-153 71t-154 -71q-57 -72 -57 -189q0 -116 57 -188
t154 -72t153 72zM1307 1434h329l-149 -306h-248z" />
    <glyph glyph-name="Dcroat" unicode="&#x110;" horiz-adv-x="1462" 
d="M1062 1341q164 -91 256 -255q91 -163 91 -369q0 -207 -91 -370q-92 -164 -256 -255q-166 -92 -378 -92h-539v602h-153v246h153v586h539q210 0 378 -93zM935 420q89 113 89 297t-89 297q-88 112 -251 112h-162v-278h199v-246h-199v-295h162q162 0 251 113z" />
    <glyph glyph-name="dcroat" unicode="&#x111;" horiz-adv-x="1292" 
d="M1321 1104h-141v-1104h-312l-30 137q-113 -149 -310 -149q-140 0 -247 67q-109 68 -170 192q-62 126 -62 283q0 161 62 285q61 123 171 189q108 65 246 65q184 0 297 -129v164h-270v246h270v84h355v-84h141v-246zM774 340q55 71 55 188q0 118 -55 189t-153 71t-154 -71
q-57 -72 -57 -189q0 -116 57 -188t154 -72t153 72z" />
    <glyph glyph-name="Emacron" unicode="&#x112;" horiz-adv-x="1185" 
d="M113 1434h989v-320h-613v-246h490v-299h-490v-250h635v-319h-1011v1434zM291 1589v246h676v-246h-676z" />
    <glyph glyph-name="emacron" unicode="&#x113;" horiz-adv-x="1214" 
d="M118 813q70 126 192 190q124 66 288 66q168 0 296 -63q127 -63 200 -180q71 -114 71 -267q0 -68 -10 -115h-737v-4q27 -196 205 -196q152 0 182 116h348q-15 -102 -79 -187t-174 -135q-111 -50 -253 -50q-188 0 -321 65q-136 67 -206 187q-71 122 -71 284q0 166 69 289z
M815 662q-15 76 -66 115q-52 40 -133 40q-83 0 -132 -40q-50 -41 -62 -115h393zM262 1212v246h676v-246h-676z" />
    <glyph glyph-name="Ebreve" unicode="&#x114;" horiz-adv-x="1185" 
d="M113 1434h989v-320h-613v-246h490v-299h-490v-250h635v-319h-1011v1434zM535 1835q0 -44 25 -69t69 -25q41 0 66 25q26 26 26 69h246q-7 -139 -103 -225q-95 -86 -241 -86q-145 0 -236 86q-90 86 -96 225h244z" />
    <glyph glyph-name="ebreve" unicode="&#x115;" horiz-adv-x="1214" 
d="M118 813q70 126 192 190q124 66 288 66q168 0 296 -63q127 -63 200 -180q71 -114 71 -267q0 -68 -10 -115h-737v-4q27 -196 205 -196q152 0 182 116h348q-15 -102 -79 -187t-174 -135q-111 -50 -253 -50q-188 0 -321 65q-136 67 -206 187q-71 122 -71 284q0 166 69 289z
M815 662q-15 76 -66 115q-52 40 -133 40q-83 0 -132 -40q-50 -41 -62 -115h393zM506 1458q0 -43 25 -68q26 -26 69 -26q41 0 67 26q25 25 25 68h246q-8 -140 -102 -225q-95 -86 -242 -86q-145 0 -236 86q-90 85 -96 225h244z" />
    <glyph glyph-name="Edotaccent" unicode="&#x116;" horiz-adv-x="1185" 
d="M113 1434h989v-320h-613v-246h490v-299h-490v-250h635v-319h-1011v1434zM487 1866q56 55 142 55q85 0 141 -55q57 -55 57 -137q0 -83 -57 -138q-56 -55 -141 -55q-86 0 -142 55q-57 55 -57 138q0 81 57 137z" />
    <glyph glyph-name="edotaccent" unicode="&#x117;" horiz-adv-x="1214" 
d="M118 813q70 126 192 190q124 66 288 66q168 0 296 -63q127 -63 200 -180q71 -114 71 -267q0 -68 -10 -115h-737v-4q27 -196 205 -196q152 0 182 116h348q-15 -102 -79 -187t-174 -135q-111 -50 -253 -50q-188 0 -321 65q-136 67 -206 187q-71 122 -71 284q0 166 69 289z
M815 662q-15 76 -66 115q-52 40 -133 40q-83 0 -132 -40q-50 -41 -62 -115h393zM459 1489q56 55 141 55t141 -55q58 -56 58 -137q0 -82 -58 -138q-56 -55 -141 -55t-141 55q-58 56 -58 138q0 81 58 137z" />
    <glyph glyph-name="Eogonek" unicode="&#x118;" horiz-adv-x="1185" 
d="M985 -71q-45 -35 -45 -68q0 -39 53 -39h131v-232h-196q-114 0 -190 58q-74 56 -74 155q0 111 96 197h-647v1434h989v-320h-613v-246h490v-299h-490v-250h635v-319q-96 -38 -139 -71z" />
    <glyph glyph-name="eogonek" unicode="&#x119;" horiz-adv-x="1214" 
d="M418 444v-4q27 -196 205 -196q152 0 182 116h348q-18 -131 -117 -230q-100 -100 -256 -130q-96 -38 -139 -71q-45 -34 -45 -68q0 -39 53 -39h131v-232h-196q-114 0 -190 58q-75 57 -75 155q0 122 113 211q-185 50 -284 183t-99 327q0 166 69 289q70 124 192 189
q126 67 288 67q168 0 296 -63q127 -63 200 -180q71 -114 71 -267q0 -68 -10 -115h-737zM484 777q-50 -41 -62 -115h393q-15 76 -66 115q-52 40 -133 40q-83 0 -132 -40z" />
    <glyph glyph-name="Ecaron" unicode="&#x11a;" horiz-adv-x="1185" 
d="M113 1434h989v-320h-613v-246h490v-299h-490v-250h635v-319h-1011v1434zM629 1741l98 94h322l-265 -297h-311l-264 297h321z" />
    <glyph glyph-name="ecaron" unicode="&#x11b;" horiz-adv-x="1214" 
d="M118 813q70 126 192 190q124 66 288 66q168 0 296 -63q127 -63 200 -180q71 -114 71 -267q0 -68 -10 -115h-737v-4q27 -196 205 -196q152 0 182 116h348q-15 -102 -79 -187t-174 -135q-111 -50 -253 -50q-188 0 -321 65q-136 67 -206 187q-71 122 -71 284q0 166 69 289z
M815 662q-15 76 -66 115q-52 40 -133 40q-83 0 -132 -40q-50 -41 -62 -115h393zM600 1364l98 94h322l-264 -297h-312l-264 297h322z" />
    <glyph glyph-name="Gcircumflex" unicode="&#x11c;" horiz-adv-x="1536" 
d="M140 1102q87 164 251 254q163 90 387 90q176 0 319 -70q141 -69 223 -193t97 -284h-370q-22 106 -95 171t-184 65q-153 0 -242 -116q-88 -115 -88 -302q0 -190 87 -304t247 -114q100 0 187 51q88 52 118 168v2h-317v287h663v-807h-249l-41 152q-62 -77 -163 -121
q-98 -43 -231 -43q-204 0 -360 90q-155 90 -241 255q-85 164 -85 384q0 222 87 385zM778 1632l-98 -94h-322l265 297h311l264 -297h-321z" />
    <glyph glyph-name="gcircumflex" unicode="&#x11d;" horiz-adv-x="1271" 
d="M1180 1057v-1037q0 -196 -143 -319t-445 -123q-237 0 -378 101t-146 288h356q34 -133 194 -133q101 0 158 51q58 52 58 148v110q-117 -127 -306 -127q-135 0 -246 67q-110 66 -171 186q-62 121 -62 276q0 156 62 277q61 120 171 186q108 65 246 65q191 0 312 -149l26 133
h314zM774 359q55 68 55 182t-55 182q-56 70 -153 70q-96 0 -154 -70q-57 -69 -57 -182t57 -182q56 -68 154 -68t153 68zM618 1255l-98 -94h-321l264 297h311l264 -297h-321z" />
    <glyph glyph-name="Gbreve" unicode="&#x11e;" horiz-adv-x="1536" 
d="M140 1102q87 164 251 254q163 90 387 90q176 0 319 -70q141 -69 223 -193t97 -284h-370q-22 106 -95 171t-184 65q-153 0 -242 -116q-88 -115 -88 -302q0 -190 87 -304t247 -114q100 0 187 51q88 52 118 168v2h-317v287h663v-807h-249l-41 152q-62 -77 -163 -121
q-98 -43 -231 -43q-204 0 -360 90q-155 90 -241 255q-85 164 -85 384q0 222 87 385zM684 1835q0 -43 26 -69q25 -25 68 -25q42 0 67 25t25 69h246q-8 -139 -102 -225q-95 -86 -242 -86q-144 0 -235 86t-97 225h244z" />
    <glyph glyph-name="gbreve" unicode="&#x11f;" horiz-adv-x="1271" 
d="M1180 1057v-1037q0 -196 -143 -319t-445 -123q-237 0 -378 101t-146 288h356q34 -133 194 -133q101 0 158 51q58 52 58 148v110q-117 -127 -306 -127q-135 0 -246 67q-110 66 -171 186q-62 121 -62 276q0 156 62 277q61 120 171 186q108 65 246 65q191 0 312 -149l26 133
h314zM774 359q55 68 55 182t-55 182q-56 70 -153 70q-96 0 -154 -70q-57 -69 -57 -182t57 -182q56 -68 154 -68t153 68zM524 1458q0 -42 26 -68t68 -26q41 0 67 26t26 68h245q-8 -140 -102 -225q-95 -86 -242 -86q-144 0 -235 86q-90 85 -96 225h243z" />
    <glyph glyph-name="Gdotaccent" unicode="&#x120;" horiz-adv-x="1536" 
d="M140 1102q87 164 251 254q163 90 387 90q176 0 319 -70q141 -69 223 -193t97 -284h-370q-22 106 -95 171t-184 65q-153 0 -242 -116q-88 -115 -88 -302q0 -190 87 -304t247 -114q100 0 187 51q88 52 118 168v2h-317v287h663v-807h-249l-41 152q-62 -77 -163 -121
q-98 -43 -231 -43q-204 0 -360 90q-155 90 -241 255q-85 164 -85 384q0 222 87 385zM637 1866q56 55 141 55q86 0 142 -55q57 -55 57 -137q0 -83 -57 -138q-56 -55 -142 -55q-85 0 -141 55q-57 55 -57 138q0 81 57 137z" />
    <glyph glyph-name="gdotaccent" unicode="&#x121;" horiz-adv-x="1271" 
d="M1180 1057v-1037q0 -196 -143 -319t-445 -123q-237 0 -378 101t-146 288h356q34 -133 194 -133q101 0 158 51q58 52 58 148v110q-117 -127 -306 -127q-135 0 -246 67q-110 66 -171 186q-62 121 -62 276q0 156 62 277q61 120 171 186q108 65 246 65q191 0 312 -149l26 133
h314zM774 359q55 68 55 182t-55 182q-56 70 -153 70q-96 0 -154 -70q-57 -69 -57 -182t57 -182q56 -68 154 -68t153 68zM477 1489q56 55 141 55q86 0 142 -55q57 -55 57 -137t-57 -138q-56 -55 -142 -55q-85 0 -141 55q-57 56 -57 138t57 137z" />
    <glyph glyph-name="Gcommaaccent" unicode="&#x122;" horiz-adv-x="1536" 
d="M140 1102q87 164 251 254q163 90 387 90q176 0 319 -70q141 -69 223 -193t97 -284h-370q-22 106 -95 171t-184 65q-153 0 -242 -116q-88 -115 -88 -302q0 -190 87 -304t247 -114q100 0 187 51q88 52 118 168v2h-317v287h663v-807h-249l-41 152q-62 -77 -163 -121
q-98 -43 -231 -43q-204 0 -360 90q-155 90 -241 255q-85 164 -85 384q0 222 87 385zM563 -96h342l-188 -303h-268z" />
    <glyph glyph-name="gcommaaccent" unicode="&#x123;" horiz-adv-x="1271" 
d="M1180 1057v-1037q0 -196 -143 -319t-445 -123q-237 0 -378 101t-146 288h356q34 -133 194 -133q101 0 158 51q58 52 58 148v110q-117 -127 -306 -127q-135 0 -246 67q-110 66 -171 186q-62 121 -62 276q0 156 62 277q61 120 171 186q108 65 246 65q191 0 312 -149l26 133
h314zM774 359q55 68 55 182t-55 182q-56 70 -153 70q-96 0 -154 -70q-57 -69 -57 -182t57 -182q56 -68 154 -68t153 68zM774 1155h-342l189 303h268z" />
    <glyph glyph-name="Hcircumflex" unicode="&#x124;" horiz-adv-x="1456" 
d="M113 1434h376v-551h478v551h376v-1434h-376v563h-478v-563h-376v1434zM729 1632l-98 -94h-322l264 297h312l264 -297h-322z" />
    <glyph glyph-name="hcircumflex" unicode="&#x125;" horiz-adv-x="1239" 
d="M1047 954q120 -113 120 -389v-565h-354v551q0 116 -42 176q-41 59 -132 59q-93 0 -142 -61q-51 -63 -51 -174v-551h-354v1434h354v-486q52 59 124 90q73 31 171 31q183 0 306 -115zM268 1622l-98 -94h-322l265 297h311l264 -297h-321z" />
    <glyph glyph-name="Hbar" unicode="&#x126;" horiz-adv-x="1521" 
d="M1530 1245v-246h-154v-999h-377v502h-477v-502h-377v999h-153v246h153v189h377v-189h477v189h377v-189h154zM999 821v178h-477v-178h477z" />
    <glyph glyph-name="hbar" unicode="&#x127;" horiz-adv-x="1259" 
d="M1067 954q121 -114 121 -389v-565h-354v551q0 116 -42 176q-41 59 -133 59q-93 0 -142 -61q-50 -62 -50 -174v-551h-354v1104h-142v246h142v84h354v-84h270v-246h-270v-156q52 59 124 90q73 31 171 31q182 0 305 -115z" />
    <glyph glyph-name="Itilde" unicode="&#x128;" horiz-adv-x="602" 
d="M113 1434h376v-1434h-376v1434zM184 1606q-18 -21 -18 -50h-203v52q0 103 60 169t147 66q40 0 67 -12t54 -33q28 -17 43 -24q20 -9 39 -9q27 0 46 21q19 20 19 49h201v-51q0 -101 -58 -168q-59 -68 -147 -68q-40 0 -69 13q-31 14 -62 34q-45 31 -72 31q-30 0 -47 -20z
" />
    <glyph glyph-name="itilde" unicode="&#x129;" horiz-adv-x="540" 
d="M92 1057h357v-1057h-357v1057zM154 1229q-19 -22 -19 -49h-203v51q0 103 60 169t147 66q40 0 67 -12t54 -33q28 -17 43 -24q18 -8 39 -8q27 0 46 20q20 22 20 49h200v-51q0 -101 -58 -168q-59 -68 -147 -68q-40 0 -69 13q-26 12 -62 35q-44 30 -71 30q-30 0 -47 -20z" />
    <glyph glyph-name="Imacron" unicode="&#x12a;" horiz-adv-x="602" 
d="M113 1434h376v-1434h-376v1434zM-37 1589v246h676v-246h-676z" />
    <glyph glyph-name="imacron" unicode="&#x12b;" horiz-adv-x="540" 
d="M92 1057h357v-1057h-357v1057zM-68 1212v246h676v-246h-676z" />
    <glyph glyph-name="Ibreve" unicode="&#x12c;" horiz-adv-x="602" 
d="M113 1434h376v-1434h-376v1434zM207 1835q0 -44 25 -69t69 -25q42 0 67 25t25 69h246q-7 -139 -102 -225t-242 -86q-145 0 -236 86q-90 86 -96 225h244z" />
    <glyph glyph-name="ibreve" unicode="&#x12d;" horiz-adv-x="540" 
d="M92 1057h357v-1057h-357v1057zM176 1458q0 -42 26 -68t68 -26q41 0 67 26q25 25 25 68h246q-8 -140 -102 -225q-95 -86 -242 -86q-144 0 -235 86t-97 225h244z" />
    <glyph glyph-name="Iogonek" unicode="&#x12e;" horiz-adv-x="602" 
d="M350 -71q-45 -35 -45 -68q0 -39 53 -39h131v-232h-196q-114 0 -190 58q-74 56 -74 155q0 111 96 197h-12v1434h376v-1434q-96 -38 -139 -71z" />
    <glyph glyph-name="iogonek" unicode="&#x12f;" horiz-adv-x="538" 
d="M129 1186q-57 56 -57 137t57 137q58 56 141 56q84 0 142 -56q57 -56 57 -137t-57 -137q-58 -56 -142 -56q-83 0 -141 56zM92 1057h354v-1057q-96 -38 -139 -71q-45 -35 -45 -68q0 -39 53 -39h131v-232h-196q-114 0 -190 58q-74 56 -74 155q0 117 106 207v1047z" />
    <glyph glyph-name="Idotaccent" unicode="&#x130;" horiz-adv-x="602" 
d="M113 1434h376v-1434h-376v1434zM160 1866q56 55 141 55t141 -55q58 -56 58 -137q0 -82 -58 -138q-56 -55 -141 -55t-141 55q-58 56 -58 138q0 81 58 137z" />
    <glyph glyph-name="dotlessi" unicode="&#x131;" horiz-adv-x="540" 
d="M92 1057h357v-1057h-357v1057z" />
    <glyph glyph-name="IJ" unicode="&#x132;" horiz-adv-x="1380" 
d="M481 575q0 -276 209 -276q110 0 160 69q49 68 49 199v867h379v-859q0 -281 -152 -435q-151 -152 -436 -152q-289 0 -439 147q-151 147 -149 440h379zM106 1434h377v-729h-377v729z" />
    <glyph glyph-name="ij" unicode="&#x133;" horiz-adv-x="1085" 
d="M412 1460q57 -56 57 -137t-57 -137q-58 -56 -142 -56q-83 0 -141 56q-57 56 -57 137t57 137q58 56 141 56q84 0 142 -56zM92 1057h354v-1057h-354v1057zM958 1460q58 -56 58 -137t-58 -137t-141 -56t-141 56t-58 137t58 137t141 56t141 -56zM543 -117q98 0 98 119v1055
h354v-1123q0 -153 -86 -248q-87 -96 -235 -96h-217v293h86z" />
    <glyph glyph-name="Jcircumflex" unicode="&#x134;" horiz-adv-x="864" 
d="M752 1434v-1031q0 -186 -109 -295q-108 -108 -297 -108h-305v319h174q84 0 122 41t38 127v947h377zM563 1632l-98 -94h-322l265 297h311l264 -297h-321z" />
    <glyph glyph-name="jcircumflex" unicode="&#x135;" horiz-adv-x="548" 
d="M4 -117q98 0 98 119v1055h355v-1123q0 -153 -86 -248q-87 -96 -236 -96h-217v293h86zM281 1255l-99 -94h-321l264 297h311l264 -297h-321z" />
    <glyph glyph-name="Kcommaaccent" unicode="&#x136;" horiz-adv-x="1447" 
d="M113 1432h376v-553l494 553h457l-527 -584l560 -848h-455l-369 557l-160 -178v-379h-376v1432zM535 -96h342l-189 -303h-268z" />
    <glyph glyph-name="kcommaaccent" unicode="&#x137;" horiz-adv-x="1202" 
d="M92 1434h354v-764l353 387h389l-363 -404l377 -653h-403l-224 389l-129 -143v-246h-354v1434zM449 -96h342l-189 -303h-268z" />
    <glyph glyph-name="Lacute" unicode="&#x139;" horiz-adv-x="1054" 
d="M113 0v1434h376v-1115h525v-319h-901zM178 1538l139 297h402l-285 -297h-256z" />
    <glyph glyph-name="lacute" unicode="&#x13a;" horiz-adv-x="538" 
d="M92 1434h354v-1434h-354v1434zM145 1528l140 297h401l-285 -297h-256z" />
    <glyph glyph-name="Lcommaaccent" unicode="&#x13b;" horiz-adv-x="1054" 
d="M113 0v1434h376v-1115h525v-319h-901zM379 -96h342l-189 -303h-268z" />
    <glyph glyph-name="lcommaaccent" unicode="&#x13c;" horiz-adv-x="538" 
d="M92 1434h354v-1434h-354v1434zM88 -96h342l-188 -303h-269z" />
    <glyph glyph-name="Lcaron" unicode="&#x13d;" horiz-adv-x="1054" 
d="M113 0v1434h376v-1115h525v-319h-901zM616 1434h330l-149 -306h-248z" />
    <glyph glyph-name="lcaron" unicode="&#x13e;" horiz-adv-x="681" 
d="M92 1434h354v-1434h-354v1434zM573 1434h330l-149 -306h-248z" />
    <glyph glyph-name="Ldot" unicode="&#x13f;" horiz-adv-x="1054" 
d="M113 0v1434h376v-1115h525v-319h-901zM674 936q56 55 141 55t141 -55q58 -56 58 -137t-58 -137t-141 -56t-141 56t-58 137t58 137z" />
    <glyph glyph-name="ldot" unicode="&#x140;" horiz-adv-x="872" 
d="M92 1434h354v-1434h-354v1434zM567 797q56 55 142 55q85 0 141 -55q57 -55 57 -138q0 -81 -57 -137q-56 -55 -141 -55q-86 0 -142 55q-57 56 -57 137q0 83 57 138z" />
    <glyph glyph-name="Lslash" unicode="&#x141;" horiz-adv-x="1073" 
d="M508 319h524v-319h-901v514l-139 -74v279l139 74v641h377v-443l270 142v-279l-270 -141v-394z" />
    <glyph glyph-name="lslash" unicode="&#x142;" horiz-adv-x="661" 
d="M641 1036v-299l-133 -55v-682h-354v530l-134 -55v299l134 55v605h354v-453z" />
    <glyph glyph-name="Nacute" unicode="&#x143;" horiz-adv-x="1460" 
d="M113 0v1434h342l522 -793v793h371v-1434h-342l-523 793v-793h-370zM580 1538l139 297h401l-284 -297h-256z" />
    <glyph glyph-name="nacute" unicode="&#x144;" horiz-adv-x="1239" 
d="M1048 955q119 -113 119 -390v-565h-354v547q0 119 -41 180q-40 59 -133 59t-142 -61q-51 -63 -51 -178v-547h-354v1057h311l27 -127q55 67 131 103q77 36 184 36q183 0 303 -114zM561 1161l139 297h402l-285 -297h-256z" />
    <glyph glyph-name="Ncommaaccent" unicode="&#x145;" horiz-adv-x="1460" 
d="M113 0v1434h342l522 -793v793h371v-1434h-342l-523 793v-793h-370zM541 -96h342l-189 -303h-268z" />
    <glyph glyph-name="ncommaaccent" unicode="&#x146;" horiz-adv-x="1239" 
d="M1048 955q119 -113 119 -390v-565h-354v547q0 119 -41 180q-40 59 -133 59t-142 -61q-51 -63 -51 -178v-547h-354v1057h311l27 -127q55 67 131 103q77 36 184 36q183 0 303 -114zM453 -96h342l-189 -303h-268z" />
    <glyph glyph-name="Ncaron" unicode="&#x147;" horiz-adv-x="1460" 
d="M113 0v1434h342l522 -793v793h371v-1434h-342l-523 793v-793h-370zM702 1741l99 94h321l-264 -297h-311l-264 297h321z" />
    <glyph glyph-name="ncaron" unicode="&#x148;" horiz-adv-x="1239" 
d="M1048 955q119 -113 119 -390v-565h-354v547q0 119 -41 180q-40 59 -133 59t-142 -61q-51 -63 -51 -178v-547h-354v1057h311l27 -127q55 67 131 103q77 36 184 36q183 0 303 -114zM684 1364l98 94h322l-264 -297h-312l-264 297h322z" />
    <glyph glyph-name="napostrophe" unicode="&#x149;" horiz-adv-x="1726" 
d="M433 1363q67 -84 67 -218q0 -191 -116 -290t-316 -99v178q97 0 150 34q54 34 54 91q0 17 -2 31q-36 -13 -63 -13q-67 0 -110 46q-44 47 -44 132q0 77 61 135q59 56 144 56q109 0 175 -83zM1535 955q120 -114 120 -390v-565h-355v547q0 121 -40 180t-134 59
q-93 0 -142 -61q-50 -62 -50 -178v-547h-354v1057h311l27 -127q55 67 131 103q77 36 184 36q182 0 302 -114z" />
    <glyph glyph-name="Eng" unicode="&#x14a;" horiz-adv-x="1460" 
d="M1348 1434v-1473q0 -171 -91 -271t-251 -100h-197v299h80q98 0 98 119v21l-504 764v-793h-370v1434h342l522 -793v793h371z" />
    <glyph glyph-name="eng" unicode="&#x14b;" horiz-adv-x="1239" 
d="M1048 955q119 -113 119 -390v-610q0 -162 -91 -263q-92 -102 -251 -102h-196v293h80q104 0 104 125v539q0 119 -41 180q-40 59 -133 59t-142 -61q-51 -63 -51 -178v-547h-354v1057h311l27 -127q55 67 131 103q77 36 184 36q183 0 303 -114z" />
    <glyph glyph-name="Omacron" unicode="&#x14c;" horiz-adv-x="1556" 
d="M1412 344q-92 -167 -256 -261q-166 -95 -378 -95t-378 95q-164 94 -256 261q-91 166 -91 373t91 373q92 167 256 261q166 95 378 95t378 -95q164 -94 256 -261q91 -166 91 -373t-91 -373zM531 417q93 -118 247 -118t247 118q93 119 93 300t-93 300q-93 118 -247 118
t-247 -118q-93 -119 -93 -300t93 -300zM440 1589v246h676v-246h-676z" />
    <glyph glyph-name="omacron" unicode="&#x14d;" horiz-adv-x="1249" 
d="M321 54q-130 66 -201 190t-71 284q0 161 71 285q70 123 201 189q132 67 304 67t304 -67q129 -65 200 -189t71 -285q0 -160 -71 -284q-72 -125 -200 -190q-131 -66 -304 -66t-304 66zM782 341q58 72 58 187q0 116 -58 188q-57 70 -157 70q-101 0 -158 -70t-57 -188
q0 -116 57 -187t158 -71q100 0 157 71zM287 1212v246h676v-246h-676z" />
    <glyph glyph-name="Obreve" unicode="&#x14e;" horiz-adv-x="1556" 
d="M1412 344q-92 -167 -256 -261q-166 -95 -378 -95t-378 95q-164 94 -256 261q-91 166 -91 373t91 373q92 167 256 261q166 95 378 95t378 -95q164 -94 256 -261q91 -166 91 -373t-91 -373zM531 417q93 -118 247 -118t247 118q93 119 93 300t-93 300q-93 118 -247 118
t-247 -118q-93 -119 -93 -300t93 -300zM684 1835q0 -43 26 -69q25 -25 68 -25q42 0 67 25t25 69h246q-8 -139 -102 -225q-95 -86 -242 -86q-144 0 -235 86t-97 225h244z" />
    <glyph glyph-name="obreve" unicode="&#x14f;" horiz-adv-x="1249" 
d="M321 54q-130 66 -201 190t-71 284q0 161 71 285q70 123 201 189q132 67 304 67t304 -67q129 -65 200 -189t71 -285q0 -160 -71 -284q-72 -125 -200 -190q-131 -66 -304 -66t-304 66zM782 341q58 72 58 187q0 116 -58 188q-57 70 -157 70q-101 0 -158 -70t-57 -188
q0 -116 57 -187t158 -71q100 0 157 71zM530 1458q0 -42 26 -68t69 -26q40 0 66 26t26 68h246q-7 -139 -103 -225q-95 -86 -242 -86q-144 0 -235 86q-90 85 -96 225h243z" />
    <glyph glyph-name="Ohungarumlaut" unicode="&#x150;" horiz-adv-x="1556" 
d="M1412 344q-92 -167 -256 -261q-166 -95 -378 -95t-378 95q-164 94 -256 261q-91 166 -91 373t91 373q92 167 256 261q166 95 378 95t378 -95q164 -94 256 -261q91 -166 91 -373t-91 -373zM531 417q93 -118 247 -118t247 118q93 119 93 300t-93 300q-93 118 -247 118
t-247 -118q-93 -119 -93 -300t93 -300zM414 1532l139 303h381l-285 -303h-235zM848 1532l139 303h381l-285 -303h-235z" />
    <glyph glyph-name="ohungarumlaut" unicode="&#x151;" horiz-adv-x="1249" 
d="M321 54q-130 66 -201 190t-71 284q0 161 71 285q70 123 201 189q132 67 304 67t304 -67q129 -65 200 -189t71 -285q0 -160 -71 -284q-72 -125 -200 -190q-131 -66 -304 -66t-304 66zM782 341q58 72 58 187q0 116 -58 188q-57 70 -157 70q-101 0 -158 -70t-57 -188
q0 -116 57 -187t158 -71q100 0 157 71zM260 1155l139 303h381l-284 -303h-236zM694 1155l140 303h380l-284 -303h-236z" />
    <glyph glyph-name="OE" unicode="&#x152;" horiz-adv-x="2271" 
d="M2210 319v-319h-1012v109q-146 -121 -385 -121q-221 0 -394 95t-269 261q-97 168 -97 373t97 373q96 166 269 261t394 95q239 0 385 -121v109h989v-320h-612v-246h489v-299h-489v-250h635zM1018 353q84 53 132 150q46 93 46 214t-46 214q-47 95 -132 149q-87 55 -201 55
t-201 -55q-85 -54 -132 -149q-46 -93 -46 -214t46 -214q48 -97 132 -150q85 -54 201 -54q115 0 201 54z" />
    <glyph glyph-name="oe" unicode="&#x153;" horiz-adv-x="1970" 
d="M1174 444v-4q27 -196 204 -196q153 0 183 116h348q-15 -102 -79 -187t-174 -135q-111 -50 -253 -50q-255 0 -406 135q-141 -135 -376 -135q-175 0 -304 66q-128 65 -198 189q-70 123 -70 283q0 162 70 287q69 123 198 189q131 67 304 67q117 0 216 -35q97 -34 167 -98
q136 133 350 133q168 0 296 -63q125 -62 199 -180q72 -116 72 -267q0 -68 -10 -115h-737zM1240 777q-50 -41 -62 -115h393q-15 75 -67 115t-132 40q-83 0 -132 -40zM780 340q58 70 58 186t-59 189q-58 71 -158 71q-101 0 -156 -70t-55 -190q0 -118 55 -186q56 -70 156 -70
q101 0 159 70z" />
    <glyph glyph-name="Racute" unicode="&#x154;" horiz-adv-x="1347" 
d="M717 1434q163 0 289 -62q125 -62 194 -173q70 -113 70 -261q0 -126 -58 -233q-57 -104 -155 -170l260 -535h-414l-211 442h-203v-442h-376v1434h604zM489 750h197q92 0 145 50q54 51 54 138t-54 138q-53 50 -145 50h-197v-376zM483 1538l140 297h401l-285 -297h-256z" />
    <glyph glyph-name="racute" unicode="&#x155;" horiz-adv-x="815" 
d="M795 1057v-314h-133q-216 0 -216 -235v-508h-354v1057h326l28 -156q46 77 117 117q69 39 180 39h52zM340 1161l139 297h402l-285 -297h-256z" />
    <glyph glyph-name="Rcommaaccent" unicode="&#x156;" horiz-adv-x="1347" 
d="M717 1434q163 0 289 -62q125 -62 194 -173q70 -113 70 -261q0 -126 -58 -233q-57 -104 -155 -170l260 -535h-414l-211 442h-203v-442h-376v1434h604zM489 750h197q92 0 145 50q54 51 54 138t-54 138q-53 50 -145 50h-197v-376zM487 -96h342l-188 -303h-268z" />
    <glyph glyph-name="rcommaaccent" unicode="&#x157;" horiz-adv-x="815" 
d="M795 1057v-314h-133q-216 0 -216 -235v-508h-354v1057h326l28 -156q46 77 117 117q69 39 180 39h52zM90 -96h342l-188 -303h-269z" />
    <glyph glyph-name="Rcaron" unicode="&#x158;" horiz-adv-x="1347" 
d="M717 1434q163 0 289 -62q125 -62 194 -173q70 -113 70 -261q0 -126 -58 -233q-57 -104 -155 -170l260 -535h-414l-211 442h-203v-442h-376v1434h604zM489 750h197q92 0 145 50q54 51 54 138t-54 138q-53 50 -145 50h-197v-376zM606 1741l99 94h321l-264 -297h-311
l-265 297h322z" />
    <glyph glyph-name="rcaron" unicode="&#x159;" horiz-adv-x="815" 
d="M795 1057v-314h-133q-216 0 -216 -235v-508h-354v1057h326l28 -156q46 77 117 117q69 39 180 39h52zM463 1364l98 94h322l-265 -297h-311l-264 297h322z" />
    <glyph glyph-name="Sacute" unicode="&#x15a;" horiz-adv-x="1298" 
d="M422 465q6 -83 72 -136q67 -53 178 -53q89 0 145 35q55 34 55 103q0 43 -30 67q-29 23 -96 42q-66 18 -211 48q-139 29 -238 73q-96 43 -152 127q-57 85 -57 226q0 127 73 230q72 102 200 161q126 58 286 58q161 0 292 -60t205 -164q75 -105 75 -235h-367q-6 75 -59 122
q-52 46 -146 46q-81 0 -130 -33q-50 -33 -50 -96q0 -43 30 -67q26 -21 93 -40q69 -20 207 -47q145 -28 241 -69q97 -41 155 -123t58 -219q0 -136 -75 -242q-77 -109 -210 -170q-132 -61 -300 -61q-172 0 -312 63t-219 174q-80 112 -80 248zM520 1538l139 297h402l-285 -297
h-256z" />
    <glyph glyph-name="sacute" unicode="&#x15b;" horiz-adv-x="1150" 
d="M383 354q11 -58 62 -92q53 -35 130 -35q81 0 127 23t46 69q0 28 -20 43q-19 14 -61 22q-12 2 -32 5t-54.5 7.5t-60.5 8.5q-219 27 -333 93q-113 65 -113 215q0 163 130 262q129 98 347 98q231 0 375 -93q143 -93 151 -253h-332q-5 48 -53 77q-49 30 -127 30
q-71 0 -112 -23t-41 -66q0 -34 41 -48q36 -12 149 -23l41 -4q213 -23 331 -91q118 -69 118 -235q0 -107 -64 -188t-179 -124q-117 -44 -269 -44q-229 0 -373 99q-143 99 -154 267h330zM428 1161l139 297h402l-285 -297h-256z" />
    <glyph glyph-name="Scircumflex" unicode="&#x15c;" horiz-adv-x="1298" 
d="M422 465q6 -83 72 -136q67 -53 178 -53q89 0 145 35q55 34 55 103q0 43 -30 67q-29 23 -96 42q-66 18 -211 48q-139 29 -238 73q-96 43 -152 127q-57 85 -57 226q0 127 73 230q72 102 200 161q126 58 286 58q161 0 292 -60t205 -164q75 -105 75 -235h-367q-6 75 -59 122
q-52 46 -146 46q-81 0 -130 -33q-50 -33 -50 -96q0 -43 30 -67q26 -21 93 -40q69 -20 207 -47q145 -28 241 -69q97 -41 155 -123t58 -219q0 -136 -75 -242q-77 -109 -210 -170q-132 -61 -300 -61q-172 0 -312 63t-219 174q-80 112 -80 248zM643 1632l-98 -94h-322l264 297
h312l264 -297h-322z" />
    <glyph glyph-name="scircumflex" unicode="&#x15d;" horiz-adv-x="1150" 
d="M383 354q11 -58 62 -92q53 -35 130 -35q81 0 127 23t46 69q0 28 -20 43q-19 14 -61 22q-12 2 -32 5t-54.5 7.5t-60.5 8.5q-219 27 -333 93q-113 65 -113 215q0 163 130 262q129 98 347 98q231 0 375 -93q143 -93 151 -253h-332q-5 48 -53 77q-49 30 -127 30
q-71 0 -112 -23t-41 -66q0 -34 41 -48q36 -12 149 -23l41 -4q213 -23 331 -91q118 -69 118 -235q0 -107 -64 -188t-179 -124q-117 -44 -269 -44q-229 0 -373 99q-143 99 -154 267h330zM551 1255l-98 -94h-322l264 297h312l264 -297h-322z" />
    <glyph glyph-name="Scedilla" unicode="&#x15e;" horiz-adv-x="1298" 
d="M1038 803q97 -41 155 -123t58 -219q0 -123 -64 -224t-180 -166q-114 -64 -262 -79l-10 -41h43q87 0 137 -43q52 -44 52 -117q0 -92 -66 -146q-67 -55 -176 -55h-279v164h205q47 0 47 41q0 37 -47 37h-129l39 162q-143 18 -261 85q-115 65 -180 169q-65 103 -65 225
l367 -8q6 -83 72 -136q67 -53 178 -53q89 0 145 35q55 34 55 103q0 43 -30 67q-29 23 -96 42q-66 18 -211 48q-139 29 -238 73q-96 43 -152 127q-57 85 -57 226q0 127 73 230q72 102 200 161q126 58 286 58q161 0 292 -60t205 -164q75 -105 75 -235h-367q-6 75 -59 122
q-52 46 -146 46q-81 0 -130 -33q-50 -33 -50 -96q0 -43 30 -67q26 -21 93 -40q69 -20 207 -47q145 -28 241 -69z" />
    <glyph glyph-name="scedilla" unicode="&#x15f;" horiz-adv-x="1150" 
d="M977 102q-113 -93 -311 -110l-13 -43h43q88 0 138 -43q51 -44 51 -117q0 -92 -66 -146q-67 -55 -176 -55h-278v164h204q47 0 47 41q0 37 -47 37h-129l41 164q-190 21 -305 116q-116 96 -123 244h330q11 -58 62 -92q53 -35 130 -35q81 0 127 23t46 69q0 28 -20 43
q-19 14 -61 22q-12 2 -32 5t-54.5 7.5t-60.5 8.5q-219 27 -333 93q-113 65 -113 215q0 163 130 262q129 98 347 98q231 0 375 -93q143 -93 151 -253h-332q-5 48 -53 77q-49 30 -127 30q-71 0 -112 -23t-41 -66q0 -34 41 -48q36 -12 149 -23l41 -4q213 -23 331 -91
q118 -69 118 -235q0 -147 -115 -242z" />
    <glyph glyph-name="Scaron" unicode="&#x160;" horiz-adv-x="1298" 
d="M422 465q6 -83 72 -136q67 -53 178 -53q89 0 145 35q55 34 55 103q0 43 -30 67q-29 23 -96 42q-66 18 -211 48q-139 29 -238 73q-96 43 -152 127q-57 85 -57 226q0 127 73 230q72 102 200 161q126 58 286 58q161 0 292 -60t205 -164q75 -105 75 -235h-367q-6 75 -59 122
q-52 46 -146 46q-81 0 -130 -33q-50 -33 -50 -96q0 -43 30 -67q26 -21 93 -40q69 -20 207 -47q145 -28 241 -69q97 -41 155 -123t58 -219q0 -136 -75 -242q-77 -109 -210 -170q-132 -61 -300 -61q-172 0 -312 63t-219 174q-80 112 -80 248zM643 1741l98 94h322l-264 -297
h-312l-264 297h322z" />
    <glyph glyph-name="scaron" unicode="&#x161;" horiz-adv-x="1150" 
d="M383 354q11 -58 62 -92q53 -35 130 -35q81 0 127 23t46 69q0 28 -20 43q-19 14 -61 22q-12 2 -32 5t-54.5 7.5t-60.5 8.5q-219 27 -333 93q-113 65 -113 215q0 163 130 262q129 98 347 98q231 0 375 -93q143 -93 151 -253h-332q-5 48 -53 77q-49 30 -127 30
q-71 0 -112 -23t-41 -66q0 -34 41 -48q36 -12 149 -23l41 -4q213 -23 331 -91q118 -69 118 -235q0 -107 -64 -188t-179 -124q-117 -44 -269 -44q-229 0 -373 99q-143 99 -154 267h330zM551 1364l98 94h322l-264 -297h-312l-264 297h322z" />
    <glyph glyph-name="uni0162" unicode="&#x162;" horiz-adv-x="1232" 
d="M41 1434h1151v-320h-387v-1114h-377v1114h-387v320zM436 -96h342l-188 -303h-268z" />
    <glyph glyph-name="uni0163" unicode="&#x163;" horiz-adv-x="770" 
d="M158 764h-166v293h166v297h354v-297h227v-293h-227v-375q0 -51 23 -74q22 -22 73 -22h131v-293h-264q-151 0 -234 81t-83 236v447zM281 -96h342l-189 -303h-268z" />
    <glyph glyph-name="Tcaron" unicode="&#x164;" horiz-adv-x="1232" 
d="M41 1434h1151v-320h-387v-1114h-377v1114h-387v320zM627 1741l98 94h322l-265 -297h-311l-264 297h321z" />
    <glyph glyph-name="tcaron" unicode="&#x165;" horiz-adv-x="811" 
d="M158 764h-166v293h166v297h354v-297h227v-293h-227v-375q0 -51 23 -74q22 -22 73 -22h131v-293h-264q-151 0 -234 81t-83 236v447zM639 1434h330l-150 -306h-248z" />
    <glyph glyph-name="Tbar" unicode="&#x166;" horiz-adv-x="1232" 
d="M1192 1114h-387v-301h215v-246h-215v-567h-377v567h-215v246h215v301h-387v320h1151v-320z" />
    <glyph glyph-name="tbar" unicode="&#x167;" horiz-adv-x="808" 
d="M530 764v-94h228v-246h-228v-35q0 -51 23 -74q22 -22 74 -22h131v-293h-264q-153 0 -235 81q-83 81 -83 236v107h-166v246h166v94h-166v293h166v297h354v-297h228v-293h-228z" />
    <glyph glyph-name="Utilde" unicode="&#x168;" horiz-adv-x="1429" 
d="M479 1434v-832q0 -146 56 -222q55 -75 180 -75t180 75q55 74 55 222v832h377v-811q0 -306 -157 -471q-156 -164 -455 -164q-300 0 -456 164q-157 165 -157 471v811h377zM598 1606q-18 -21 -18 -50h-203v52q0 104 59 169q60 66 148 66q39 0 66 -12q29 -13 55 -33
q28 -17 43 -24q20 -9 38 -9q28 0 47 21q19 20 19 49h201v-51q0 -100 -59 -168t-146 -68q-41 0 -70 13q-28 12 -61 34q-45 31 -72 31q-30 0 -47 -20z" />
    <glyph glyph-name="utilde" unicode="&#x169;" horiz-adv-x="1226" 
d="M1135 1057v-1057h-316l-26 121q-54 -63 -128 -99q-69 -34 -173 -34q-185 0 -302 113q-118 114 -118 391v565h354v-516q0 -135 39 -201t129 -66q88 0 137 69q49 68 49 198v516h355zM487 1229q-18 -21 -18 -49h-203v51q0 103 60 169t147 66q40 0 67 -12t54 -33
q28 -17 43 -24q18 -8 39 -8q27 0 46 20t19 49h201v-51q0 -101 -58 -168q-59 -68 -147 -68q-40 0 -69 13q-26 12 -62 35q-44 30 -71 30q-31 0 -48 -20z" />
    <glyph glyph-name="Umacron" unicode="&#x16a;" horiz-adv-x="1429" 
d="M479 1434v-832q0 -146 56 -222q55 -75 180 -75t180 75q55 74 55 222v832h377v-811q0 -306 -157 -471q-156 -164 -455 -164q-300 0 -456 164q-157 165 -157 471v811h377zM377 1589v246h676v-246h-676z" />
    <glyph glyph-name="umacron" unicode="&#x16b;" horiz-adv-x="1226" 
d="M1135 1057v-1057h-316l-26 121q-54 -63 -128 -99q-69 -34 -173 -34q-185 0 -302 113q-118 114 -118 391v565h354v-516q0 -135 39 -201t129 -66q88 0 137 69q49 68 49 198v516h355zM266 1212v246h676v-246h-676z" />
    <glyph glyph-name="Ubreve" unicode="&#x16c;" horiz-adv-x="1429" 
d="M479 1434v-832q0 -146 56 -222q55 -75 180 -75t180 75q55 74 55 222v832h377v-811q0 -306 -157 -471q-156 -164 -455 -164q-300 0 -456 164q-157 165 -157 471v811h377zM621 1835q0 -44 25 -69t69 -25q41 0 66 25q26 26 26 69h246q-7 -139 -103 -225q-95 -86 -241 -86
q-145 0 -236 86q-90 86 -96 225h244z" />
    <glyph glyph-name="ubreve" unicode="&#x16d;" horiz-adv-x="1226" 
d="M1135 1057v-1057h-316l-26 121q-54 -63 -128 -99q-69 -34 -173 -34q-185 0 -302 113q-118 114 -118 391v565h354v-516q0 -135 39 -201t129 -66q88 0 137 69q49 68 49 198v516h355zM510 1458q0 -42 26 -68t68 -26q41 0 67 26q25 25 25 68h246q-8 -140 -102 -225
q-95 -86 -242 -86q-145 0 -236 86q-90 85 -96 225h244z" />
    <glyph glyph-name="Uring" unicode="&#x16e;" horiz-adv-x="1429" 
d="M479 1434v-832q0 -146 56 -222q55 -75 180 -75t180 75q55 74 55 222v832h377v-811q0 -306 -157 -471q-156 -164 -455 -164q-300 0 -456 164q-157 165 -157 471v811h377zM470 1769q38 61 102 95t143 34q78 0 142 -34t102 -95t38 -129q0 -70 -38 -131q-37 -59 -102 -94
t-142 -35q-78 0 -143 35t-102 94q-38 61 -38 131q0 68 38 129zM796 1720q-34 33 -81 33t-81 -33t-34 -80q0 -48 34 -81t81 -33t81 33q33 32 33 81q0 48 -33 80z" />
    <glyph glyph-name="uring" unicode="&#x16f;" horiz-adv-x="1226" 
d="M1135 1057v-1057h-316l-26 121q-54 -63 -128 -99q-69 -34 -173 -34q-185 0 -302 113q-118 114 -118 391v565h354v-516q0 -135 39 -201t129 -66q88 0 137 69q49 68 49 198v516h355zM359 1516q37 58 103 94q65 35 142 35t142 -35q66 -36 103 -94q38 -61 38 -130
q0 -70 -38 -131q-37 -58 -103 -94q-65 -35 -142 -35t-142 35q-66 36 -103 94q-37 59 -37 131q0 71 37 130zM685 1466q-35 33 -81 33t-81 -33q-34 -33 -34 -80q0 -48 34 -81q35 -33 81 -33t81 33q34 33 34 81q0 47 -34 80z" />
    <glyph glyph-name="Uhungarumlaut" unicode="&#x170;" horiz-adv-x="1429" 
d="M479 1434v-832q0 -146 56 -222q55 -75 180 -75t180 75q55 74 55 222v832h377v-811q0 -306 -157 -471q-156 -164 -455 -164q-300 0 -456 164q-157 165 -157 471v811h377zM350 1532l139 303h381l-284 -303h-236zM784 1532l140 303h381l-285 -303h-236z" />
    <glyph glyph-name="uhungarumlaut" unicode="&#x171;" horiz-adv-x="1226" 
d="M1135 1057v-1057h-316l-26 121q-54 -63 -128 -99q-69 -34 -173 -34q-185 0 -302 113q-118 114 -118 391v565h354v-516q0 -135 39 -201t129 -66q88 0 137 69q49 68 49 198v516h355zM240 1155l139 303h381l-285 -303h-235zM674 1155l139 303h381l-285 -303h-235z" />
    <glyph glyph-name="Uogonek" unicode="&#x172;" horiz-adv-x="1429" 
d="M1327 1434v-811q0 -267 -119 -427q-118 -159 -350 -198q-93 -35 -136 -69q-44 -35 -44 -68q0 -39 53 -39h131v-232h-196q-114 0 -190 58q-75 57 -75 155q0 118 109 207q-200 51 -304 207q-104 157 -104 406v811h377v-832q0 -146 56 -222q55 -75 180 -75t180 75
q55 74 55 222v832h377z" />
    <glyph glyph-name="uogonek" unicode="&#x173;" horiz-adv-x="1226" 
d="M995 -71q-45 -35 -45 -68q0 -39 54 -39h131v-232h-197q-113 0 -189 58q-75 57 -75 155q0 135 137 230l-18 88q-54 -63 -128 -99q-69 -34 -173 -34q-185 0 -302 113q-118 114 -118 391v565h354v-516q0 -135 39 -201t129 -66q88 0 137 69q49 68 49 198v516h355v-1057
q-98 -39 -140 -71z" />
    <glyph glyph-name="Wcircumflex" unicode="&#x174;" horiz-adv-x="2027" 
d="M-4 1434l389 4l227 -967l242 963h328l235 -963l236 963h379l-387 -1434h-431l-204 854l-197 -854h-430zM1006 1632l-99 -94h-321l264 297h311l264 -297h-321z" />
    <glyph glyph-name="wcircumflex" unicode="&#x175;" horiz-adv-x="1718" 
d="M-10 1057h375l186 -684l158 684h315l156 -686l186 686h363l-347 -1057h-372l-148 559l-149 -559h-375zM864 1255l-98 -94h-322l265 297h311l264 -297h-321z" />
    <glyph glyph-name="Ycircumflex" unicode="&#x176;" horiz-adv-x="1392" 
d="M-10 1434h440l266 -523l289 523h418l-518 -902v-532h-377v532zM709 1632l-99 -94h-321l264 297h311l264 -297h-321z" />
    <glyph glyph-name="ycircumflex" unicode="&#x177;" horiz-adv-x="1175" 
d="M367 1057l221 -703l219 703h379l-459 -1192q-38 -101 -73 -156q-37 -59 -90 -88q-56 -31 -138 -31h-324v293h166q50 0 74 15q25 15 39 57l14 39l-405 1063h377zM584 1255l-99 -94h-321l264 297h311l265 -297h-322z" />
    <glyph glyph-name="Ydieresis" unicode="&#x178;" horiz-adv-x="1392" 
d="M-10 1434h440l266 -523l289 523h418l-518 -902v-532h-377v532zM349 1838q53 50 128 50q79 0 129 -49q51 -49 51 -125q0 -74 -51 -123q-50 -49 -129 -49q-76 0 -128 49t-52 123q0 75 52 124zM813 1839q50 49 127 49q79 0 129 -49q51 -49 51 -125q0 -74 -51 -123
q-50 -49 -129 -49q-77 0 -127 49q-51 49 -51 123q0 76 51 125z" />
    <glyph glyph-name="Zacute" unicode="&#x179;" horiz-adv-x="1308" 
d="M66 1434h1177v-242l-670 -877h684v-315h-1206v242l670 876h-655v316zM532 1538l140 297h401l-285 -297h-256z" />
    <glyph glyph-name="zacute" unicode="&#x17a;" horiz-adv-x="1058" 
d="M68 1057h923v-234l-469 -530h492v-293h-969v233l469 531h-446v293zM401 1161l140 297h401l-285 -297h-256z" />
    <glyph glyph-name="Zdotaccent" unicode="&#x17b;" horiz-adv-x="1308" 
d="M66 1434h1177v-242l-670 -877h684v-315h-1206v242l670 876h-655v316zM514 1866q56 55 141 55q86 0 142 -55q57 -55 57 -137q0 -83 -57 -138q-56 -55 -142 -55q-85 0 -141 55q-57 55 -57 138q0 81 57 137z" />
    <glyph glyph-name="zdotaccent" unicode="&#x17c;" horiz-adv-x="1058" 
d="M68 1057h923v-234l-469 -530h492v-293h-969v233l469 531h-446v293zM383 1489q56 55 141 55q86 0 142 -55q57 -55 57 -137t-57 -138q-56 -55 -142 -55q-85 0 -141 55q-57 56 -57 138t57 137z" />
    <glyph glyph-name="Zcaron" unicode="&#x17d;" horiz-adv-x="1308" 
d="M66 1434h1177v-242l-670 -877h684v-315h-1206v242l670 876h-655v316zM655 1741l99 94h321l-264 -297h-311l-264 297h321z" />
    <glyph glyph-name="zcaron" unicode="&#x17e;" horiz-adv-x="1058" 
d="M68 1057h923v-234l-469 -530h492v-293h-969v233l469 531h-446v293zM524 1364l99 94h321l-264 -297h-311l-265 297h322z" />
    <glyph glyph-name="florin" unicode="&#x192;" horiz-adv-x="983" 
d="M709 1069l-25 -274h209v-246h-229l-41 -467q-12 -139 -104 -219t-245 -80h-254v295h181q67 0 73 69l35 402h-196v246h219l28 340q12 139 104 219t245 80h254v-295h-181q-67 0 -73 -70z" />
    <glyph glyph-name="AEacute" unicode="&#x1fc;" horiz-adv-x="2080" 
d="M1942 1835l-285 -297h-256l139 297h402zM1384 319h635v-319h-1011v270h-482l-157 -270h-389l825 1434h1192v-320h-613v-246h490v-299h-490v-250zM698 567h310v545z" />
    <glyph glyph-name="aeacute" unicode="&#x1fd;" horiz-adv-x="1871" 
d="M1337 1434l-284 -297h-256l139 297h401zM1075 444v-4q27 -196 205 -196q152 0 182 116h348q-15 -104 -78 -187q-64 -85 -174 -135q-111 -50 -253 -50q-145 0 -253 46q-109 46 -175 132q-81 -93 -179 -136q-96 -42 -237 -42q-176 0 -294 82t-118 229q0 164 133 252t385 88
h156v63q0 55 -44 90q-42 33 -116 33q-65 0 -107 -27q-41 -27 -46 -75h-340q15 167 149 256q135 90 361 90q110 0 211 -33q100 -33 159 -92q131 125 322 125q162 0 287 -63q124 -63 194 -180t70 -267q0 -63 -11 -115h-737zM1142 777q-52 -42 -63 -115h394q-15 75 -67 115
t-132 40q-83 0 -132 -40zM723 430h-131q-85 0 -136 -28q-50 -27 -50 -76q0 -44 31 -69q32 -26 85 -26q89 0 146 52q55 51 55 137v10z" />
    <glyph glyph-name="Scommaaccent" unicode="&#x218;" horiz-adv-x="1298" 
d="M422 465q6 -83 72 -136q67 -53 178 -53q89 0 145 35q55 34 55 103q0 43 -30 67q-29 23 -96 42q-66 18 -211 48q-139 29 -238 73q-96 43 -152 127q-57 85 -57 226q0 127 73 230q72 102 200 161q126 58 286 58q161 0 292 -60t205 -164q75 -105 75 -235h-367q-6 75 -59 122
q-52 46 -146 46q-81 0 -130 -33q-50 -33 -50 -96q0 -43 30 -67q26 -21 93 -40q69 -20 207 -47q145 -28 241 -69q97 -41 155 -123t58 -219q0 -136 -75 -242q-77 -109 -210 -170q-132 -61 -300 -61q-172 0 -312 63t-219 174q-80 112 -80 248zM481 -96h342l-188 -303h-268z" />
    <glyph glyph-name="scommaaccent" unicode="&#x219;" horiz-adv-x="1150" 
d="M383 354q11 -58 62 -92q53 -35 130 -35q81 0 127 23t46 69q0 28 -20 43q-19 14 -61 22q-12 2 -32 5t-54.5 7.5t-60.5 8.5q-219 27 -333 93q-113 65 -113 215q0 163 130 262q129 98 347 98q231 0 375 -93q143 -93 151 -253h-332q-5 48 -53 77q-49 30 -127 30
q-71 0 -112 -23t-41 -66q0 -34 41 -48q36 -12 149 -23l41 -4q213 -23 331 -91q118 -69 118 -235q0 -107 -64 -188t-179 -124q-117 -44 -269 -44q-229 0 -373 99q-143 99 -154 267h330zM399 -98h342l-188 -303h-268z" />
    <glyph glyph-name="uni021A" unicode="&#x21a;" horiz-adv-x="1232" 
d="M41 1434h1151v-320h-387v-1114h-377v1114h-387v320zM436 -96h342l-188 -303h-268z" />
    <glyph glyph-name="uni021B" unicode="&#x21b;" horiz-adv-x="770" 
d="M158 764h-166v293h166v297h354v-297h227v-293h-227v-375q0 -51 23 -74q22 -22 73 -22h131v-293h-264q-151 0 -234 81t-83 236v447zM281 -96h342l-189 -303h-268z" />
    <glyph glyph-name="uni0237" unicode="&#x237;" horiz-adv-x="548" 
d="M4 -117q98 0 98 119v1055h355v-1123q0 -153 -86 -248q-87 -96 -236 -96h-217v293h86z" />
    <glyph glyph-name="uni02BC" unicode="&#x2bc;" horiz-adv-x="819" 
d="M291 1434h330l-150 -306h-248z" />
    <glyph glyph-name="circumflex" unicode="&#x2c6;" horiz-adv-x="819" 
d="M410 1231l-99 -94h-321l264 297h311l264 -297h-321z" />
    <glyph glyph-name="caron" unicode="&#x2c7;" horiz-adv-x="819" 
d="M410 1339l98 95h321l-264 -297h-311l-264 297h321z" />
    <glyph glyph-name="breve" unicode="&#x2d8;" horiz-adv-x="819" 
d="M315 1434q0 -43 26 -69t69 -26q40 0 66 26t26 69h246q-8 -140 -103 -226t-242 -86q-144 0 -235 86q-90 85 -96 226h243z" />
    <glyph glyph-name="dotaccent" unicode="&#x2d9;" horiz-adv-x="819" 
d="M268 1464q58 56 142 56q83 0 141 -56q57 -56 57 -137t-57 -137q-56 -55 -141 -55q-86 0 -142 55q-57 56 -57 137t57 137z" />
    <glyph glyph-name="ring" unicode="&#x2da;" horiz-adv-x="819" 
d="M165 1491q37 59 102 94t143 35q77 0 142 -35t102 -94q38 -61 38 -129q0 -70 -38 -131q-37 -59 -102 -94t-142 -35q-78 0 -143 35t-102 94q-38 61 -38 131q0 68 38 129zM490 1442q-35 33 -80 33q-46 0 -81 -33q-34 -33 -34 -80q0 -49 34 -82q35 -33 81 -33t80 33t34 82
q0 47 -34 80z" />
    <glyph glyph-name="ogonek" unicode="&#x2db;" horiz-adv-x="819" 
d="M-10 -60q40 58 116 107l304 -47q-98 -39 -140 -71q-45 -35 -45 -68q0 -39 54 -39h131v-232h-197q-113 0 -189 58q-75 57 -75 155q0 78 41 137z" />
    <glyph glyph-name="tilde" unicode="&#x2dc;" horiz-adv-x="819" 
d="M293 1204q-19 -22 -19 -49h-202v51q0 104 59 169q61 67 148 67q39 0 66 -12t54 -33q35 -21 43 -25q18 -8 39 -8q27 0 46 20q20 22 20 50h201v-52q0 -100 -59 -168q-58 -67 -146 -67q-43 0 -70 12q-23 10 -61 35q-45 31 -72 31q-29 0 -47 -21z" />
    <glyph glyph-name="hungarumlaut" unicode="&#x2dd;" horiz-adv-x="819" 
d="M45 1130l139 304h381l-284 -304h-236zM479 1130l139 304h381l-284 -304h-236z" />
    <glyph glyph-name="gravecomb" unicode="&#x300;" horiz-adv-x="0" 
d="M-817 1434h401l129 -304h-262z" />
    <glyph glyph-name="acutecomb" unicode="&#x301;" horiz-adv-x="0" 
d="M-532 1137l139 297h401l-284 -297h-256z" />
    <glyph glyph-name="uni0302" unicode="&#x302;" horiz-adv-x="0" 
d="M-410 1231l-98 -94h-321l264 297h311l264 -297h-321z" />
    <glyph glyph-name="tildecomb" unicode="&#x303;" horiz-adv-x="0" 
d="M-526 1204q-19 -22 -19 -49h-203v51q0 103 60 169q61 67 147 67q40 0 67 -12t54 -33q35 -21 43 -25q18 -8 39 -8q27 0 46 20q20 22 20 50h200v-52q0 -101 -58 -168t-146 -67q-43 0 -70 12q-26 12 -62 35q-45 31 -71 31q-29 0 -47 -21z" />
    <glyph glyph-name="uni0304" unicode="&#x304;" horiz-adv-x="0" 
d="M-748 1188v246h676v-246h-676z" />
    <glyph glyph-name="uni0306" unicode="&#x306;" horiz-adv-x="0" 
d="M-504 1434q0 -43 26 -69t68 -26q41 0 67 26t26 69h245q-8 -141 -102 -226q-95 -86 -242 -86q-144 0 -235 86t-97 226h244z" />
    <glyph glyph-name="uni0307" unicode="&#x307;" horiz-adv-x="0" 
d="M-551 1464q58 56 141 56q84 0 142 -56q57 -56 57 -137t-57 -137q-56 -55 -142 -55q-85 0 -141 55q-57 56 -57 137t57 137z" />
    <glyph glyph-name="uni0308" unicode="&#x308;" horiz-adv-x="0" 
d="M-769 1437q53 50 128 50q79 0 129 -49q51 -50 51 -125q0 -73 -51 -123q-50 -49 -129 -49q-76 0 -128 49t-52 123q0 75 52 124zM-305 1438q50 49 127 49q79 0 129 -49q51 -50 51 -125q0 -73 -51 -123q-50 -49 -129 -49q-77 0 -127 49q-51 50 -51 123q0 75 51 125z" />
    <glyph glyph-name="uni030A" unicode="&#x30a;" horiz-adv-x="0" 
d="M-654 1491q37 59 102 94t142 35q78 0 143 -35t102 -94q38 -61 38 -129q0 -70 -38 -131q-37 -59 -102 -94t-143 -35q-77 0 -142 35t-102 94q-38 61 -38 131q0 68 38 129zM-329 1442q-35 33 -81 33t-80 -33t-34 -80q0 -49 34 -82q35 -33 80 -33q46 0 81 33q34 33 34 82
q0 47 -34 80z" />
    <glyph glyph-name="uni030B" unicode="&#x30b;" horiz-adv-x="0" 
d="M-774 1130l139 304h381l-285 -304h-235zM-340 1130l139 304h381l-284 -304h-236z" />
    <glyph glyph-name="uni030C" unicode="&#x30c;" horiz-adv-x="0" 
d="M-410 1339l99 95h321l-264 -297h-311l-264 297h321z" />
    <glyph glyph-name="uni0312" unicode="&#x312;" horiz-adv-x="0" 
d="M-254 1130h-342l188 304h269z" />
    <glyph glyph-name="uni0326" unicode="&#x326;" horiz-adv-x="0" 
d="M-590 -96h342l-188 -303h-269z" />
    <glyph glyph-name="uni0327" unicode="&#x327;" horiz-adv-x="0" 
d="M-301 82l-35 -131h43q87 0 137 -43q52 -44 52 -117q0 -92 -66 -146q-67 -55 -176 -55h-279v164h205q47 0 47 41q0 37 -47 37h-129l62 250h186z" />
    <glyph glyph-name="uni0328" unicode="&#x328;" horiz-adv-x="0" 
d="M-828 -60q41 57 115 107l303 -47q-96 -38 -139 -71q-45 -35 -45 -68q0 -39 53 -39h131v-232h-196q-114 0 -190 58q-74 56 -74 155q0 79 42 137z" />
    <glyph glyph-name="pi" unicode="&#x3c0;" horiz-adv-x="1288" 
d="M1268 1057v-293h-117v-764h-354v764h-305v-764h-355v764h-117v293h1248z" />
    <glyph glyph-name="uni0E3F" unicode="&#xe3f;" horiz-adv-x="1368" 
d="M1157 117q-142 -110 -393 -117v-197h-184v197h-467v1434h467v213h184v-215q236 -10 361 -108q124 -97 124 -269q0 -137 -78 -218t-217 -102q165 -18 253 -99q89 -81 89 -228q0 -183 -139 -291zM489 1149v-287h91v287h-91zM853 1101q-31 39 -89 46v-283q58 7 89 46
q30 38 30 96t-30 95zM489 287h91v295h-91v-295zM870 335q39 37 39 99t-39 100q-40 39 -106 46v-291q66 7 106 46z" />
    <glyph glyph-name="Wgrave" unicode="&#x1e80;" horiz-adv-x="2027" 
d="M-4 1434l389 4l227 -967l242 963h328l235 -963l236 963h379l-387 -1434h-431l-204 854l-197 -854h-430zM598 1835h401l129 -303h-262z" />
    <glyph glyph-name="wgrave" unicode="&#x1e81;" horiz-adv-x="1718" 
d="M-10 1057h375l186 -684l158 684h315l156 -686l186 686h363l-347 -1057h-372l-148 559l-149 -559h-375zM457 1458h401l129 -303h-262z" />
    <glyph glyph-name="Wacute" unicode="&#x1e82;" horiz-adv-x="2027" 
d="M-4 1434l389 4l227 -967l242 963h328l235 -963l236 963h379l-387 -1434h-431l-204 854l-197 -854h-430zM883 1538l139 297h401l-284 -297h-256z" />
    <glyph glyph-name="wacute" unicode="&#x1e83;" horiz-adv-x="1718" 
d="M-10 1057h375l186 -684l158 684h315l156 -686l186 686h363l-347 -1057h-372l-148 559l-149 -559h-375zM741 1161l140 297h401l-285 -297h-256z" />
    <glyph glyph-name="Wdieresis" unicode="&#x1e84;" horiz-adv-x="2027" 
d="M-4 1434l389 4l227 -967l242 963h328l235 -963l236 963h379l-387 -1434h-431l-204 854l-197 -854h-430zM646 1838q53 50 128 50q79 0 129 -49q51 -49 51 -125q0 -74 -51 -123q-50 -49 -129 -49q-76 0 -128 49t-52 123q0 75 52 124zM1110 1839q50 49 127 49q79 0 129 -49
q51 -49 51 -125q0 -74 -51 -123q-50 -49 -129 -49q-77 0 -127 49q-51 49 -51 123q0 76 51 125z" />
    <glyph glyph-name="wdieresis" unicode="&#x1e85;" horiz-adv-x="1718" 
d="M-10 1057h375l186 -684l158 684h315l156 -686l186 686h363l-347 -1057h-372l-148 559l-149 -559h-375zM505 1461q53 50 128 50q79 0 129 -49q51 -50 51 -125q0 -73 -51 -123q-50 -49 -129 -49q-76 0 -128 49t-52 123q0 75 52 124zM969 1462q50 49 127 49q79 0 129 -49
q51 -50 51 -125q0 -73 -51 -123q-50 -49 -129 -49q-77 0 -127 49q-51 50 -51 123q0 75 51 125z" />
    <glyph glyph-name="Ygrave" unicode="&#x1ef2;" horiz-adv-x="1392" 
d="M-10 1434h440l266 -523l289 523h418l-518 -902v-532h-377v532zM301 1835h401l129 -303h-262z" />
    <glyph glyph-name="ygrave" unicode="&#x1ef3;" horiz-adv-x="1175" 
d="M367 1057l221 -703l219 703h379l-459 -1192q-38 -101 -73 -156q-37 -59 -90 -88q-56 -31 -138 -31h-324v293h166q50 0 74 15q25 15 39 57l14 39l-405 1063h377zM176 1458h402l129 -303h-263z" />
    <glyph glyph-name="endash" unicode="&#x2013;" horiz-adv-x="1241" 
d="M68 438v287h1106v-287h-1106z" />
    <glyph glyph-name="emdash" unicode="&#x2014;" horiz-adv-x="1898" 
d="M68 727h1763v-287h-1763v287z" />
    <glyph glyph-name="quoteleft" unicode="&#x2018;" horiz-adv-x="552" 
d="M120 839q-67 84 -67 218q0 191 116 290t316 99v-178q-97 0 -150 -34q-54 -34 -54 -91q0 -17 2 -31q35 12 63 12q67 0 110 -46q44 -47 44 -132q0 -76 -61 -134q-59 -56 -144 -56q-109 0 -175 83z" />
    <glyph glyph-name="quoteright" unicode="&#x2019;" horiz-adv-x="552" 
d="M433 1363q67 -84 67 -218q0 -191 -116 -290t-316 -99v178q97 0 150 34q54 34 54 91q0 17 -2 31q-36 -13 -63 -13q-67 0 -110 46q-44 47 -44 132q0 77 61 135q59 56 144 56q109 0 175 -83z" />
    <glyph glyph-name="quotesinglbase" unicode="&#x201a;" horiz-adv-x="552" 
d="M433 300q67 -84 67 -218q0 -191 -116 -290t-316 -99v178q97 0 150 34q54 34 54 91q0 17 -2 31q-36 -13 -63 -13q-67 0 -110 46q-44 47 -44 133q0 76 61 134q59 56 144 56q109 0 175 -83z" />
    <glyph glyph-name="quotedblleft" unicode="&#x201c;" 
d="M120 839q-67 84 -67 218q0 191 116 290t316 99v-178q-97 0 -150 -34q-54 -34 -54 -91q0 -17 2 -31q35 12 63 12q67 0 110 -46q44 -47 44 -132q0 -76 -61 -134q-59 -56 -144 -56q-109 0 -175 83zM611 839q-66 83 -66 218q0 191 115 290q116 99 317 99v-178q-98 0 -151 -34
q-54 -34 -54 -91q0 -17 2 -31q34 12 64 12q66 0 109 -46q44 -47 44 -132q0 -77 -60 -134q-59 -56 -145 -56q-109 0 -175 83z" />
    <glyph glyph-name="quotedblright" unicode="&#x201d;" 
d="M433 1363q67 -84 67 -218q0 -191 -116 -290t-316 -99v178q97 0 150 34q54 34 54 91q0 17 -2 31q-36 -13 -63 -13q-67 0 -110 46q-44 47 -44 132q0 77 61 135q59 56 144 56q109 0 175 -83zM925 1363q66 -83 66 -218q0 -191 -115 -290q-116 -99 -317 -99v178q98 0 151 34
q54 34 54 91q0 17 -2 31q-36 -13 -64 -13q-66 0 -109 46q-44 47 -44 132q0 78 60 135q59 56 145 56q109 0 175 -83z" />
    <glyph glyph-name="quotedblbase" unicode="&#x201e;" 
d="M433 300q67 -84 67 -218q0 -191 -116 -290t-316 -99v178q97 0 150 34q54 34 54 91q0 17 -2 31q-36 -13 -63 -13q-67 0 -110 46q-44 47 -44 133q0 76 61 134q59 56 144 56q109 0 175 -83zM925 300q66 -82 66 -218q0 -191 -115 -290q-116 -99 -317 -99v178q98 0 151 34
q54 35 54 91q0 17 -2 31q-36 -13 -64 -13q-66 0 -109 46q-44 47 -44 133q0 77 60 134q59 56 145 56q109 0 175 -83z" />
    <glyph glyph-name="dagger" unicode="&#x2020;" horiz-adv-x="1064" 
d="M1024 1057v-285h-334v-772h-315v772h-334v285h334v377h315v-377h334z" />
    <glyph glyph-name="daggerdbl" unicode="&#x2021;" horiz-adv-x="1187" 
d="M1106 852h-354v-270h354v-285h-354v-297h-316v297h-354v285h354v270h-354v285h354v297h316v-297h354v-285z" />
    <glyph glyph-name="bullet" unicode="&#x2022;" horiz-adv-x="962" 
d="M161 862q48 82 132 129q85 47 188 47q104 0 189 -47q84 -47 132 -129t48 -184t-48 -185q-50 -85 -132 -131q-85 -47 -189 -47q-103 0 -188 47q-82 46 -132 131q-48 83 -48 185t48 184z" />
    <glyph glyph-name="ellipsis" unicode="&#x2026;" horiz-adv-x="1617" 
d="M130 332q58 57 146 57t147 -57q58 -57 58 -144q0 -86 -58 -143q-59 -57 -147 -57t-146 57t-58 143q0 87 58 144zM663 332q59 57 146 57t146 -57t59 -144q0 -86 -59 -143t-146 -57t-146 57t-59 143q0 87 59 144zM1195 332q59 57 146 57q89 0 147 -57t58 -144
q0 -86 -58 -143t-147 -57q-87 0 -146 57q-58 57 -58 143q0 87 58 144z" />
    <glyph glyph-name="perthousand" unicode="&#x2030;" horiz-adv-x="2783" 
d="M131 1272q49 82 137 128t197 46t197 -46t137 -128t49 -185q0 -102 -49 -184t-137 -128t-197 -46t-197 46t-137 128t-49 184q0 103 49 185zM307 0l987 1434h348l-987 -1434h-348zM541 1166q-30 32 -76 32t-76 -32q-31 -33 -31 -79q0 -45 31 -78q30 -32 76 -32t76 32
q30 31 30 78t-30 79zM1151 530q49 82 137 128q89 47 197 47q107 0 196 -47t138 -128q49 -82 49 -184t-49 -184q-49 -81 -138 -128q-88 -46 -196 -46q-109 0 -197 46t-137 128t-49 184t49 184zM1985 530q49 82 137 128q89 47 196 47q108 0 197 -47q88 -46 137 -128t49 -184
t-49 -184t-137 -128t-197 -46q-108 0 -196 46t-137 128q-50 83 -50 184t50 184zM1561 425q-30 32 -76 32t-76 -32q-31 -33 -31 -79t31 -79q30 -31 76 -31t76 31t30 79t-30 79zM2394 425q-30 32 -76 32q-45 0 -75 -32q-31 -33 -31 -79t31 -79q30 -31 75 -31q46 0 76 31
q31 33 31 79t-31 79z" />
    <glyph glyph-name="guilsinglleft" unicode="&#x2039;" horiz-adv-x="741" 
d="M694 1057l-299 -529l299 -528h-354l-303 528l303 529h354z" />
    <glyph glyph-name="guilsinglright" unicode="&#x203a;" horiz-adv-x="741" 
d="M47 1057h354l304 -529l-304 -528h-354l299 528z" />
    <glyph glyph-name="uni2042" unicode="&#x2042;" horiz-adv-x="2045" 
d="M1421 1182l-229 -80l158 -166l-185 -154l-143 215l-143 -213l-185 156l158 164l-227 82l98 215l190 -105l-10 220h238l-11 -222l191 105zM909 301l-229 -80l158 -166l-185 -153l-143 215l-143 -213l-185 155l158 164l-227 82l98 215l190 -104l-10 219h238l-11 -221
l191 104zM1933 301l-229 -80l158 -166l-185 -153l-143 215l-143 -213l-185 155l158 164l-227 82l98 215l190 -104l-10 219h238l-11 -221l191 104z" />
    <glyph glyph-name="fraction" unicode="&#x2044;" horiz-adv-x="411" 
d="M-389 0l907 1434h283l-907 -1434h-283z" />
    <glyph glyph-name="uni2051" unicode="&#x2051;" horiz-adv-x="1021" 
d="M909 1182l-229 -80l158 -166l-185 -154l-143 215l-143 -213l-185 156l158 164l-227 82l98 215l190 -105l-10 220h238l-11 -222l191 105zM909 293l-229 -80l158 -166l-185 -153l-143 215l-143 -213l-185 155l158 164l-227 82l98 215l190 -104l-10 219h238l-11 -221
l191 104z" />
    <glyph glyph-name="uni2070" unicode="&#x2070;" horiz-adv-x="720" 
d="M117 1551q89 102 243 102q156 0 244 -102q88 -101 88 -283q0 -183 -88 -284t-244 -101q-155 0 -243 101t-88 284q0 182 88 283zM429 1402q-24 46 -69 46q-44 0 -68 -46t-24 -134t24 -134q24 -47 68 -47q45 0 69 47q24 46 24 134t-24 134z" />
    <glyph glyph-name="uni2074" unicode="&#x2074;" horiz-adv-x="737" 
d="M305 1638h297v-389h105v-202h-105v-154h-233v154h-338v202zM369 1419l-117 -170h117v170z" />
    <glyph glyph-name="uni2075" unicode="&#x2075;" horiz-adv-x="655" 
d="M590 1440h-334l-6 -82q56 41 127 41q112 0 180 -68t68 -180q0 -121 -83 -196q-81 -74 -214 -74q-124 0 -202 68q-79 68 -89 179h229q6 -18 23 -30q18 -13 41 -13q24 0 42 18q17 17 17 48q0 30 -17 47q-19 19 -44 19q-40 0 -58 -37h-223l21 458h522v-198z" />
    <glyph glyph-name="uni2076" unicode="&#x2076;" horiz-adv-x="686" 
d="M120 1544q94 109 245 109q109 0 191 -64q80 -62 97 -172h-225q-4 24 -27 42t-55 18q-50 0 -78 -45q-28 -44 -28 -101v-20q49 75 153 75q121 0 193 -68q73 -69 73 -181q0 -116 -82 -185q-83 -69 -221 -69q-149 0 -239 102t-90 272q0 179 93 287zM412 1189q-20 19 -56 19
q-33 0 -53 -19t-20 -52q0 -34 20 -53t53 -19q36 0 56 19t20 53q0 33 -20 52z" />
    <glyph glyph-name="uni2077" unicode="&#x2077;" horiz-adv-x="616" 
d="M25 1638h571v-186l-258 -561h-260l258 547h-311v200z" />
    <glyph glyph-name="uni2078" unicode="&#x2078;" horiz-adv-x="708" 
d="M176 1288q-61 29 -93 69q-30 37 -30 99q0 86 81 141q82 56 222 56q141 0 222 -55q79 -54 79 -142q0 -64 -29 -100q-31 -38 -93 -68q147 -45 147 -180q0 -100 -86 -163q-84 -62 -240 -62q-154 0 -241 62q-88 63 -88 163q0 135 149 180zM412 1469q-21 18 -56 18t-56 -18
t-21 -44q0 -27 21 -45t56 -18t55 17q21 18 21 46q0 27 -20 44zM417 1181q-23 19 -61 19q-39 0 -62 -19q-24 -19 -24 -51q0 -30 24 -50q23 -19 62 -19q38 0 61 19t23 50q0 32 -23 51z" />
    <glyph glyph-name="uni2079" unicode="&#x2079;" horiz-adv-x="686" 
d="M566 991q-93 -108 -244 -108q-111 0 -192 63q-80 62 -97 172h225q4 -24 27 -42q21 -17 55 -17q52 0 79 41q27 40 27 104v21q-28 -41 -61 -58q-35 -18 -92 -18q-119 0 -193 69q-73 69 -73 181q0 115 83 184q84 70 220 70q148 0 239 -103q90 -102 90 -272q0 -179 -93 -287z
M274 1347q22 -20 56 -20q31 0 53 20q20 19 20 52t-20 52t-53 19q-36 0 -56 -19t-20 -52t20 -52z" />
    <glyph glyph-name="uni2080" unicode="&#x2080;" horiz-adv-x="720" 
d="M117 452q88 101 243 101q156 0 244 -101t88 -284t-88 -284t-244 -101q-155 0 -243 101t-88 284t88 284zM429 302q-24 46 -69 46q-44 0 -68 -46t-24 -134t24 -134t68 -46q45 0 69 46q24 47 24 134q0 88 -24 134z" />
    <glyph glyph-name="uni2081" unicode="&#x2081;" horiz-adv-x="442" 
d="M162 -205v412h-37h-125v209h109q30 0 44 23q15 24 15 59v43h227v-746h-233z" />
    <glyph glyph-name="uni2082" unicode="&#x2082;" horiz-adv-x="681" 
d="M20 256q0 132 89 215q88 82 219 82q139 0 229 -73q88 -72 88 -189q0 -75 -36 -125t-95 -88l-115 -74h256v-209h-618v197l295 190q67 43 67 103q0 28 -19 46q-18 17 -48 17q-38 0 -57 -25t-19 -75v-4h-236v12z" />
    <glyph glyph-name="uni2083" unicode="&#x2083;" horiz-adv-x="700" 
d="M132 483q84 70 226 70q140 0 216 -58q77 -59 77 -149q0 -61 -36 -103q-37 -43 -91 -59q73 -15 111 -58q39 -44 39 -110q0 -110 -86 -172q-85 -61 -244 -61q-157 0 -239 71q-81 70 -85 205h240q4 -36 23 -56q18 -19 57 -19q34 0 54 14q22 16 22 43q0 55 -84 55h-37v154h41
q33 0 53 14q21 15 21 37q0 24 -17 38q-16 13 -45 13q-31 0 -48 -16q-16 -15 -21 -45h-234q5 123 87 192z" />
    <glyph glyph-name="uni2084" unicode="&#x2084;" horiz-adv-x="737" 
d="M305 541h297v-389h105v-203h-105v-154h-233v154h-338v203zM369 322l-117 -170h117v170z" />
    <glyph glyph-name="uni2085" unicode="&#x2085;" horiz-adv-x="655" 
d="M590 342h-334l-6 -82q56 41 127 41q112 0 180 -68t68 -180q0 -120 -83 -195q-82 -75 -214 -75q-122 0 -202 69q-79 68 -89 179h229q6 -19 23 -31t41 -12q25 0 42 17t17 48q0 30 -17 47q-19 19 -44 19q-40 0 -58 -37h-223l21 459h522v-199z" />
    <glyph glyph-name="uni2086" unicode="&#x2086;" horiz-adv-x="686" 
d="M120 444q94 109 245 109q109 0 191 -64q80 -62 97 -172h-225q-4 24 -27 42t-55 18q-50 0 -78 -45q-28 -44 -28 -101v-20q49 76 153 76q119 0 193 -69q73 -69 73 -181q0 -115 -82 -184q-84 -70 -221 -70q-149 0 -239 102t-90 273q0 178 93 286zM412 89q-22 20 -56 20
q-31 0 -53 -20q-20 -19 -20 -52t20 -52q22 -20 53 -20q34 0 56 20q20 19 20 52t-20 52z" />
    <glyph glyph-name="uni2087" unicode="&#x2087;" horiz-adv-x="616" 
d="M25 543h571v-187l-258 -561h-260l258 547h-311v201z" />
    <glyph glyph-name="uni2088" unicode="&#x2088;" horiz-adv-x="708" 
d="M176 188q-61 29 -93 69q-30 37 -30 99q0 86 81 142q80 55 222 55t222 -54q79 -54 79 -143q0 -64 -29 -100q-31 -38 -93 -68q147 -45 147 -180q0 -100 -86 -163q-84 -62 -240 -62q-154 0 -241 62q-88 63 -88 163q0 135 149 180zM412 370q-20 17 -56 17t-56 -17
q-21 -18 -21 -44q0 -27 21 -45q22 -19 56 -19t55 18t21 46q0 27 -20 44zM417 81q-23 19 -61 19q-39 0 -62 -19q-24 -20 -24 -50q0 -31 24 -50q25 -20 62 -20q36 0 61 20q23 19 23 50t-23 50z" />
    <glyph glyph-name="uni2089" unicode="&#x2089;" horiz-adv-x="686" 
d="M566 -109q-93 -108 -244 -108q-111 0 -192 63q-80 62 -97 172h225q4 -24 27 -42q21 -17 55 -17q52 0 79 41q27 40 27 104v21q-27 -39 -61 -57q-36 -19 -92 -19q-119 0 -193 69q-73 69 -73 181q0 115 83 184q84 70 220 70q149 0 239 -102t90 -273q0 -179 -93 -287z
M274 247q22 -20 56 -20q31 0 53 20q20 19 20 52t-20 52q-22 20 -53 20q-34 0 -56 -20q-20 -19 -20 -52t20 -52z" />
    <glyph glyph-name="franc" unicode="&#x20a3;" horiz-adv-x="1185" 
d="M1145 1114h-600v-258h489v-299h-489v-145h221v-246h-221v-166h-377v166h-168v246h168v1022h977v-320z" />
    <glyph glyph-name="uni20A8" unicode="&#x20a8;" horiz-adv-x="1226" 
d="M1196 1434l-41 -203h-332q61 -84 82 -191h252l-41 -202h-213q-18 -97 -70 -174t-133 -129l261 -535h-414l-211 442h-223v299h217q59 0 104 27q47 28 70 70h-391v202h391q-27 43 -71 69t-103 26h-217v299h1083z" />
    <glyph glyph-name="Euro" unicode="&#x20ac;" horiz-adv-x="1402" 
d="M41 483v203h123v33v31h-123v202h139q45 232 200 363t386 131q271 0 430 -151q158 -150 170 -414h-369q-12 125 -67 193q-56 69 -150 69q-83 0 -139 -49q-57 -50 -86 -142h287l-41 -202h-269v-29v-35h256l-40 -203h-195q55 -192 227 -192q95 0 150 68t67 194h369
q-12 -265 -170 -415t-430 -150q-232 0 -389 131q-156 130 -199 364h-137z" />
    <glyph glyph-name="uni20BF" unicode="&#x20bf;" horiz-adv-x="1368" 
d="M416 1434v213h205v-213h112v213h205v-234q148 -34 230 -128q81 -93 81 -230t-78 -218t-217 -102q165 -18 253 -99q89 -81 89 -228t-92 -248t-266 -140v-217h-205v197h-112v-197h-205v197h-303v1434h303zM489 862h228q75 0 116 39q39 38 39 105q0 66 -39 104
q-40 39 -116 39h-228v-287zM489 287h242q82 0 130 39t48 108q0 70 -48 109t-130 39h-242v-295z" />
    <glyph glyph-name="trademark" unicode="&#x2122;" horiz-adv-x="1464" 
d="M98 1434h492v-152h-164v-397h-162v397h-166v152zM651 1434h230l135 -336l127 336h223v-549h-162v323l-137 -323h-117l-137 323v-323h-162v549z" />
    <glyph glyph-name="uni2126" unicode="&#x2126;" horiz-adv-x="1486" 
d="M844 428q117 83 157 173q39 89 39 222q0 136 -85 224t-216 88q-128 0 -210 -88q-83 -89 -83 -224q0 -132 38 -222t159 -175v-426h-553v319h307v23q-185 52 -261 181q-75 127 -75 321q0 189 86 325q85 135 240 206q154 71 352 71q201 0 359 -70q154 -68 241 -205
q86 -136 86 -325q0 -416 -335 -504v-23h309v-319h-555v428z" />
    <glyph glyph-name="uni2153" unicode="&#x2153;" horiz-adv-x="1521" 
d="M162 688v412h-37h-125v209h109q30 0 44 23q15 24 15 59v43h227v-746h-233zM53 0l908 1434h282l-907 -1434h-283zM970 688q84 70 226 70q139 0 216 -59t77 -148q0 -62 -36 -104t-91 -58q73 -15 111 -58q38 -42 38 -110q0 -110 -86 -172q-85 -61 -243 -61q-159 0 -239 70
t-85 206h240q4 -37 22 -56q18 -20 58 -20q33 0 54 15t21 43q0 55 -84 55h-36v154h41q33 0 53 14t20 37q0 25 -16 38t-45 13q-31 0 -48 -16t-22 -45h-233q5 123 87 192z" />
    <glyph glyph-name="uni2155" unicode="&#x2155;" horiz-adv-x="1499" 
d="M162 688v412h-37h-125v209h109q30 0 44 23q15 24 15 59v43h227v-746h-233zM53 0l908 1434h282l-907 -1434h-283zM1454 547h-334l-6 -82q56 41 127 41q112 0 180 -68t68 -180q0 -121 -83 -196q-81 -74 -214 -74q-124 0 -202 68t-89 180h229q6 -19 23 -31t41 -12
q25 0 42 17t17 48q0 30 -17 47q-19 19 -44 19q-39 0 -57 -37h-224l21 458h522v-198z" />
    <glyph glyph-name="uni2156" unicode="&#x2156;" horiz-adv-x="1738" 
d="M20 1149q0 132 89 215q88 82 219 82q139 0 229 -73q88 -72 88 -189q0 -76 -36 -125q-36 -50 -95 -88l-115 -74h256v-209h-618v197l295 190q67 43 67 103q0 28 -19 46q-18 17 -48 17q-37 0 -57 -26q-19 -25 -19 -74v-4h-236v12zM293 0l907 1434h283l-908 -1434h-282z
M1694 547h-334l-6 -82q56 41 127 41q112 0 180 -68t68 -180q0 -121 -83 -196q-81 -74 -214 -74q-124 0 -202 68t-89 180h229q6 -19 23 -31q16 -12 41 -12t42 17t17 48q0 30 -17 47q-19 19 -44 19q-40 0 -58 -37h-223l20 458h523v-198z" />
    <glyph glyph-name="uni2157" unicode="&#x2157;" horiz-adv-x="1757" 
d="M132 1378q84 70 226 70q140 0 216 -58q77 -59 77 -149q0 -61 -36 -103q-37 -43 -91 -59q73 -15 111 -58q39 -44 39 -110q0 -110 -86 -172q-85 -61 -244 -61q-157 0 -239 71q-81 70 -85 205h240q4 -36 23 -56q18 -19 57 -19q34 0 54 14q22 16 22 43q0 55 -84 55h-37v154
h41q33 0 53 14q21 15 21 37q0 24 -17 38q-16 13 -45 13q-31 0 -48 -16q-16 -15 -21 -45h-234q5 123 87 192zM311 0l908 1434h282l-907 -1434h-283zM1712 547h-334l-6 -82q56 41 127 41q112 0 180 -68t68 -180q0 -121 -83 -196q-81 -74 -214 -74q-124 0 -202 68t-89 180h230
q7 -20 22 -31q17 -12 41 -12q25 0 42 17t17 48q0 30 -17 47q-19 19 -44 19q-39 0 -57 -37h-224l21 458h522v-198z" />
    <glyph glyph-name="uni2158" unicode="&#x2158;" horiz-adv-x="1794" 
d="M305 1434h297v-390h105v-202h-105v-154h-233v154h-338v202zM369 1214l-117 -170h117v170zM348 0l907 1434h283l-907 -1434h-283zM1749 547h-334l-6 -82q56 41 127 41q112 0 180 -68t68 -180q0 -121 -83 -196q-81 -74 -214 -74q-124 0 -202 68t-89 180h229q6 -19 23 -31
q16 -12 41 -12t42 17t17 48q0 30 -17 47q-19 19 -44 19q-39 0 -57 -37h-224l21 458h522v-198z" />
    <glyph glyph-name="uni2159" unicode="&#x2159;" horiz-adv-x="1486" 
d="M162 688v412h-37h-125v209h109q30 0 44 23q15 24 15 59v43h227v-746h-233zM53 0l908 1434h282l-907 -1434h-283zM937 649q94 109 245 109q109 0 191 -64q80 -62 97 -172h-225q-5 25 -26 42q-23 18 -56 18q-49 0 -78 -45q-28 -44 -28 -101v-20q49 76 153 76q120 0 193 -69
q74 -69 74 -181q0 -116 -83 -185q-82 -69 -220 -69q-150 0 -240 102t-90 272q0 179 93 287zM1229 294q-20 19 -55 19q-34 0 -54 -19t-20 -52q0 -34 20 -53t54 -19q35 0 55 19t20 53q0 33 -20 52z" />
    <glyph glyph-name="oneeighth" unicode="&#x215b;" horiz-adv-x="1521" 
d="M162 688v412h-37h-125v209h109q30 0 44 23q15 24 15 59v43h227v-746h-233zM53 0l908 1434h282l-907 -1434h-283zM1006 393q-63 30 -94 69q-29 36 -29 99q0 85 81 141q82 56 222 56t221 -55q80 -54 80 -142q0 -63 -30 -100q-31 -38 -93 -68q147 -45 147 -180
q0 -100 -86 -163q-84 -62 -239 -62t-242 62q-88 63 -88 163q0 135 150 180zM1241 574q-21 18 -55 18q-36 0 -57 -18t-21 -44q0 -27 21 -45t57 -18q34 0 54 17q22 19 22 46q0 26 -21 44zM1246 286q-23 19 -60 19q-40 0 -63 -19t-23 -50q0 -32 23 -51t63 -19q37 0 60 19
q24 20 24 51q0 30 -24 50z" />
    <glyph glyph-name="threeeighths" unicode="&#x215c;" horiz-adv-x="1779" 
d="M132 1378q84 70 226 70q140 0 216 -58q77 -59 77 -149q0 -61 -36 -103q-37 -43 -91 -59q73 -15 111 -58q39 -44 39 -110q0 -110 -86 -172q-85 -61 -244 -61q-157 0 -239 71q-81 70 -85 205h240q4 -36 23 -56q18 -19 57 -19q34 0 54 14q22 16 22 43q0 55 -84 55h-37v154
h41q33 0 53 14q21 15 21 37q0 24 -17 38q-16 13 -45 13q-31 0 -48 -16q-16 -15 -21 -45h-234q5 123 87 192zM311 0l908 1434h282l-907 -1434h-283zM1264 393q-63 30 -94 69q-29 36 -29 99q0 85 81 141q82 56 222 56t221 -55q80 -54 80 -142q0 -63 -30 -100q-31 -38 -93 -68
q147 -45 147 -180q0 -100 -86 -163q-84 -62 -239 -62t-242 62q-88 63 -88 163q0 135 150 180zM1499 574q-21 18 -55 18q-35 0 -56 -18q-22 -19 -22 -44q0 -26 22 -45q21 -18 56 -18q34 0 54 17q22 19 22 46q0 26 -21 44zM1504 286q-23 19 -60 19q-40 0 -63 -19t-23 -50
q0 -32 23 -51t63 -19q37 0 60 19q24 19 24 51q0 30 -24 50z" />
    <glyph glyph-name="fiveeighths" unicode="&#x215d;" horiz-adv-x="1734" 
d="M590 1235h-334l-6 -82q56 41 127 41q112 0 180 -68t68 -180q0 -120 -83 -195q-82 -75 -214 -75q-124 0 -202 68t-89 180h229q6 -19 23 -31t41 -12q25 0 42 17t17 48q0 30 -17 47q-19 19 -44 19q-40 0 -58 -37h-223l21 459h522v-199zM266 0l908 1434h282l-907 -1434h-283z
M1219 393q-63 30 -94 69q-29 36 -29 99q0 85 81 141q82 56 222 56t221 -55q80 -54 80 -142q0 -63 -30 -100q-31 -38 -93 -68q147 -45 147 -180q0 -100 -86 -163q-84 -62 -239 -62t-242 62q-88 63 -88 163q0 135 150 180zM1454 574q-21 18 -55 18q-36 0 -57 -18t-21 -44
q0 -27 21 -45t57 -18q34 0 54 17q22 19 22 46q0 26 -21 44zM1459 286q-23 19 -60 19q-40 0 -63 -19t-23 -50q0 -32 23 -51t63 -19q37 0 60 19q24 19 24 51q0 30 -24 50z" />
    <glyph glyph-name="seveneighths" unicode="&#x215e;" horiz-adv-x="1695" 
d="M25 1434h571v-187l-258 -561h-260l258 547h-311v201zM227 0l908 1434h282l-907 -1434h-283zM1180 393q-63 30 -94 69q-29 36 -29 99q0 85 81 141q82 56 222 56t221 -55q80 -54 80 -142q0 -63 -30 -100q-31 -38 -93 -68q148 -45 148 -180q0 -99 -87 -163q-84 -62 -239 -62
t-242 62q-88 63 -88 163q0 135 150 180zM1415 574q-21 18 -55 18q-35 0 -56 -18q-22 -19 -22 -44q0 -26 22 -45q21 -18 56 -18q34 0 54 17q22 19 22 46q0 26 -21 44zM1420 286q-23 19 -60 19q-40 0 -63 -19t-23 -50q0 -32 23 -51t63 -19q37 0 60 19q24 19 24 51q0 30 -24 50
z" />
    <glyph glyph-name="arrowleft" unicode="&#x2190;" horiz-adv-x="1312" 
d="M20 549l605 604l215 -217l-242 -225h633v-324h-633l242 -225l-215 -217z" />
    <glyph glyph-name="arrowup" unicode="&#x2191;" horiz-adv-x="1363" 
d="M1286 469l-217 -215l-225 242v-498h-324v498l-225 -242l-217 215l604 604z" />
    <glyph glyph-name="arrowright" unicode="&#x2192;" horiz-adv-x="1312" 
d="M1292 549l-604 -604l-215 217l242 225h-633v324h633l-242 225l215 217z" />
    <glyph glyph-name="arrowdown" unicode="&#x2193;" horiz-adv-x="1363" 
d="M1286 584l-604 -604l-604 604l217 215l225 -242v498h324v-498l225 242z" />
    <glyph glyph-name="arrowboth" unicode="&#x2194;" horiz-adv-x="1763" 
d="M1149 1092l543 -543l-543 -543l-215 217l180 164h-465l180 -164l-215 -217l-542 543l542 543l215 -218l-180 -163h465l-180 163z" />
    <glyph glyph-name="arrowupdn" unicode="&#x2195;" horiz-adv-x="1228" 
d="M72 954l542 543l543 -543l-217 -215l-164 181v-424l164 180l217 -215l-545 -543l-540 543l217 215l162 -180l2 424l-164 -181z" />
    <glyph glyph-name="uni2196" unicode="&#x2196;" horiz-adv-x="1103" 
d="M78 1057h854l2 -273h-385l477 -448l-227 -230l-449 478v-381h-272v854z" />
    <glyph glyph-name="uni2197" unicode="&#x2197;" horiz-adv-x="1103" 
d="M1026 1057v-854h-272v381l-449 -478l-227 230l477 448h-385l2 273h854z" />
    <glyph glyph-name="uni2198" unicode="&#x2198;" horiz-adv-x="1103" 
d="M170 272h385l-477 449l227 229l449 -477v381h272v-854h-854z" />
    <glyph glyph-name="uni2199" unicode="&#x2199;" horiz-adv-x="1105" 
d="M350 856v-385l449 477l229 -227l-477 -449h381v-272h-854v856h272z" />
    <glyph glyph-name="partialdiff" unicode="&#x2202;" horiz-adv-x="1261" 
d="M129 727q68 102 176 152q107 49 230 49q187 0 278 -80q-39 128 -175 198q-138 71 -413 95v305q325 0 544 -115t325 -312t106 -448q0 -163 -62 -293q-63 -132 -193 -211t-322 -79q-169 0 -297 63q-127 63 -196 174t-69 250q0 149 68 252zM777 323q59 59 59 150
q0 92 -59 151q-58 58 -154 58q-91 0 -146 -58t-55 -151q0 -92 55 -150q56 -59 146 -59q95 0 154 59z" />
    <glyph glyph-name="emptyset" unicode="&#x2205;" horiz-adv-x="1286" 
d="M1233 733q0 -157 -75 -280t-209 -192q-132 -68 -306 -68q-191 0 -328 81l-86 -79l-159 157l77 72q-94 130 -94 309q0 158 75 281q74 121 209 191q133 69 306 69q189 0 328 -82l90 84l158 -158l-80 -76q94 -136 94 -309zM418 678l311 289q-43 14 -86 14q-100 0 -165 -70
q-64 -68 -64 -178q0 -26 4 -55zM808 555q64 68 64 178q0 31 -6 58l-309 -289q45 -17 86 -17q100 0 165 70z" />
    <glyph glyph-name="uni2206" unicode="&#x2206;" horiz-adv-x="1480" 
d="M53 0v297l459 1137h459l459 -1137v-297h-1377zM451 338h557l-281 717z" />
    <glyph glyph-name="product" unicode="&#x220f;" horiz-adv-x="1511" 
d="M1470 1434v-320h-139v-1331h-377v1331h-397v-1331h-377v1331h-139v320h1429z" />
    <glyph glyph-name="summation" unicode="&#x2211;" horiz-adv-x="1296" 
d="M61 78l535 563l-498 498v295h1100v-320h-616l360 -352v-236l-416 -428h688v-315h-1153v295z" />
    <glyph glyph-name="minus" unicode="&#x2212;" 
d="M68 432v297h909v-297h-909z" />
    <glyph glyph-name="radical" unicode="&#x221a;" horiz-adv-x="1329" 
d="M213 631l-76 -37l-117 254l371 180l266 -594l322 1000h340l-467 -1434h-344z" />
    <glyph glyph-name="infinity" unicode="&#x221e;" horiz-adv-x="1779" 
d="M1081 191q-87 46 -194 178q-104 -126 -196 -176t-204 -50q-142 0 -243 68t-152 177q-51 110 -51 233t51 232t152 177t243 68q113 0 204 -48q90 -47 196 -176q108 132 194 177q91 47 203 47q143 0 244 -68q100 -67 151 -177q52 -112 52 -232q0 -121 -52 -233
q-51 -110 -151 -177q-101 -68 -244 -68q-113 0 -203 48zM596 495q45 36 111 126q-64 88 -111 125q-45 36 -92 36q-72 0 -110 -45q-38 -46 -38 -116q0 -75 38 -119q37 -43 110 -43q47 0 92 36zM1176 495q45 -36 92 -36q72 0 109 43q38 44 38 119q0 70 -38 116q-38 45 -109 45
q-47 0 -92 -36q-47 -37 -111 -125q66 -90 111 -126z" />
    <glyph glyph-name="integral" unicode="&#x222b;" horiz-adv-x="845" 
d="M147 76q99 0 99 119v874q0 168 88 266q88 99 254 99h217v-293h-107q-98 0 -98 -119v-875q0 -168 -88 -266t-254 -98h-217v293h106z" />
    <glyph glyph-name="approxequal" unicode="&#x2248;" 
d="M55 43q0 204 69 303q68 98 208 98q68 0 115 -15q45 -14 96 -44q33 -19 47 -25q19 -8 39 -8q84 0 84 90h276q0 -205 -68 -303t-208 -98q-69 0 -116 15q-42 14 -95 44q-33 19 -47 25q-19 8 -39 8q-84 0 -84 -90h-277zM55 535q0 204 69 303q68 98 208 98q68 0 115 -15
q45 -14 96 -44q33 -19 47 -25q19 -8 39 -8q84 0 84 90h276q0 -205 -68 -303q-69 -99 -208 -99q-66 0 -116 16q-42 14 -95 44q-27 16 -47 24q-22 9 -39 9q-84 0 -84 -90h-277z" />
    <glyph glyph-name="notequal" unicode="&#x2260;" 
d="M956 649h-239l-51 -151h290v-297h-387l-53 -164h-360l53 164h-121v297h217l51 151h-268v297h365l51 158h360l-51 -158h143v-297z" />
    <glyph glyph-name="lessequal" unicode="&#x2264;" 
d="M109 705v327l827 330v-340l-434 -154l434 -153v-340zM109 0v297h827v-297h-827z" />
    <glyph glyph-name="greaterequal" unicode="&#x2265;" 
d="M936 1032v-327l-827 -330v340l434 153l-434 154v340zM109 0v297h827v-297h-827z" />
    <glyph glyph-name="dotmath" unicode="&#x22c5;" horiz-adv-x="552" 
d="M130 760q58 57 146 57t147 -57q58 -57 58 -144q0 -86 -58 -143q-59 -57 -147 -57t-146 57t-58 143q0 87 58 144z" />
    <glyph glyph-name="filledbox" unicode="&#x25a0;" horiz-adv-x="1667" 
d="M113 1434h1441v-1434h-1441v1434z" />
    <glyph glyph-name="uni25A1" unicode="&#x25a1;" horiz-adv-x="1665" 
d="M113 1434h1439v-1434h-1439v1434zM471 1108v-780h723v780h-723z" />
    <glyph glyph-name="uni25AF" unicode="&#x25af;" horiz-adv-x="1290" 
d="M113 1434h1065v-1434h-1065v1434zM471 1108v-782h348v782h-348z" />
    <glyph glyph-name="triagup" unicode="&#x25b2;" horiz-adv-x="1708" 
d="M856 1458l838 -1458h-1680z" />
    <glyph glyph-name="uni25B3" unicode="&#x25b3;" horiz-adv-x="1708" 
d="M856 1458l838 -1458h-1680zM854 801l-276 -479h552z" />
    <glyph glyph-name="uni25B6" unicode="&#x25b6;" horiz-adv-x="1005" 
d="M92 1036l914 -524l-914 -524v1048z" />
    <glyph glyph-name="uni25B7" unicode="&#x25b7;" horiz-adv-x="1038" 
d="M92 1073l946 -543l-946 -542v1085zM365 430l182 100l-182 103v-203z" />
    <glyph glyph-name="uni25C0" unicode="&#x25c0;" horiz-adv-x="1005" 
d="M913 1036v-1048l-913 524z" />
    <glyph glyph-name="uni25C1" unicode="&#x25c1;" horiz-adv-x="1038" 
d="M946 1073v-1085l-946 542zM674 430v203l-182 -103z" />
    <glyph glyph-name="lozenge" unicode="&#x25ca;" horiz-adv-x="1386" 
d="M913 1434l402 -717l-402 -717h-440l-401 717l401 717h440zM694 287l211 430l-211 430l-213 -430z" />
    <glyph glyph-name="circle" unicode="&#x25cb;" horiz-adv-x="1605" 
d="M1189 1354q171 -92 267 -258t96 -379t-96 -379t-267 -258q-172 -92 -386 -92t-386 92q-171 92 -267 258q-97 168 -97 379t97 379q96 166 267 258q172 92 386 92t386 -92zM547 1163q-114 -67 -176 -182q-64 -119 -64 -264t64 -264q63 -117 176 -183q111 -65 256 -65
t256 65q113 66 176 183t63 264t-63 264q-62 115 -176 182q-113 66 -256 66t-256 -66z" />
    <glyph glyph-name="uni25CF" unicode="&#x25cf;" horiz-adv-x="1605" 
d="M417 1354q-171 -92 -267 -258q-97 -168 -97 -379t97 -379q96 -166 267 -258q172 -92 386 -92t386 92q171 92 267 258t96 379t-96 379t-267 258q-172 92 -386 92t-386 -92z" />
    <glyph glyph-name="uni25FD" unicode="&#x25fd;" horiz-adv-x="1243" 
d="M92 1057h1059v-1061h-1059v1061zM371 793v-533h499v533h-499z" />
    <glyph glyph-name="uni25FE" unicode="&#x25fe;" horiz-adv-x="1216" 
d="M92 1032h1032v-1032h-1032v1032z" />
    <glyph glyph-name="uni262E" unicode="&#x262e;" horiz-adv-x="1576" 
d="M147 1094q94 165 262 259q167 93 379 93q213 0 380 -93q168 -94 262 -259q94 -166 94 -377t-94 -377q-94 -165 -262 -259q-167 -93 -380 -93q-212 0 -379 93q-168 94 -262 259q-94 166 -94 377t94 377zM653 1130q-139 -40 -217 -149q-80 -112 -80 -264q0 -43 6 -84
l291 291v206zM924 922l288 -291q9 41 9 86q0 152 -80 264q-78 109 -217 149v-208zM924 303q102 29 176 103l-176 178v-281zM479 403q67 -67 174 -100v277z" />
    <glyph glyph-name="uni26AA" unicode="&#x26aa;" horiz-adv-x="1163" 
d="M855 974q122 -69 191 -189q68 -118 68 -269t-68 -269q-69 -120 -191 -189q-120 -68 -273 -68q-154 0 -274 68q-121 69 -190 189t-69 269t69 269t190 189q120 68 274 68q153 0 273 -68zM410 695q-70 -73 -70 -179t70 -179t172 -73t172 73q69 72 69 179t-69 179
q-70 73 -172 73t-172 -73z" />
    <glyph glyph-name="uni26AB" unicode="&#x26ab;" horiz-adv-x="1163" 
d="M855 974q122 -69 191 -189q68 -118 68 -269t-68 -269q-69 -120 -191 -189q-120 -68 -273 -68q-154 0 -274 68q-121 69 -190 189t-69 269t69 269t190 189q120 68 274 68q153 0 273 -68z" />
    <glyph glyph-name="uni2713" unicode="&#x2713;" horiz-adv-x="1933" 
d="M14 715l248 248l471 -467l936 938l250 -248l-1186 -1186z" />
    <glyph glyph-name="uni2715" unicode="&#x2715;" horiz-adv-x="1556" 
d="M311 1434l467 -467l467 467l250 -248l-469 -469l469 -469l-248 -248l-469 469l-469 -469l-248 248l469 469l-469 469z" />
    <glyph glyph-name="uni2780" unicode="&#x2780;" horiz-adv-x="1605" 
d="M1189 1354q171 -92 267 -258t96 -379t-96 -379t-267 -258q-172 -92 -386 -92t-386 92q-171 92 -267 258q-97 168 -97 379t97 379q96 166 267 258q172 92 386 92t386 -92zM547 1163q-114 -67 -176 -182q-64 -119 -64 -264t64 -264q63 -117 176 -183q111 -65 256 -65
t256 65q113 66 176 183t63 264t-63 264q-62 115 -176 182q-113 66 -256 66t-256 -66zM702 344v412h-36h-125v209h108q30 0 44 23q16 26 16 59v43h227v-746h-234z" />
    <glyph glyph-name="uni2781" unicode="&#x2781;" horiz-adv-x="1605" 
d="M1189 1354q171 -92 267 -258t96 -379t-96 -379t-267 -258q-172 -92 -386 -92t-386 92q-171 92 -267 258q-97 168 -97 379t97 379q96 166 267 258q172 92 386 92t386 -92zM547 1163q-114 -67 -176 -182q-64 -119 -64 -264t64 -264q63 -117 176 -183q111 -65 256 -65
t256 65q113 66 176 183t63 264t-63 264q-62 115 -176 182q-113 66 -256 66t-256 -66zM479 805q0 133 88 215t219 82q140 0 230 -73q88 -72 88 -189q0 -76 -36 -125q-36 -50 -95 -88l-115 -74h256v-209h-618v197l295 190q67 43 67 103q0 28 -19 46q-18 17 -48 17
q-37 0 -57 -26q-19 -25 -19 -74v-4h-236v12z" />
    <glyph glyph-name="uni2782" unicode="&#x2782;" horiz-adv-x="1605" 
d="M1189 1354q171 -92 267 -258t96 -379t-96 -379t-267 -258q-172 -92 -386 -92t-386 92q-171 92 -267 258q-97 168 -97 379t97 379q96 166 267 258q172 92 386 92t386 -92zM547 1163q-114 -67 -176 -182q-64 -119 -64 -264t64 -264q63 -117 176 -183q111 -65 256 -65
t256 65q113 66 176 183t63 264t-63 264q-62 115 -176 182q-113 66 -256 66t-256 -66zM579 1032q84 70 226 70q139 0 216 -59t77 -148q0 -61 -36 -103q-37 -43 -91 -59q71 -15 110 -58t39 -110q0 -110 -86 -172q-85 -61 -243 -61q-159 0 -239 70t-85 206h240q4 -37 22 -56
q18 -20 57 -20q34 0 55 15t21 43q0 55 -84 55h-37v154h41q34 0 54 14t20 37q0 25 -16 38t-45 13q-32 0 -49 -16q-16 -15 -21 -45h-233q4 123 87 192z" />
    <glyph glyph-name="uni2783" unicode="&#x2783;" horiz-adv-x="1605" 
d="M1189 1354q171 -92 267 -258t96 -379t-96 -379t-267 -258q-172 -92 -386 -92t-386 92q-171 92 -267 258q-97 168 -97 379t97 379q96 166 267 258q172 92 386 92t386 -92zM547 1163q-114 -67 -176 -182q-64 -119 -64 -264t64 -264q63 -117 176 -183q111 -65 256 -65
t256 65q113 66 176 183t63 264t-63 264q-62 115 -176 182q-113 66 -256 66t-256 -66zM713 1090h297v-390h104v-202h-104v-154h-234v154h-338v202zM776 870l-117 -170h117v170z" />
    <glyph glyph-name="uni2784" unicode="&#x2784;" horiz-adv-x="1605" 
d="M1189 1354q171 -92 267 -258t96 -379t-96 -379t-267 -258q-172 -92 -386 -92t-386 92q-171 92 -267 258q-97 168 -97 379t97 379q96 166 267 258q172 92 386 92t386 -92zM547 1163q-114 -67 -176 -182q-64 -119 -64 -264t64 -264q63 -117 176 -183q111 -65 256 -65
t256 65q113 66 176 183t63 264t-63 264q-62 115 -176 182q-113 66 -256 66t-256 -66zM1057 891h-334l-6 -82q56 41 127 41q112 0 180 -68t68 -180q0 -120 -83 -195t-214 -75q-124 0 -202 68t-89 180h229q6 -19 23 -31t41 -12q25 0 42 17t17 48q0 30 -17 47q-19 19 -44 19
q-40 0 -58 -37h-223l21 459h522v-199z" />
    <glyph glyph-name="uni2785" unicode="&#x2785;" horiz-adv-x="1605" 
d="M1189 1354q171 -92 267 -258t96 -379t-96 -379t-267 -258q-172 -92 -386 -92t-386 92q-171 92 -267 258q-97 168 -97 379t97 379q96 166 267 258q172 92 386 92t386 -92zM547 1163q-114 -67 -176 -182q-64 -119 -64 -264t64 -264q63 -117 176 -183q111 -65 256 -65
t256 65q113 66 176 183t63 264t-63 264q-62 115 -176 182q-113 66 -256 66t-256 -66zM564 993q94 109 245 109q109 0 191 -64q81 -63 98 -172h-226q-5 25 -26 42q-22 18 -55 18q-49 0 -78 -45q-29 -46 -29 -101v-20q49 76 154 76q118 0 192 -69t74 -181q0 -116 -83 -185
t-220 -69q-150 0 -240 102t-90 273q0 178 93 286zM856 638q-20 19 -55 19q-33 0 -53 -19q-21 -20 -21 -52t21 -52q22 -20 53 -20q33 0 55 20q21 20 21 52t-21 52z" />
    <glyph glyph-name="uni2786" unicode="&#x2786;" horiz-adv-x="1605" 
d="M1189 1354q171 -92 267 -258t96 -379t-96 -379t-267 -258q-172 -92 -386 -92t-386 92q-171 92 -267 258q-97 168 -97 379t97 379q96 166 267 258q172 92 386 92t386 -92zM547 1163q-114 -67 -176 -182q-64 -119 -64 -264t64 -264q63 -117 176 -183q111 -65 256 -65
t256 65q113 66 176 183t63 264t-63 264q-62 115 -176 182q-113 66 -256 66t-256 -66zM522 1092h572v-187l-258 -561h-261l259 547h-312v201z" />
    <glyph glyph-name="uni2787" unicode="&#x2787;" horiz-adv-x="1605" 
d="M1189 1354q171 -92 267 -258t96 -379t-96 -379t-267 -258q-172 -92 -386 -92t-386 92q-171 92 -267 258q-97 168 -97 379t97 379q96 166 267 258q172 92 386 92t386 -92zM547 1163q-114 -67 -176 -182q-64 -119 -64 -264t64 -264q63 -117 176 -183q111 -65 256 -65
t256 65q113 66 176 183t63 264t-63 264q-62 115 -176 182q-113 66 -256 66t-256 -66zM623 737q-63 30 -94 69q-29 36 -29 99q0 87 81 142q80 55 222 55q141 0 221 -54t80 -143q0 -63 -30 -100q-31 -38 -93 -68q147 -45 147 -180q0 -100 -86 -163q-84 -62 -239 -62t-242 62
q-88 63 -88 163q0 135 150 180zM858 919q-20 17 -55 17q-37 0 -57 -17q-21 -18 -21 -45t21 -45t57 -18q34 0 54 17q22 19 22 46t-21 45zM863 630q-23 19 -60 19q-40 0 -63 -19t-23 -50q0 -32 23 -51t63 -19q37 0 60 19q24 19 24 51q0 30 -24 50z" />
    <glyph glyph-name="uni2788" unicode="&#x2788;" horiz-adv-x="1605" 
d="M1189 1354q171 -92 267 -258t96 -379t-96 -379t-267 -258q-172 -92 -386 -92t-386 92q-171 92 -267 258q-97 168 -97 379t97 379q96 166 267 258q172 92 386 92t386 -92zM547 1163q-114 -67 -176 -182q-64 -119 -64 -264t64 -264q63 -117 176 -183q111 -65 256 -65
t256 65q113 66 176 183t63 264t-63 264q-62 115 -176 182q-113 66 -256 66t-256 -66zM1046 440q-93 -108 -245 -108q-111 0 -192 63q-80 62 -97 172h225q5 -24 27 -42q21 -17 55 -17q52 0 79 41q28 42 28 104v21q-28 -40 -62 -58t-92 -18q-118 0 -192 69t-74 181
q0 115 83 184q84 70 220 70q149 0 240 -103q90 -102 90 -272q0 -179 -93 -287zM754 796q22 -20 55 -20q31 0 53 20q21 20 21 52t-21 52q-22 20 -53 20q-33 0 -55 -20q-21 -20 -21 -52t21 -52z" />
    <glyph glyph-name="uni278A" unicode="&#x278a;" horiz-adv-x="1605" 
d="M417 1354q-171 -92 -267 -258q-97 -168 -97 -379t97 -379q96 -166 267 -258q172 -92 386 -92t386 92q171 92 267 258t96 379t-96 379t-267 258q-172 92 -386 92t-386 -92zM702 344v412h-36h-125v209h108q30 0 44 23q16 26 16 59v43h227v-746h-234z" />
    <glyph glyph-name="uni278B" unicode="&#x278b;" horiz-adv-x="1605" 
d="M417 1354q-171 -92 -267 -258q-97 -168 -97 -379t97 -379q96 -166 267 -258q172 -92 386 -92t386 92q171 92 267 258t96 379t-96 379t-267 258q-172 92 -386 92t-386 -92zM479 805q0 133 88 215t219 82q140 0 230 -73q88 -72 88 -189q0 -76 -36 -125q-36 -50 -95 -88
l-115 -74h256v-209h-618v197l295 190q67 43 67 103q0 28 -19 46q-18 17 -48 17q-37 0 -57 -26q-19 -25 -19 -74v-4h-236v12z" />
    <glyph glyph-name="uni278C" unicode="&#x278c;" horiz-adv-x="1605" 
d="M417 1354q-171 -92 -267 -258q-97 -168 -97 -379t97 -379q96 -166 267 -258q172 -92 386 -92t386 92q171 92 267 258t96 379t-96 379t-267 258q-172 92 -386 92t-386 -92zM579 1032q84 70 226 70q139 0 216 -59t77 -148q0 -61 -36 -103q-37 -43 -91 -59q71 -15 110 -58
t39 -110q0 -110 -86 -172q-85 -61 -243 -61q-159 0 -239 70t-85 206h240q4 -37 22 -56q18 -20 57 -20q34 0 55 15t21 43q0 55 -84 55h-37v154h41q34 0 54 14t20 37q0 25 -16 38t-45 13q-32 0 -49 -16q-16 -15 -21 -45h-233q4 123 87 192z" />
    <glyph glyph-name="uni278D" unicode="&#x278d;" horiz-adv-x="1605" 
d="M417 1354q-171 -92 -267 -258q-97 -168 -97 -379t97 -379q96 -166 267 -258q172 -92 386 -92t386 92q171 92 267 258t96 379t-96 379t-267 258q-172 92 -386 92t-386 -92zM713 1090h297v-390h104v-202h-104v-154h-234v154h-338v202zM776 870l-117 -170h117v170z" />
    <glyph glyph-name="uni278E" unicode="&#x278e;" horiz-adv-x="1605" 
d="M417 1354q-171 -92 -267 -258q-97 -168 -97 -379t97 -379q96 -166 267 -258q172 -92 386 -92t386 92q171 92 267 258t96 379t-96 379t-267 258q-172 92 -386 92t-386 -92zM1057 891h-334l-6 -82q56 41 127 41q112 0 180 -68t68 -180q0 -120 -83 -195t-214 -75
q-124 0 -202 68t-89 180h229q6 -19 23 -31t41 -12q25 0 42 17t17 48q0 30 -17 47q-19 19 -44 19q-40 0 -58 -37h-223l21 459h522v-199z" />
    <glyph glyph-name="uni278F" unicode="&#x278f;" horiz-adv-x="1605" 
d="M417 1354q-171 -92 -267 -258q-97 -168 -97 -379t97 -379q96 -166 267 -258q172 -92 386 -92t386 92q171 92 267 258t96 379t-96 379t-267 258q-172 92 -386 92t-386 -92zM564 993q94 109 245 109q109 0 191 -64q81 -63 98 -172h-226q-5 25 -26 42q-22 18 -55 18
q-49 0 -78 -45q-29 -46 -29 -101v-20q49 76 154 76q118 0 192 -69t74 -181q0 -116 -83 -185t-220 -69q-150 0 -240 102t-90 273q0 178 93 286zM856 638q-20 19 -55 19q-33 0 -53 -19q-21 -20 -21 -52t21 -52q22 -20 53 -20q33 0 55 20q21 20 21 52t-21 52z" />
    <glyph glyph-name="uni2790" unicode="&#x2790;" horiz-adv-x="1605" 
d="M417 1354q-171 -92 -267 -258q-97 -168 -97 -379t97 -379q96 -166 267 -258q172 -92 386 -92t386 92q171 92 267 258t96 379t-96 379t-267 258q-172 92 -386 92t-386 -92zM522 1092h572v-187l-258 -561h-261l259 547h-312v201z" />
    <glyph glyph-name="uni2791" unicode="&#x2791;" horiz-adv-x="1605" 
d="M417 1354q-171 -92 -267 -258q-97 -168 -97 -379t97 -379q96 -166 267 -258q172 -92 386 -92t386 92q171 92 267 258t96 379t-96 379t-267 258q-172 92 -386 92t-386 -92zM623 737q-63 30 -94 69q-29 36 -29 99q0 87 81 142q80 55 222 55q141 0 221 -54t80 -143
q0 -63 -30 -100q-31 -38 -93 -68q147 -45 147 -180q0 -100 -86 -163q-84 -62 -239 -62t-242 62q-88 63 -88 163q0 135 150 180zM858 919q-20 17 -55 17q-37 0 -57 -17q-21 -18 -21 -45t21 -45t57 -18q34 0 54 17q22 19 22 46t-21 45zM863 630q-23 19 -60 19q-40 0 -63 -19
t-23 -50q0 -32 23 -51t63 -19q37 0 60 19q24 19 24 51q0 30 -24 50z" />
    <glyph glyph-name="uni2792" unicode="&#x2792;" horiz-adv-x="1605" 
d="M417 1354q-171 -92 -267 -258q-97 -168 -97 -379t97 -379q96 -166 267 -258q172 -92 386 -92t386 92q171 92 267 258t96 379t-96 379t-267 258q-172 92 -386 92t-386 -92zM1046 440q-93 -108 -245 -108q-111 0 -192 63q-80 62 -97 172h225q5 -24 27 -42q21 -17 55 -17
q52 0 79 41q28 42 28 104v21q-28 -40 -62 -58t-92 -18q-118 0 -192 69t-74 181q0 115 83 184q84 70 220 70q149 0 240 -103q90 -102 90 -272q0 -179 -93 -287zM754 796q22 -20 55 -20q31 0 53 20q21 20 21 52t-21 52q-22 20 -53 20q-33 0 -55 -20q-21 -20 -21 -52t21 -52z
" />
    <glyph glyph-name="fl" unicode="&#xfb02;" horiz-adv-x="1308" 
d="M158 1057v78q0 139 89 219t253 80h260v-295h-176q-72 0 -72 -70v-12h248v-293h-248v-764h-354v764h-166v293h166zM862 1434h355v-1434h-355v1434z" />
    <glyph glyph-name="u1F10B" unicode="&#x1f10b;" horiz-adv-x="1605" 
d="M1189 1354q171 -92 267 -258t96 -379t-96 -379t-267 -258q-172 -92 -386 -92t-386 92q-171 92 -267 258q-97 168 -97 379t97 379q96 166 267 258q172 92 386 92t386 -92zM547 1163q-114 -67 -176 -182q-64 -119 -64 -264t64 -264q63 -117 176 -183q111 -65 256 -65
t256 65q113 66 176 183t63 264t-63 264q-62 115 -176 182q-113 66 -256 66t-256 -66zM559 1000q89 102 244 102q156 0 244 -102q88 -101 88 -283q0 -183 -88 -284t-244 -101t-244 101t-88 284q0 182 88 283zM871 851q-24 46 -68 46q-45 0 -69 -46q-23 -45 -23 -134t23 -134
q24 -46 69 -46q44 0 68 46q24 47 24 134t-24 134z" />
    <glyph glyph-name="u1F10C" unicode="&#x1f10c;" horiz-adv-x="1605" 
d="M417 1354q-171 -92 -267 -258q-97 -168 -97 -379t97 -379q96 -166 267 -258q172 -92 386 -92t386 92q171 92 267 258t96 379t-96 379t-267 258q-172 92 -386 92t-386 -92zM559 1000q89 102 244 102q156 0 244 -102q88 -101 88 -283q0 -183 -88 -284t-244 -101t-244 101
t-88 284q0 182 88 283zM871 851q-24 46 -68 46q-45 0 -69 -46q-23 -45 -23 -134t23 -134q24 -46 69 -46q44 0 68 46q24 47 24 134t-24 134z" />
    <glyph glyph-name="J.ss06" horiz-adv-x="1308" 
d="M410 575q0 -276 208 -276q110 0 160 69q49 68 49 199v867h379v-859q0 -283 -151 -435t-437 -152q-289 0 -439 147t-148 440h379z" />
    <glyph glyph-name="Jcircumflex.ss06" horiz-adv-x="1308" 
d="M410 575q0 -276 208 -276q110 0 160 69q49 68 49 199v867h379v-859q0 -283 -151 -435t-437 -152q-289 0 -439 147t-148 440h379zM1020 1632l-98 -94h-322l264 297h312l264 -297h-322z" />
    <glyph glyph-name="Q.ss07" horiz-adv-x="1556" 
d="M1431 382q-70 -150 -204 -251l192 -291h-379l-106 162q-64 -14 -156 -14q-212 0 -378 95q-164 94 -256 261q-91 166 -91 373t91 373q92 167 256 261q166 95 378 95t378 -95q164 -94 256 -261q91 -166 91 -373q0 -182 -72 -335zM518 432q80 -114 217 -131l-121 184h379
l39 -59q86 115 86 291q0 181 -93 300q-93 118 -247 118t-247 -118q-93 -119 -93 -300q0 -170 80 -285z" />
    <glyph glyph-name="a.ss01" horiz-adv-x="1271" 
d="M1180 1057v-1057h-316l-26 137q-54 -66 -133 -107q-77 -40 -177 -40q-140 0 -247 67q-108 68 -170 191q-62 124 -62 282q0 160 62 286q62 125 171 191q110 66 246 66q191 0 308 -147l30 131h314zM774 339q55 70 55 187q0 118 -55 189t-153 71t-154 -71q-57 -72 -57 -189
q0 -118 56 -187q57 -71 155 -71q97 0 153 71z" />
    <glyph glyph-name="a.ss02" horiz-adv-x="1144" 
d="M944 972q129 -98 129 -286v-686h-313l-27 121q-61 -68 -132 -101q-70 -32 -173 -32q-176 0 -277 82q-102 83 -102 233q0 172 134 265q135 94 388 94h152v45q0 53 -42 86q-41 32 -114 32q-66 0 -109 -28t-48 -74h-340q15 167 149 256q135 90 361 90q236 0 364 -97z
M667 288q55 58 56 150v4h-150q-78 0 -122 -31q-45 -32 -45 -85q0 -44 31 -69q32 -26 85 -26q91 0 145 57z" />
    <glyph glyph-name="aacute.ss01" horiz-adv-x="1271" 
d="M1180 1057v-1057h-316l-26 137q-54 -66 -133 -107q-77 -40 -177 -40q-140 0 -247 67q-108 68 -170 191q-62 124 -62 282q0 160 62 286q62 125 171 191q110 66 246 66q191 0 308 -147l30 131h314zM774 339q55 70 55 187q0 118 -55 189t-153 71t-154 -71q-57 -72 -57 -189
q0 -118 56 -187q57 -71 155 -71q97 0 153 71zM514 1161l139 297h402l-285 -297h-256z" />
    <glyph glyph-name="aacute.ss02" horiz-adv-x="1144" 
d="M944 972q129 -98 129 -286v-686h-313l-27 121q-61 -68 -132 -101q-70 -32 -173 -32q-176 0 -277 82q-102 83 -102 233q0 172 134 265q135 94 388 94h152v45q0 53 -42 86q-41 32 -114 32q-66 0 -109 -28t-48 -74h-340q15 167 149 256q135 90 361 90q236 0 364 -97z
M667 288q55 58 56 150v4h-150q-78 0 -122 -31q-45 -32 -45 -85q0 -44 31 -69q32 -26 85 -26q91 0 145 57zM457 1161l139 297h401l-284 -297h-256z" />
    <glyph glyph-name="abreve.ss01" horiz-adv-x="1271" 
d="M1180 1057v-1057h-316l-26 137q-54 -66 -133 -107q-77 -40 -177 -40q-140 0 -247 67q-108 68 -170 191q-62 124 -62 282q0 160 62 286q62 125 171 191q110 66 246 66q191 0 308 -147l30 131h314zM774 339q55 70 55 187q0 118 -55 189t-153 71t-154 -71q-57 -72 -57 -189
q0 -118 56 -187q57 -71 155 -71q97 0 153 71zM543 1458q0 -43 25 -68q26 -26 69 -26q40 0 66 26t26 68h246q-7 -139 -103 -225q-95 -86 -241 -86q-145 0 -236 86q-90 85 -96 225h244z" />
    <glyph glyph-name="abreve.ss02" horiz-adv-x="1144" 
d="M944 972q129 -98 129 -286v-686h-313l-27 121q-61 -68 -132 -101q-70 -32 -173 -32q-176 0 -277 82q-102 83 -102 233q0 172 134 265q135 94 388 94h152v45q0 53 -42 86q-41 32 -114 32q-66 0 -109 -28t-48 -74h-340q15 167 149 256q135 90 361 90q236 0 364 -97z
M667 288q55 58 56 150v4h-150q-78 0 -122 -31q-45 -32 -45 -85q0 -44 31 -69q32 -26 85 -26q91 0 145 57zM485 1458q0 -42 26 -68t69 -26q40 0 66 26t26 68h246q-7 -139 -103 -225q-95 -86 -242 -86q-144 0 -235 86q-90 85 -96 225h243z" />
    <glyph glyph-name="acircumflex.ss01" horiz-adv-x="1271" 
d="M1180 1057v-1057h-316l-26 137q-54 -66 -133 -107q-77 -40 -177 -40q-140 0 -247 67q-108 68 -170 191q-62 124 -62 282q0 160 62 286q62 125 171 191q110 66 246 66q191 0 308 -147l30 131h314zM774 339q55 70 55 187q0 118 -55 189t-153 71t-154 -71q-57 -72 -57 -189
q0 -118 56 -187q57 -71 155 -71q97 0 153 71zM637 1255l-98 -94h-322l264 297h312l264 -297h-322z" />
    <glyph glyph-name="acircumflex.ss02" horiz-adv-x="1144" 
d="M944 972q129 -98 129 -286v-686h-313l-27 121q-61 -68 -132 -101q-70 -32 -173 -32q-176 0 -277 82q-102 83 -102 233q0 172 134 265q135 94 388 94h152v45q0 53 -42 86q-41 32 -114 32q-66 0 -109 -28t-48 -74h-340q15 167 149 256q135 90 361 90q236 0 364 -97z
M667 288q55 58 56 150v4h-150q-78 0 -122 -31q-45 -32 -45 -85q0 -44 31 -69q32 -26 85 -26q91 0 145 57zM580 1255l-99 -94h-321l264 297h311l264 -297h-321z" />
    <glyph glyph-name="adieresis.ss01" horiz-adv-x="1271" 
d="M1180 1057v-1057h-316l-26 137q-54 -66 -133 -107q-77 -40 -177 -40q-140 0 -247 67q-108 68 -170 191q-62 124 -62 282q0 160 62 286q62 125 171 191q110 66 246 66q191 0 308 -147l30 131h314zM774 339q55 70 55 187q0 118 -55 189t-153 71t-154 -71q-57 -72 -57 -189
q0 -118 56 -187q57 -71 155 -71q97 0 153 71zM278 1461q53 50 128 50q79 0 129 -49q51 -50 51 -125q0 -73 -51 -123q-50 -49 -129 -49q-76 0 -128 49q-53 50 -53 123q0 74 53 124zM741 1462q50 49 127 49q79 0 129 -49q52 -50 52 -125q0 -73 -52 -123q-50 -49 -129 -49
q-77 0 -127 49q-51 50 -51 123q0 75 51 125z" />
    <glyph glyph-name="adieresis.ss02" horiz-adv-x="1144" 
d="M944 972q129 -98 129 -286v-686h-313l-27 121q-61 -68 -132 -101q-70 -32 -173 -32q-176 0 -277 82q-102 83 -102 233q0 172 134 265q135 94 388 94h152v45q0 53 -42 86q-41 32 -114 32q-66 0 -109 -28t-48 -74h-340q15 167 149 256q135 90 361 90q236 0 364 -97z
M667 288q55 58 56 150v4h-150q-78 0 -122 -31q-45 -32 -45 -85q0 -44 31 -69q32 -26 85 -26q91 0 145 57zM220 1461q53 50 128 50q79 0 129 -49q51 -50 51 -125q0 -73 -51 -123q-50 -49 -129 -49q-76 0 -128 49t-52 123q0 75 52 124zM684 1462q50 49 127 49q79 0 129 -49
q51 -50 51 -125q0 -73 -51 -123q-50 -49 -129 -49q-77 0 -127 49q-51 50 -51 123q0 75 51 125z" />
    <glyph glyph-name="agrave.ss01" horiz-adv-x="1271" 
d="M1180 1057v-1057h-316l-26 137q-54 -66 -133 -107q-77 -40 -177 -40q-140 0 -247 67q-108 68 -170 191q-62 124 -62 282q0 160 62 286q62 125 171 191q110 66 246 66q191 0 308 -147l30 131h314zM774 339q55 70 55 187q0 118 -55 189t-153 71t-154 -71q-57 -72 -57 -189
q0 -118 56 -187q57 -71 155 -71q97 0 153 71zM229 1458h402l129 -303h-262z" />
    <glyph glyph-name="agrave.ss02" horiz-adv-x="1144" 
d="M944 972q129 -98 129 -286v-686h-313l-27 121q-61 -68 -132 -101q-70 -32 -173 -32q-176 0 -277 82q-102 83 -102 233q0 172 134 265q135 94 388 94h152v45q0 53 -42 86q-41 32 -114 32q-66 0 -109 -28t-48 -74h-340q15 167 149 256q135 90 361 90q236 0 364 -97z
M667 288q55 58 56 150v4h-150q-78 0 -122 -31q-45 -32 -45 -85q0 -44 31 -69q32 -26 85 -26q91 0 145 57zM172 1458h401l129 -303h-262z" />
    <glyph glyph-name="amacron.ss01" horiz-adv-x="1271" 
d="M1180 1057v-1057h-316l-26 137q-54 -66 -133 -107q-77 -40 -177 -40q-140 0 -247 67q-108 68 -170 191q-62 124 -62 282q0 160 62 286q62 125 171 191q110 66 246 66q191 0 308 -147l30 131h314zM774 339q55 70 55 187q0 118 -55 189t-153 71t-154 -71q-57 -72 -57 -189
q0 -118 56 -187q57 -71 155 -71q97 0 153 71zM299 1212v246h676v-246h-676z" />
    <glyph glyph-name="amacron.ss02" horiz-adv-x="1144" 
d="M944 972q129 -98 129 -286v-686h-313l-27 121q-61 -68 -132 -101q-70 -32 -173 -32q-176 0 -277 82q-102 83 -102 233q0 172 134 265q135 94 388 94h152v45q0 53 -42 86q-41 32 -114 32q-66 0 -109 -28t-48 -74h-340q15 167 149 256q135 90 361 90q236 0 364 -97z
M667 288q55 58 56 150v4h-150q-78 0 -122 -31q-45 -32 -45 -85q0 -44 31 -69q32 -26 85 -26q91 0 145 57zM242 1212v246h676v-246h-676z" />
    <glyph glyph-name="aogonek.ss01" horiz-adv-x="1271" 
d="M1051 -178h131v-232h-197q-113 0 -189 58q-75 57 -75 155q0 71 36 127q38 59 101 103l-20 104q-54 -66 -133 -107q-77 -40 -177 -40q-140 0 -247 67q-108 68 -170 191q-62 124 -62 282q0 160 62 286q62 125 171 191q110 66 246 66q191 0 308 -147l30 131h314v-1057h2
q-98 -39 -140 -71q-45 -35 -45 -68q0 -39 54 -39zM774 339q55 70 55 187q0 118 -55 189t-153 71t-154 -71q-57 -72 -57 -189q0 -118 56 -187q57 -71 155 -71q97 0 153 71z" />
    <glyph glyph-name="aogonek.ss02" horiz-adv-x="1144" 
d="M934 -71q-45 -35 -45 -68q0 -39 53 -39h131v-232h-196q-114 0 -190 58q-75 57 -75 155q0 131 140 232l-19 86q-61 -68 -132 -101q-70 -32 -173 -32q-176 0 -277 82q-102 83 -102 233q0 172 134 265q135 94 388 94h152v45q0 53 -42 86q-41 32 -114 32q-66 0 -109 -28
t-48 -74h-340q15 167 149 256q135 90 361 90q236 0 364 -97q129 -98 129 -286v-686q-96 -38 -139 -71zM667 288q55 58 56 150v4h-150q-78 0 -122 -31q-45 -32 -45 -85q0 -44 31 -69q32 -26 85 -26q91 0 145 57z" />
    <glyph glyph-name="aring.ss01" horiz-adv-x="1271" 
d="M1180 1057v-1057h-316l-26 137q-54 -66 -133 -107q-77 -40 -177 -40q-140 0 -247 67q-108 68 -170 191q-62 124 -62 282q0 160 62 286q62 125 171 191q110 66 246 66q191 0 308 -147l30 131h314zM774 339q55 70 55 187q0 118 -55 189t-153 71t-154 -71q-57 -72 -57 -189
q0 -118 56 -187q57 -71 155 -71q97 0 153 71zM392 1516q37 58 103 94q65 35 142 35t142 -35q66 -36 103 -94q38 -61 38 -130q0 -70 -38 -131q-37 -58 -103 -94q-65 -35 -142 -35t-142 35q-66 36 -103 94q-38 61 -38 131q0 69 38 130zM718 1466q-34 33 -81 33t-81 -33
t-34 -80q0 -48 34 -81t81 -33t81 33t34 81q0 47 -34 80z" />
    <glyph glyph-name="aring.ss02" horiz-adv-x="1144" 
d="M944 972q129 -98 129 -286v-686h-313l-27 121q-61 -68 -132 -101q-70 -32 -173 -32q-176 0 -277 82q-102 83 -102 233q0 172 134 265q135 94 388 94h152v45q0 53 -42 86q-41 32 -114 32q-66 0 -109 -28t-48 -74h-340q15 167 149 256q135 90 361 90q236 0 364 -97z
M667 288q55 58 56 150v4h-150q-78 0 -122 -31q-45 -32 -45 -85q0 -44 31 -69q32 -26 85 -26q91 0 145 57zM335 1516q37 59 102 94t143 35q77 0 142 -35t102 -94q38 -61 38 -130q0 -70 -38 -131q-37 -59 -102 -94t-142 -35q-78 0 -143 35t-102 94q-38 61 -38 131q0 69 38 130
zM660 1466q-34 33 -80 33t-81 -33q-34 -33 -34 -80q0 -48 34 -81q35 -33 81 -33t80 33t34 81q0 47 -34 80z" />
    <glyph glyph-name="atilde.ss01" horiz-adv-x="1271" 
d="M1180 1057v-1057h-316l-26 137q-54 -66 -133 -107q-77 -40 -177 -40q-140 0 -247 67q-108 68 -170 191q-62 124 -62 282q0 160 62 286q62 125 171 191q110 66 246 66q191 0 308 -147l30 131h314zM774 339q55 70 55 187q0 118 -55 189t-153 71t-154 -71q-57 -72 -57 -189
q0 -118 56 -187q57 -71 155 -71q97 0 153 71zM520 1229q-18 -21 -18 -49h-203v51q0 104 59 169q60 66 148 66q39 0 66 -12q29 -13 55 -33q28 -17 43 -24q18 -8 39 -8q27 0 46 20t19 49h201v-51q0 -100 -59 -168t-146 -68q-41 0 -70 13q-23 10 -61 35q-43 30 -72 30
q-30 0 -47 -20z" />
    <glyph glyph-name="atilde.ss02" horiz-adv-x="1144" 
d="M944 972q129 -98 129 -286v-686h-313l-27 121q-61 -68 -132 -101q-70 -32 -173 -32q-176 0 -277 82q-102 83 -102 233q0 172 134 265q135 94 388 94h152v45q0 53 -42 86q-41 32 -114 32q-66 0 -109 -28t-48 -74h-340q15 167 149 256q135 90 361 90q236 0 364 -97z
M667 288q55 58 56 150v4h-150q-78 0 -122 -31q-45 -32 -45 -85q0 -44 31 -69q32 -26 85 -26q91 0 145 57zM463 1229q-19 -22 -19 -49h-202v51q0 104 59 169q60 66 148 66q39 0 66 -12t54 -33q28 -17 43 -24q18 -8 39 -8q27 0 46 20q20 22 20 49h201v-51q0 -100 -59 -168
t-146 -68q-41 0 -70 13q-23 10 -61 35q-44 30 -72 30q-30 0 -47 -20z" />
    <glyph glyph-name="f.calt" horiz-adv-x="704" 
d="M181 1354q89 80 253 80h260v-295h-176q-72 0 -72 -70v-12h248v-293h-248v-764h-354v1135q0 139 89 219z" />
    <glyph glyph-name="i.ss03" horiz-adv-x="628" 
d="M502 1460q57 -56 57 -137t-57 -137q-58 -56 -142 -56q-83 0 -141 56q-57 56 -57 137t57 137q58 56 141 56q84 0 142 -56zM182 764h-172v293h529v-1057h-357v764z" />
    <glyph glyph-name="dotlessi.ss03" horiz-adv-x="630" 
d="M10 1057h529v-1057h-357v764h-172v293z" />
    <glyph glyph-name="iacute.ss03" horiz-adv-x="630" 
d="M10 1057h529v-1057h-357v764h-172v293zM221 1159l139 297h402l-285 -297h-256z" />
    <glyph glyph-name="ibreve.ss03" horiz-adv-x="630" 
d="M10 1057h529v-1057h-357v764h-172v293zM250 1456q0 -43 25 -68q26 -26 69 -26q41 0 67 26q25 25 25 68h246q-8 -140 -102 -225q-95 -86 -242 -86q-145 0 -236 86q-90 85 -96 225h244z" />
    <glyph glyph-name="icircumflex.ss03" horiz-adv-x="630" 
d="M10 1057h529v-1057h-357v764h-172v293zM344 1253l-98 -94h-322l264 297h312l264 -297h-322z" />
    <glyph glyph-name="idieresis.ss03" horiz-adv-x="630" 
d="M10 1057h529v-1057h-357v764h-172v293zM-15 1459q53 50 128 50q79 0 129 -49q51 -50 51 -125q0 -73 -51 -123q-50 -49 -129 -49q-76 0 -128 49q-53 50 -53 123q0 74 53 124zM449 1460q50 49 126 49q80 0 130 -49q51 -50 51 -125q0 -73 -51 -123q-50 -49 -130 -49
q-76 0 -126 49q-52 50 -52 123q0 75 52 125z" />
    <glyph glyph-name="i.loclTRK" horiz-adv-x="540" 
d="M92 1057h357v-1057h-357v1057zM129 1489q56 55 141 55q86 0 142 -55q57 -55 57 -137t-57 -138q-56 -55 -142 -55q-85 0 -141 55q-57 56 -57 138t57 137z" />
    <glyph glyph-name="i.loclTRK.ss03" horiz-adv-x="630" 
d="M10 1057h529v-1057h-357v764h-172v293zM203 1487q56 55 141 55t141 -55q58 -56 58 -137q0 -82 -58 -138q-56 -55 -141 -55t-141 55q-58 56 -58 138q0 81 58 137z" />
    <glyph glyph-name="igrave.ss03" horiz-adv-x="630" 
d="M10 1057h529v-1057h-357v764h-172v293zM-63 1456h401l129 -303h-262z" />
    <glyph glyph-name="ij.ss03" horiz-adv-x="1181" 
d="M412 1460q57 -56 57 -137t-57 -137q-58 -56 -142 -56q-83 0 -141 56q-57 56 -57 137t57 137q58 56 141 56q84 0 142 -56zM92 1057h354v-1057h-354v1057zM772 1458q56 55 141 55q86 0 142 -55q57 -56 57 -137t-57 -137q-58 -56 -142 -56q-83 0 -141 56q-57 56 -57 137
t57 137zM616 -117q117 0 117 115v766h-172v293h529v-1123q0 -152 -93 -248t-252 -96h-217v293h88z" />
    <glyph glyph-name="ij.ss04" horiz-adv-x="1077" 
d="M412 1460q57 -56 57 -137t-57 -137q-58 -56 -142 -56q-83 0 -141 56q-57 56 -57 137t57 137q58 56 141 56q84 0 142 -56zM92 1057h354v-1057h-354v1057zM668 1460q58 56 141 56t141 -56t58 -137t-58 -137t-141 -56t-141 56t-58 137t58 137zM631 1057h356v-1467h-356v1467
z" />
    <glyph glyph-name="imacron.ss01" horiz-adv-x="630" 
d="M10 1057h529v-1057h-357v764h-172v293zM6 1210v246h676v-246h-676z" />
    <glyph glyph-name="iogonek.ss03" horiz-adv-x="628" 
d="M219 1186q-57 56 -57 137t57 137q58 56 141 56q84 0 142 -56q57 -56 57 -137t-57 -137q-58 -56 -142 -56q-83 0 -141 56zM10 1057h529v-1057q-98 -39 -140 -71q-45 -35 -45 -68q0 -39 54 -39h131v-232h-197q-113 0 -189 58q-75 57 -75 155q0 116 104 205v756h-172v293z
" />
    <glyph glyph-name="itilde.ss03" horiz-adv-x="630" 
d="M10 1057h529v-1057h-357v764h-172v293zM227 1227q-18 -21 -18 -49h-203v51q0 103 60 169t147 66q40 0 67 -12t54 -33q28 -17 43 -24q20 -9 39 -9q26 0 46 21q19 20 19 49h201v-51q0 -101 -58 -168q-59 -68 -147 -68q-40 0 -69 13q-26 12 -62 35q-44 30 -72 30
q-30 0 -47 -20z" />
    <glyph glyph-name="j.short" horiz-adv-x="546" 
d="M137 1460q58 56 142 56q83 0 141 -56q57 -56 57 -137t-57 -137q-58 -56 -141 -56q-84 0 -142 56q-57 56 -57 137t57 137zM4 -117q98 0 98 119v1055h355v-1123q0 -153 -86 -248q-87 -96 -236 -96h-162v293h31z" />
    <glyph glyph-name="j.ss03" horiz-adv-x="643" 
d="M233 1458q56 55 142 55q85 0 141 -55q57 -56 57 -137t-57 -137q-58 -56 -141 -56q-84 0 -142 56q-57 56 -57 137t57 137zM78 -117q117 0 117 115v766h-172v293h528v-1123q0 -153 -92 -248q-93 -96 -252 -96h-217v293h88z" />
    <glyph glyph-name="j.ss04" horiz-adv-x="538" 
d="M129 1460q58 56 141 56q84 0 142 -56q57 -56 57 -137t-57 -137q-58 -56 -142 -56q-83 0 -141 56q-57 56 -57 137t57 137zM92 1057h357v-1467h-357v1467z" />
    <glyph glyph-name="uni0237.short" horiz-adv-x="548" 
d="M4 -117q98 0 98 119v1055h355v-1123q0 -153 -86 -248q-87 -96 -236 -96h-162v293h31z" />
    <glyph glyph-name="uni0237.ss03" horiz-adv-x="643" 
d="M78 -117q117 0 117 115v766h-172v293h528v-1123q0 -153 -92 -248q-93 -96 -252 -96h-217v293h88z" />
    <glyph glyph-name="uni0237.ss04" horiz-adv-x="540" 
d="M92 1057h357v-1467h-357v1467z" />
    <glyph glyph-name="jcircumflex.short" horiz-adv-x="548" 
d="M4 -117q98 0 98 119v1055h355v-1123q0 -153 -86 -248q-87 -96 -236 -96h-162v293h31zM272 1255l-98 -94h-321l264 297h311l264 -297h-321z" />
    <glyph glyph-name="jcircumflex.ss03" horiz-adv-x="643" 
d="M78 -117q117 0 117 115v766h-172v293h528v-1123q0 -153 -92 -248q-93 -96 -252 -96h-217v293h88zM375 1255l-99 -94h-321l264 297h311l265 -297h-322z" />
    <glyph glyph-name="jcircumflex.ss04" horiz-adv-x="540" 
d="M92 1057h357v-1467h-357v1467zM272 1255l-98 -94h-321l264 297h311l264 -297h-321z" />
    <glyph glyph-name="t.calt" horiz-adv-x="704" 
d="M92 1354h354v-297h228v-293h-228v-375q0 -51 23 -74q22 -22 74 -22h131v-293h-264q-152 0 -235 81t-83 236v1037z" />
    <glyph glyph-name="t.ss05" horiz-adv-x="743" 
d="M-8 1057h166v297h354v-297h211v-293h-211v-764h-354v764h-166v293z" />
    <glyph glyph-name="tbar.calt" horiz-adv-x="704" 
d="M446 764v-94h228v-246h-228v-35q0 -51 23 -74q22 -22 74 -22h131v-293h-264q-152 0 -235 81t-83 236v1037h354v-297h228v-293h-228z" />
    <glyph glyph-name="tbar.ss05" horiz-adv-x="796" 
d="M756 764h-217v-119h217v-246h-217v-399h-357v399h-172v246h172v119h-172v293h172v297h357v-297h217v-293z" />
    <glyph glyph-name="tcaron.calt" horiz-adv-x="745" 
d="M92 1354h354v-297h228v-293h-228v-375q0 -51 23 -74q22 -22 74 -22h131v-293h-264q-152 0 -235 81t-83 236v1037zM573 1434h330l-149 -306h-248z" />
    <glyph glyph-name="tcaron.ss05" horiz-adv-x="835" 
d="M-8 1057h166v297h354v-297h211v-293h-211v-764h-354v764h-166v293zM647 1434h330l-150 -306h-247z" />
    <glyph glyph-name="uni0163.calt" horiz-adv-x="704" 
d="M92 1354h354v-297h228v-293h-228v-375q0 -51 23 -74q22 -22 74 -22h131v-293h-264q-152 0 -235 81t-83 236v1037zM215 -96h342l-188 -303h-269z" />
    <glyph glyph-name="uni0163.ss05" horiz-adv-x="743" 
d="M-8 1057h166v297h354v-297h211v-293h-211v-764h-354v764h-166v293zM162 -96h342l-189 -303h-268z" />
    <glyph glyph-name="uni021B.calt" horiz-adv-x="704" 
d="M92 1354h354v-297h228v-293h-228v-375q0 -51 23 -74q22 -22 74 -22h131v-293h-264q-152 0 -235 81t-83 236v1037zM215 -96h342l-188 -303h-269z" />
    <glyph glyph-name="uni021B.ss05" horiz-adv-x="743" 
d="M-8 1057h166v297h354v-297h211v-293h-211v-764h-354v764h-166v293zM162 -96h342l-189 -303h-268z" />
    <glyph glyph-name="y.ss01" horiz-adv-x="1226" 
d="M1135 1057v-1037q0 -196 -137 -319q-136 -123 -423 -123q-227 0 -363 97q-135 97 -140 282h356q17 -63 58 -93q42 -30 120 -30q85 0 134 49q51 51 51 137v125q-59 -71 -128 -107t-171 -36q-420 0 -420 496v559h354v-510q0 -133 38 -194q38 -60 130 -60q90 0 138 63
t48 191v510h355z" />
    <glyph glyph-name="yacute.ss01" horiz-adv-x="1226" 
d="M1135 1057v-1037q0 -196 -137 -319q-136 -123 -423 -123q-227 0 -363 97q-135 97 -140 282h356q17 -63 58 -93q42 -30 120 -30q85 0 134 49q51 51 51 137v125q-59 -71 -128 -107t-171 -36q-420 0 -420 496v559h354v-510q0 -133 38 -194q38 -60 130 -60q90 0 138 63
t48 191v510h355zM481 1161l140 297h401l-285 -297h-256z" />
    <glyph glyph-name="ycircumflex.ss01" horiz-adv-x="1226" 
d="M1135 1057v-1037q0 -196 -137 -319q-136 -123 -423 -123q-227 0 -363 97q-135 97 -140 282h356q17 -63 58 -93q42 -30 120 -30q85 0 134 49q51 51 51 137v125q-59 -71 -128 -107t-171 -36q-420 0 -420 496v559h354v-510q0 -133 38 -194q38 -60 130 -60q90 0 138 63
t48 191v510h355zM604 1255l-98 -94h-322l265 297h311l264 -297h-322z" />
    <glyph glyph-name="ydieresis.ss01" horiz-adv-x="1226" 
d="M1135 1057v-1037q0 -196 -137 -319q-136 -123 -423 -123q-227 0 -363 97q-135 97 -140 282h356q17 -63 58 -93q42 -30 120 -30q85 0 134 49q51 51 51 137v125q-59 -71 -128 -107t-171 -36q-420 0 -420 496v559h354v-510q0 -133 38 -194q38 -60 130 -60q90 0 138 63
t48 191v510h355zM245 1461q53 50 128 50q79 0 129 -49q51 -50 51 -125q0 -73 -51 -123q-50 -49 -129 -49q-76 0 -128 49t-52 123q0 75 52 124zM709 1462q50 49 127 49q79 0 129 -49q51 -50 51 -125q0 -73 -51 -123q-50 -49 -129 -49q-77 0 -127 49q-52 50 -52 123
q0 75 52 125z" />
    <glyph glyph-name="ygrave.ss01" horiz-adv-x="1226" 
d="M1135 1057v-1037q0 -196 -137 -319q-136 -123 -423 -123q-227 0 -363 97q-135 97 -140 282h356q17 -63 58 -93q42 -30 120 -30q85 0 134 49q51 51 51 137v125q-59 -71 -128 -107t-171 -36q-420 0 -420 496v559h354v-510q0 -133 38 -194q38 -60 130 -60q90 0 138 63
t48 191v510h355zM197 1458h401l129 -303h-262z" />
    <glyph glyph-name="w_w_w" horiz-adv-x="4474" 
d="M4123 1057h362l-346 -1057h-373l-147 559l-150 -559h-374l-168 508l-166 -508h-373l-147 559l-150 -559h-375l-168 508l-166 -508h-372l-148 559l-149 -559h-375l-348 1057h375l186 -684l158 684h315l156 -686l186 686h377l186 -684l158 684h315l156 -686l186 686h377
l187 -684l157 684h316l155 -686z" />
    <glyph glyph-name="zero.osf" horiz-adv-x="1277" 
d="M124 809q74 121 209 191q133 69 306 69t306 -69q135 -70 209 -191q75 -123 75 -281q0 -157 -75 -280t-209 -192q-132 -68 -306 -68t-306 68q-134 69 -209 192t-75 280q0 158 75 281zM804 707q-64 69 -165 69t-165 -69q-64 -68 -64 -179q0 -110 64 -178q64 -69 165 -69
t165 69q64 68 64 178q0 111 -64 179z" />
    <glyph glyph-name="one.osf" horiz-adv-x="747" 
d="M195 858q55 0 85 43q29 42 29 109v47h346v-1057h-354v571h-108h-173v287h175z" />
    <glyph glyph-name="two.osf" horiz-adv-x="1091" 
d="M596 276h444v-276h-985v260l445 221q94 46 137 88q45 43 45 97q0 57 -39 90q-38 32 -104 32q-68 0 -110 -43t-42 -114v-23h-350v23q0 121 60 221t176 159q115 58 274 58q146 0 260 -50q111 -49 174 -139q61 -88 61 -206q0 -92 -63 -174t-168 -129z" />
    <glyph glyph-name="three.osf" horiz-adv-x="1196" 
d="M1147 37q0 -123 -67 -219q-66 -94 -192 -147q-125 -52 -294 -52q-261 0 -412 136t-151 378h358q2 -115 58 -179q57 -65 147 -65q78 0 135 48q55 46 55 120q0 71 -50 115q-49 43 -144 43h-131v274h112q90 0 139 41q48 40 48 111q0 77 -47 118q-46 40 -123 40
q-74 0 -124 -53t-54 -142h-351q1 215 147 341q143 124 388 124q252 0 387 -104q137 -105 137 -283q0 -233 -289 -315q318 -77 318 -330z" />
    <glyph glyph-name="four.osf" horiz-adv-x="1218" 
d="M598 1057h440v-766h160v-291h-160v-369h-338v369h-669v291zM700 733l-317 -442h317v442z" />
    <glyph glyph-name="five.osf" horiz-adv-x="1212" 
d="M935 530q107 -62 169 -176q61 -112 61 -252q0 -153 -72 -263q-71 -109 -198 -165q-123 -55 -279 -55q-162 0 -281 59q-124 61 -190 164q-67 104 -73 234h358q10 -75 62 -125q50 -49 126 -49q83 0 134 58t51 146t-51 147q-51 58 -134 58q-118 0 -178 -123h-350l37 869h952
v-297h-645l-10 -266q58 54 123 77q64 23 149 23q129 0 239 -64z" />
    <glyph glyph-name="six.osf" horiz-adv-x="1232" 
d="M1018 1312q138 -111 162 -313h-355q-50 140 -192 140q-117 0 -177 -81q-61 -82 -61 -235v-20l21 24q59 59 127 83q67 24 162 24q141 0 249 -60q111 -62 169 -166q61 -110 61 -245q0 -139 -73 -249q-71 -106 -199 -167q-124 -59 -281 -59q-268 0 -436 196q-71 83 -109 217
q-37 132 -37 291q0 350 160 540q159 189 442 189q231 0 367 -109zM504 606q-53 -58 -53 -143q0 -88 52 -144q53 -57 134 -57q82 0 134 56t52 143q0 88 -51 145q-52 58 -133 58q-82 0 -135 -58z" />
    <glyph glyph-name="seven.osf" horiz-adv-x="1124" 
d="M31 1057h1052v-279l-573 -1147h-391l571 1131h-659v295z" />
    <glyph glyph-name="eight.osf" horiz-adv-x="1224" 
d="M1097 622q79 -85 79 -237q0 -181 -147 -289t-417 -108q-269 0 -416 108t-147 289q0 147 79 232t202 118q-104 33 -172 111q-68 79 -68 203q0 109 62 194t179 131q120 47 281 47q162 0 282 -47q117 -46 179 -131t62 -194q0 -115 -70 -199q-69 -83 -172 -113
q125 -30 204 -115zM490 1144q-46 -42 -46 -112q0 -71 46 -114q47 -44 122 -44t122 44q46 43 46 114q0 70 -46 112t-122 42t-122 -42zM758 282q57 52 57 134t-57 136t-146 54q-88 0 -145 -54t-57 -136t57 -134q58 -53 145 -53q88 0 146 53z" />
    <glyph glyph-name="nine.osf" horiz-adv-x="1232" 
d="M1147 651q37 -132 37 -291q0 -355 -160 -548t-442 -193q-230 0 -367 110q-138 111 -162 312h355q49 -139 192 -139q117 0 177 84q61 85 61 243v21q-15 -19 -27 -31q-100 -100 -283 -100q-143 0 -249 59q-110 61 -169 167q-61 110 -61 245q0 139 73 249q71 106 199 167
q124 59 281 59q268 0 436 -197q71 -83 109 -217zM461 446q51 -57 133 -57t135 57q53 58 53 144q0 87 -52 143q-53 58 -134 58q-82 0 -134 -57q-52 -56 -52 -142q0 -89 51 -146z" />
    <glyph glyph-name="one.osf.ss08" horiz-adv-x="1228" 
d="M1174 293v-293h-996v293h328v278h-109h-213v287h215q55 0 85 43q30 44 30 109v47h346v-764h314z" />
    <glyph glyph-name="seven.osf.ss08" horiz-adv-x="1157" 
d="M51 1057h1065v-279l-573 -1147h-391l571 1131h-365v-195h-307v490z" />
    <glyph glyph-name="four.osf.ss09" horiz-adv-x="1150" 
d="M618 1057h441v-1426h-338v369h-690v291zM721 737l-330 -446h330v446z" />
    <glyph glyph-name="zero.osf.zero" horiz-adv-x="1277" 
d="M945 1000q135 -70 209 -191q75 -123 75 -281q0 -157 -75 -280t-209 -192q-132 -68 -306 -68t-306 68q-134 69 -209 192t-75 280q0 158 75 281q74 121 209 191q133 69 306 69t306 -69zM467 715q-66 -72 -66 -187q0 -51 17 -102l327 338q-50 22 -106 22q-107 0 -172 -71z
M811 342q66 72 66 186q0 54 -17 105l-325 -340q51 -23 104 -23q106 0 172 72z" />
    <glyph glyph-name="one.ss08" horiz-adv-x="1228" 
d="M1104 299v-299h-1000v295l320 2v565h-68h-243v293h202q55 0 85 45t30 111v123h354v-1137z" />
    <glyph glyph-name="seven.ss08" horiz-adv-x="1134" 
d="M1094 1434v-228l-559 -1206h-373l555 1135h-352v-191h-304v490h1033z" />
    <glyph glyph-name="four.ss09" horiz-adv-x="1222" 
d="M649 1434h463v-1434h-360v287h-711v301zM752 1094l-371 -506h371v506z" />
    <glyph glyph-name="zero.tf" horiz-adv-x="1228" 
d="M39 752q0 202 70 362q69 158 199 246t306 88q177 0 307 -88t199 -246q70 -160 70 -362v-66q0 -202 -70 -362q-69 -158 -199 -246t-307 -88q-176 0 -306 88t-199 246q-70 160 -70 362v66zM829 739q0 189 -53 303q-53 113 -162 113q-108 0 -161 -113q-54 -116 -54 -303v-41
q0 -187 54 -303q52 -112 161 -112q110 0 162 112q53 114 53 303v41z" />
    <glyph glyph-name="one.tf" horiz-adv-x="1228" 
d="M1139 299v-299h-1000v295l320 2v565h-68h-244v293h203q55 0 85 45t30 111v123h354v-1137z" />
    <glyph glyph-name="two.tf" horiz-adv-x="1191" 
d="M598 705q93 75 137 136q43 59 43 128q0 87 -50 134q-49 46 -134 46q-78 0 -129 -58q-51 -59 -51 -155v-21h-365v41q0 137 68 249t191 177q125 66 286 66q264 0 406 -127q143 -128 143 -338q0 -146 -70 -254q-69 -107 -219 -225l-262 -207h557v-297h-1088v272z" />
    <glyph glyph-name="three.tf" horiz-adv-x="1261" 
d="M1184 401q0 -124 -71 -218q-71 -93 -201 -144t-306 -51q-266 0 -421 135q-154 135 -154 373h358q1 -108 68 -171q66 -63 170 -63q82 0 136 45t54 125q0 71 -54 112q-53 40 -159 40h-153v282h133q99 0 151 43q53 44 53 117q0 72 -46 109q-45 36 -121 36q-87 0 -143 -49
q-55 -48 -60 -135h-350q2 213 147 336t391 123q260 0 403 -104q142 -103 142 -281q0 -126 -79 -202t-208 -109q320 -78 320 -349z" />
    <glyph glyph-name="four.tf" horiz-adv-x="1300" 
d="M0 578l588 856h448v-856h183v-293h-183v-285h-352v285h-684v293zM332 578h352v518z" />
    <glyph glyph-name="five.tf" horiz-adv-x="1232" 
d="M945 923q112 -64 176 -175q65 -113 65 -259q0 -161 -75 -275q-74 -112 -203 -170q-125 -56 -287 -56q-166 0 -292 63t-197 173t-77 245h359q11 -85 68 -139q59 -56 139 -56q82 0 142 57t60 158q0 95 -56 157q-57 63 -146 63q-59 0 -118 -31q-56 -30 -79 -96h-350l37 852
h989v-297h-660l-10 -244q112 92 268 92q138 0 247 -62z" />
    <glyph glyph-name="six.tf" horiz-adv-x="1277" 
d="M39 698q0 365 165 557q166 193 451 193q137 0 252 -50q114 -50 190 -148q74 -97 91 -232h-354q-18 72 -74 110q-55 37 -135 37q-115 0 -176 -85q-62 -86 -62 -255v-16l23 27q51 62 132 96q82 35 171 35q144 0 255 -63q112 -63 173 -174q61 -110 61 -253q0 -147 -69 -258
q-69 -110 -196 -171q-126 -60 -290 -60q-151 0 -268 55q-120 56 -199 162q-141 191 -141 493zM787 634q-53 62 -140 62q-88 0 -143 -61t-55 -156q0 -94 55 -155q56 -62 141 -62t141 62t56 153q0 93 -55 157z" />
    <glyph glyph-name="seven.tf" horiz-adv-x="1132" 
d="M80 1434h1071v-228l-590 -1206h-391l584 1135h-674v299z" />
    <glyph glyph-name="eight.tf" horiz-adv-x="1253" 
d="M1109 635q83 -91 83 -244q0 -182 -149 -293q-147 -110 -420 -110q-276 0 -422 109q-148 110 -148 294q0 153 82 242q83 90 207 117q-107 33 -177 112q-71 80 -71 207q0 113 63 199q64 87 181 133q120 47 285 47q164 0 284 -47q118 -46 182 -133q62 -84 62 -199
q0 -119 -72 -202q-72 -82 -176 -115q124 -27 206 -117zM498 1160q-49 -43 -49 -111q0 -70 48 -115t126 -45t126 45t48 115q0 68 -49 111q-50 44 -125 44t-125 -44zM771 284q60 54 60 134q0 82 -60 137q-59 55 -148 55q-90 0 -149 -55q-60 -55 -60 -137q0 -80 60 -134
q61 -55 149 -55q87 0 148 55z" />
    <glyph glyph-name="nine.tf" horiz-adv-x="1277" 
d="M1202 737q0 -365 -158 -558q-157 -191 -458 -191q-237 0 -377 110q-142 112 -166 320h354q17 -73 72 -110q56 -38 137 -38q118 0 180 87q62 88 62 253v21q-28 -37 -43 -49q-105 -105 -277 -105q-145 0 -256 60q-110 60 -172 168q-61 107 -61 251q0 142 70 255
q69 111 195 174t290 63q282 0 446 -193q162 -190 162 -518zM454 808q54 -60 140 -60q88 0 143 60q56 61 56 153q0 91 -56 152t-141 61q-86 0 -141 -60q-56 -61 -56 -151q0 -94 55 -155z" />
    <glyph glyph-name="seven.tf.ss08" horiz-adv-x="1134" 
d="M1155 1434v-228l-559 -1206h-373l555 1135h-352v-191h-303v490h1032z" />
    <glyph glyph-name="four.tf.ss09" horiz-adv-x="1228" 
d="M653 1434h463v-1434h-360v287h-711v301zM756 1094l-371 -506h371v506z" />
    <glyph glyph-name="zero.tf.zero" horiz-adv-x="1228" 
d="M921 1360q130 -88 199 -246q70 -160 70 -362v-66q0 -202 -70 -362q-69 -158 -199 -246t-307 -88q-176 0 -306 88t-199 246q-70 160 -70 362v66q0 202 70 362q69 158 199 246t306 88q177 0 307 -88zM391 698q0 -45 2 -77l400 411q-60 142 -179 142q-112 0 -168 -117
q-55 -116 -55 -318v-41zM838 739q0 46 -2 78l-400 -416q60 -137 178 -137q112 0 168 117q56 118 56 317v41z" />
    <glyph glyph-name="zero.tosf" horiz-adv-x="1228" 
d="M116 809q71 122 202 191t296 69q166 0 296 -69q132 -70 203 -191q73 -125 73 -281q0 -155 -73 -280q-72 -123 -203 -192q-129 -68 -296 -68t-296 68q-130 69 -202 192q-73 125 -73 280q0 156 73 281zM767 708q-58 68 -153 68q-94 0 -152 -69q-59 -70 -59 -179
q0 -108 59 -178q58 -69 152 -69q95 0 153 68t58 179q0 112 -58 180z" />
    <glyph glyph-name="one.tosf" horiz-adv-x="1228" 
d="M1174 293v-293h-996v293h328v278h-109h-213v287h215q55 0 85 43q30 44 30 109v47h346v-764h314z" />
    <glyph glyph-name="two.tosf" horiz-adv-x="1228" 
d="M680 276h444v-276h-985v260l445 221q94 46 137 88q45 43 45 97q0 57 -39 90q-38 32 -104 32q-68 0 -110 -43t-42 -114v-23h-350v23q0 121 60 221t176 159q115 58 274 58q146 0 260 -50q111 -49 174 -139q61 -88 61 -206q0 -92 -63 -174t-168 -129z" />
    <glyph glyph-name="three.tosf" horiz-adv-x="1228" 
d="M1192 27q0 -124 -71 -218q-72 -95 -200 -145q-131 -51 -307 -51q-266 0 -420 135q-155 135 -155 373h358q1 -108 68 -171q66 -63 170 -63q82 0 136 45t54 125q0 71 -54 112q-53 40 -159 40h-153v283h133q99 0 151 43q54 45 54 116q0 72 -46 109t-122 37q-87 0 -143 -49
q-55 -48 -60 -136h-350q2 213 147 336t391 123q261 0 403 -103t142 -282q0 -126 -79 -202t-208 -109q320 -78 320 -348z" />
    <glyph glyph-name="four.tosf" horiz-adv-x="1228" 
d="M598 1057h440v-766h160v-291h-160v-369h-338v369h-669v291zM700 733l-317 -442h317v442z" />
    <glyph glyph-name="five.tosf" horiz-adv-x="1228" 
d="M943 530q107 -62 169 -176q62 -113 62 -252q0 -152 -73 -263q-71 -109 -198 -165q-123 -55 -278 -55q-163 0 -282 59q-122 60 -189 164q-68 106 -74 234h358q10 -75 62 -125q50 -49 127 -49q82 0 133 58t51 146t-51 147q-51 58 -133 58q-118 0 -178 -123h-351l37 869h952
v-297h-645l-10 -266q58 54 123 77q64 23 150 23q128 0 238 -64z" />
    <glyph glyph-name="six.tosf" horiz-adv-x="1228" 
d="M1016 1312q138 -111 162 -313h-355q-50 140 -192 140q-117 0 -177 -81q-61 -82 -61 -235v-20l21 24q59 59 127 83t161 24q142 0 250 -60q111 -62 169 -166q61 -110 61 -245q0 -139 -73 -249q-71 -106 -199 -167q-124 -59 -281 -59q-268 0 -436 196q-71 83 -109 217
q-37 132 -37 291q0 350 160 540q159 189 442 189q231 0 367 -109zM502 606q-53 -58 -53 -143q0 -88 52 -144q53 -57 134 -57q82 0 134 56t52 143q0 88 -51 145q-52 58 -133 58q-82 0 -135 -58z" />
    <glyph glyph-name="seven.tosf" horiz-adv-x="1228" 
d="M82 1057h1053v-279l-574 -1147h-391l571 1131h-659v295z" />
    <glyph glyph-name="eight.tosf" horiz-adv-x="1228" 
d="M1099 622q79 -85 79 -237q0 -181 -147 -289t-417 -108q-269 0 -416 108t-147 289q0 147 79 232t202 118q-104 33 -172 111q-68 79 -68 203q0 109 62 194t179 131q120 47 281 47q162 0 282 -47q117 -46 179 -131t62 -194q0 -115 -70 -199q-69 -83 -172 -113
q125 -30 204 -115zM493 1144q-47 -42 -47 -112t47 -114t121 -44q75 0 122 44q46 43 46 114q0 70 -46 112t-122 42q-74 0 -121 -42zM760 282q57 52 57 134t-57 136t-146 54q-88 0 -145 -54t-57 -136t57 -134q58 -53 145 -53q88 0 146 53z" />
    <glyph glyph-name="nine.tosf" horiz-adv-x="1228" 
d="M1145 651q37 -132 37 -291q0 -355 -160 -548t-442 -193q-230 0 -367 110q-138 111 -162 312h355q49 -139 192 -139q117 0 177 84q61 85 61 243v21q-15 -19 -27 -31q-100 -100 -283 -100q-144 0 -250 59q-109 60 -168 167q-61 110 -61 245q0 139 73 249q71 107 198 167
q124 59 282 59q268 0 436 -197q71 -83 109 -217zM459 446q51 -57 133 -57t135 57q53 58 53 144q0 87 -52 143q-53 58 -134 58q-82 0 -134 -57q-52 -56 -52 -142q0 -89 51 -146z" />
    <glyph glyph-name="seven.tosf.ss08" horiz-adv-x="1157" 
d="M72 1057h1065v-279l-574 -1147h-391l571 1131h-364v-195h-307v490z" />
    <glyph glyph-name="four.tosf.ss09" horiz-adv-x="1228" 
d="M653 1057h463v-1434h-360v287h-711v301zM756 717l-371 -506h371v506z" />
    <glyph glyph-name="zero.tosf.zero" horiz-adv-x="1228" 
d="M910 1000q132 -70 203 -191q73 -125 73 -281q0 -155 -73 -280q-72 -123 -203 -192q-129 -68 -296 -68t-296 68q-130 69 -202 192q-73 125 -73 280q0 156 73 281q71 122 202 191t296 69q166 0 296 -69zM457 715q-62 -73 -62 -187q0 -46 13 -90l311 322q-48 26 -105 26
q-96 0 -157 -71zM773 342q61 73 61 186q0 48 -13 90l-309 -321q45 -27 102 -27q99 0 159 72z" />
    <glyph glyph-name="zero.zero" horiz-adv-x="1347" 
d="M994 1363q139 -81 218 -241q78 -158 78 -372v-66q0 -216 -78 -373q-78 -158 -218 -240q-142 -83 -320 -83q-179 0 -321 83q-140 82 -218 240q-78 157 -78 373v66q0 214 78 372q79 160 218 241q142 83 321 83q178 0 320 -83zM410 696q0 -68 8 -121l450 469
q-73 115 -194 115q-120 0 -192 -109q-72 -110 -72 -313v-41zM938 737q0 68 -8 121l-451 -469q73 -115 195 -115q118 0 191 109t73 313v41z" />
    <glyph glyph-name="u1F10C.zero" horiz-adv-x="1605" 
d="M417 1354q-171 -92 -267 -258q-97 -168 -97 -379t97 -379q96 -166 267 -258q172 -92 386 -92t386 92q171 92 267 258t96 379t-96 379t-267 258q-172 92 -386 92t-386 -92zM1047 1000q88 -101 88 -283q0 -183 -88 -284t-244 -101t-244 101t-88 284q0 182 88 283
q89 102 244 102q156 0 244 -102zM731 855q-26 -46 -26 -138q0 -29 2 -51l157 204q-24 33 -61 33q-45 0 -72 -48zM874 578q27 46 27 139q0 29 -2 49l-158 -205q25 -31 62 -31q43 0 71 48z" />
    <glyph glyph-name="u1F10B.zero" horiz-adv-x="1605" 
d="M1189 1354q171 -92 267 -258t96 -379t-96 -379t-267 -258q-172 -92 -386 -92t-386 92q-171 92 -267 258q-97 168 -97 379t97 379q96 166 267 258q172 92 386 92t386 -92zM547 1163q-114 -67 -176 -182q-64 -119 -64 -264t64 -264q63 -117 176 -183q111 -65 256 -65
t256 65q113 66 176 183t63 264t-63 264q-62 115 -176 182q-113 66 -256 66t-256 -66zM1047 1000q88 -101 88 -283q0 -183 -88 -284t-244 -101t-244 101t-88 284q0 182 88 283q89 102 244 102q156 0 244 -102zM731 855q-26 -46 -26 -138q0 -29 2 -51l157 204q-24 33 -61 33
q-45 0 -72 -48zM874 578q27 46 27 139q0 29 -2 49l-158 -205q25 -31 62 -31q43 0 71 48z" />
    <glyph glyph-name="zero.dnom" horiz-adv-x="720" 
d="M117 656q88 102 243 102q156 0 244 -102q88 -101 88 -283q0 -183 -88 -284t-244 -101q-155 0 -243 101t-88 284q0 182 88 283zM429 507q-24 46 -69 46q-44 0 -68 -46t-24 -134q0 -87 24 -134q24 -46 68 -46q45 0 69 46q24 47 24 134q0 88 -24 134z" />
    <glyph glyph-name="one.dnom" horiz-adv-x="442" 
d="M162 0v412h-37h-125v209h109q30 0 44 23q15 24 15 58v43h227v-745h-233z" />
    <glyph glyph-name="two.dnom" horiz-adv-x="681" 
d="M20 461q0 132 89 215q88 82 219 82q139 0 229 -73q88 -72 88 -189q0 -76 -36 -125q-36 -50 -95 -88l-115 -74h256v-209h-618v197l295 190q67 43 67 102q0 29 -19 47q-18 17 -48 17q-37 0 -57 -26q-19 -25 -19 -74v-4h-236v12z" />
    <glyph glyph-name="three.dnom" horiz-adv-x="700" 
d="M132 688q84 70 226 70q139 0 216 -59t77 -148q0 -62 -36 -104t-91 -58q73 -15 111 -58q39 -44 39 -110q0 -110 -86 -172q-85 -61 -244 -61t-239 70t-85 206h240q4 -36 23 -56q18 -20 57 -20q33 0 54 15q22 16 22 43q0 55 -84 55h-37v154h41q33 0 53 14q21 15 21 37
q0 24 -17 38q-16 13 -45 13q-31 0 -48 -16q-16 -15 -21 -45h-234q5 123 87 192z" />
    <glyph glyph-name="four.dnom" horiz-adv-x="737" 
d="M305 745h297v-389h105v-202h-105v-154h-233v154h-338v202zM369 526l-117 -170h117v170z" />
    <glyph glyph-name="five.dnom" horiz-adv-x="655" 
d="M590 547h-334l-6 -82q56 41 127 41q112 0 180 -68t68 -180q0 -121 -83 -196q-81 -74 -214 -74q-124 0 -202 68t-89 180h229q6 -19 23 -31t41 -12q25 0 42 17t17 48q0 30 -17 47q-19 19 -44 19q-40 0 -58 -37h-223l21 458h522v-198z" />
    <glyph glyph-name="six.dnom" horiz-adv-x="686" 
d="M120 649q94 109 245 109q109 0 191 -64q80 -62 97 -172h-225q-4 24 -27 42t-55 18q-50 0 -78 -45q-28 -44 -28 -101v-20q49 76 153 76q119 0 193 -69q73 -69 73 -181q0 -116 -82 -185q-83 -69 -221 -69q-149 0 -239 102t-90 272q0 179 93 287zM412 294q-20 19 -56 19
q-33 0 -53 -19t-20 -52q0 -34 20 -53t53 -19q36 0 56 19t20 53q0 33 -20 52z" />
    <glyph glyph-name="seven.dnom" horiz-adv-x="616" 
d="M25 748h571v-187l-258 -561h-260l258 547h-311v201z" />
    <glyph glyph-name="eight.dnom" horiz-adv-x="708" 
d="M176 393q-61 29 -93 69q-30 38 -30 99q0 85 81 141q82 56 222 56q141 0 222 -55q79 -54 79 -142q0 -64 -29 -100q-31 -38 -93 -68q147 -45 147 -180q0 -100 -86 -163q-84 -62 -240 -62q-154 0 -241 62q-88 63 -88 163q0 135 149 180zM412 574q-21 18 -56 18t-56 -18
t-21 -44q0 -27 21 -45t56 -18t55 17q21 18 21 46q0 27 -20 44zM417 286q-23 19 -61 19q-39 0 -62 -19q-24 -20 -24 -50q0 -32 24 -51q23 -19 62 -19q38 0 61 19t23 51q0 31 -23 50z" />
    <glyph glyph-name="nine.dnom" horiz-adv-x="686" 
d="M566 96q-93 -108 -244 -108q-111 0 -192 63q-80 62 -97 172h225q4 -24 27 -42q21 -17 55 -17q52 0 79 41q27 40 27 104v21q-28 -41 -61 -58q-35 -18 -92 -18q-119 0 -193 69q-73 69 -73 181q0 115 83 184q84 70 220 70q148 0 239 -103q90 -102 90 -272q0 -179 -93 -287z
M274 452q22 -20 56 -20q31 0 53 20q20 19 20 52t-20 52t-53 19q-36 0 -56 -19t-20 -52t20 -52z" />
    <glyph glyph-name="zero.numr" horiz-adv-x="720" 
d="M117 1347q88 101 243 101q156 0 244 -101t88 -284t-88 -284t-244 -101q-155 0 -243 101t-88 284t88 284zM429 1197q-24 46 -69 46q-44 0 -68 -46q-24 -47 -24 -134t24 -134q24 -46 68 -46q45 0 69 46q24 47 24 134t-24 134z" />
    <glyph glyph-name="one.numr" horiz-adv-x="442" 
d="M162 688v412h-37h-125v209h109q30 0 44 23q15 24 15 59v43h227v-746h-233z" />
    <glyph glyph-name="two.numr" horiz-adv-x="681" 
d="M20 1149q0 132 89 215q88 82 219 82q139 0 229 -73q88 -72 88 -189q0 -76 -36 -125q-36 -50 -95 -88l-115 -74h256v-209h-618v197l295 190q67 43 67 103q0 28 -19 46q-18 17 -48 17q-37 0 -57 -26q-19 -25 -19 -74v-4h-236v12z" />
    <glyph glyph-name="three.numr" horiz-adv-x="700" 
d="M132 1378q84 70 226 70q140 0 216 -58q77 -59 77 -149q0 -61 -36 -103q-37 -43 -91 -59q73 -15 111 -58q39 -44 39 -110q0 -110 -86 -172q-85 -61 -244 -61q-157 0 -239 71q-81 70 -85 205h240q4 -36 23 -56q18 -19 57 -19q34 0 54 14q22 16 22 43q0 55 -84 55h-37v154
h41q33 0 53 14q21 15 21 37q0 24 -17 38q-16 13 -45 13q-31 0 -48 -16q-16 -15 -21 -45h-234q5 123 87 192z" />
    <glyph glyph-name="four.numr" horiz-adv-x="737" 
d="M305 1434h297v-390h105v-202h-105v-154h-233v154h-338v202zM369 1214l-117 -170h117v170z" />
    <glyph glyph-name="five.numr" horiz-adv-x="655" 
d="M590 1235h-334l-6 -82q56 41 127 41q112 0 180 -68t68 -180q0 -120 -83 -195q-82 -75 -214 -75q-124 0 -202 68t-89 180h229q6 -19 23 -31t41 -12q25 0 42 17t17 48q0 30 -17 47q-19 19 -44 19q-40 0 -58 -37h-223l21 459h522v-199z" />
    <glyph glyph-name="six.numr" horiz-adv-x="686" 
d="M120 1339q94 109 245 109q109 0 191 -64q80 -62 97 -172h-225q-4 24 -27 42t-55 18q-50 0 -78 -45q-28 -44 -28 -101v-20q49 76 153 76q119 0 193 -69q73 -69 73 -181q0 -115 -82 -184q-84 -70 -221 -70q-149 0 -239 102t-90 273q0 178 93 286zM412 984q-22 20 -56 20
q-31 0 -53 -20q-20 -19 -20 -52t20 -52q22 -20 53 -20q34 0 56 20q20 19 20 52t-20 52z" />
    <glyph glyph-name="seven.numr" horiz-adv-x="616" 
d="M25 1434h571v-187l-258 -561h-260l258 547h-311v201z" />
    <glyph glyph-name="eight.numr" horiz-adv-x="708" 
d="M176 1083q-61 29 -93 69q-30 38 -30 99q0 87 81 142q80 55 222 55t222 -54q79 -54 79 -143q0 -64 -29 -100q-31 -38 -93 -68q147 -45 147 -180q0 -100 -86 -163q-84 -62 -240 -62q-154 0 -241 62q-88 63 -88 163q0 135 149 180zM412 1265q-20 17 -56 17t-56 -17
q-21 -18 -21 -44q0 -27 21 -45q22 -19 56 -19t55 18t21 46q0 27 -20 44zM417 976q-23 19 -61 19q-39 0 -62 -19q-24 -20 -24 -50t24 -50q25 -20 62 -20q36 0 61 20q23 19 23 50t-23 50z" />
    <glyph glyph-name="nine.numr" horiz-adv-x="686" 
d="M566 786q-93 -108 -244 -108q-111 0 -192 63q-80 62 -97 172h225q4 -24 27 -42q21 -17 55 -17q52 0 79 41t27 104v21q-27 -39 -61 -57q-36 -19 -92 -19q-119 0 -193 69q-73 69 -73 181q0 115 83 184q84 70 220 70q149 0 239 -102t90 -273q0 -179 -93 -287zM274 1142
q22 -20 56 -20q31 0 53 20q20 19 20 52t-20 52q-22 20 -53 20q-34 0 -56 -20q-20 -19 -20 -52t20 -52z" />
    <glyph glyph-name="uni2080.zero" horiz-adv-x="720" 
d="M604 452q88 -101 88 -284t-88 -284t-244 -101q-155 0 -243 101t-88 284t88 284t243 101q156 0 244 -101zM289 306q-27 -48 -27 -138q0 -29 2 -51l158 205q-23 32 -62 32q-44 0 -71 -48zM432 29q27 46 27 139q0 29 -2 49l-158 -205q24 -30 61 -30q45 0 72 47z" />
    <glyph glyph-name="zero.dnom.zero" horiz-adv-x="720" 
d="M604 656q88 -101 88 -283q0 -183 -88 -284t-244 -101q-155 0 -243 101t-88 284q0 182 88 283q88 102 243 102q156 0 244 -102zM289 511q-27 -48 -27 -138q0 -29 2 -51l158 204q-24 33 -62 33q-44 0 -71 -48zM432 233q27 47 27 140q0 29 -2 49l-158 -205q25 -31 61 -31
q45 0 72 47z" />
    <glyph glyph-name="zero.numr.zero" horiz-adv-x="720" 
d="M604 1347q88 -101 88 -284t-88 -284t-244 -101q-155 0 -243 101t-88 284t88 284t243 101q156 0 244 -101zM289 1201q-27 -48 -27 -138q0 -29 2 -51l158 205q-23 32 -62 32q-44 0 -71 -48zM432 924q27 46 27 139q0 29 -2 49l-158 -205q24 -30 61 -30q45 0 72 47z" />
    <glyph glyph-name="uni2070.zero" horiz-adv-x="720" 
d="M604 1551q88 -101 88 -283q0 -183 -88 -284t-244 -101q-155 0 -243 101t-88 284q0 182 88 283q89 102 243 102q156 0 244 -102zM289 1406q-27 -48 -27 -138q0 -29 2 -51l158 204q-24 33 -62 33q-44 0 -71 -48zM432 1128q27 46 27 140q0 29 -2 49l-158 -205q25 -31 61 -31
q45 0 72 47z" />
    <glyph glyph-name="backslash.case" horiz-adv-x="739" 
d="M354 1434l463 -1434h-354l-463 1434h354z" />
    <glyph glyph-name="periodcentered.case" horiz-adv-x="634" 
d="M171 860q60 58 146 58q87 0 147 -58q58 -57 58 -143q0 -87 -58 -144t-147 -57q-87 0 -146 57q-58 57 -58 144q0 86 58 143z" />
    <glyph glyph-name="colon.case" horiz-adv-x="552" 
d="M130 1157q59 57 146 57q88 0 147 -57q58 -57 58 -143q0 -87 -58 -144q-59 -57 -147 -57t-146 57t-58 144q0 86 58 143zM130 475q58 57 146 57t147 -57q58 -57 58 -143q0 -87 -58 -144q-59 -57 -147 -57t-146 57t-58 144q0 86 58 143z" />
    <glyph glyph-name="semicolon.case" horiz-adv-x="552" 
d="M433 443q67 -84 67 -218q0 -191 -116 -290t-316 -99v178q97 0 150 34q54 34 54 91q0 17 -2 31q-33 -12 -63 -12q-67 0 -110 46q-44 47 -44 132q0 76 61 134q59 56 144 56q109 0 175 -83zM118 1155q58 57 146 57t147 -57q58 -57 58 -143q0 -87 -58 -144q-59 -57 -147 -57
t-146 57q-59 57 -59 144q0 86 59 143z" />
    <glyph glyph-name="slash.case" horiz-adv-x="739" 
d="M424 1434h354l-463 -1434h-354z" />
    <glyph glyph-name="braceleft.case" horiz-adv-x="823" 
d="M601 1093q-32 -30 -32 -87q0 -28 6 -62q7 -39 7 -65q0 -62 -44 -103t-110 -59q68 -17 112 -59t44 -103q0 -7 -9 -66q-6 -33 -6 -61q0 -57 32 -87q32 -31 108 -32l84 -2v-307h-125q-202 0 -308 62q-108 63 -108 241q0 20 4 49q4 31 4 84q0 77 -44 104q-43 27 -159 27v299
q114 0 159 28q44 27 44 105q0 23 -4 74q-4 33 -4 57q0 178 108 241t308 63h125v-308l-84 -2q-77 -2 -108 -31z" />
    <glyph glyph-name="braceright.case" horiz-adv-x="823" 
d="M608 894q47 -28 158 -28v-299q-116 0 -159 -27q-44 -27 -44 -104q0 -53 4 -84q4 -29 4 -49q0 -178 -108 -241q-106 -62 -307 -62h-125v307l84 2q75 1 107 32q32 30 32 87q0 28 -6 61q-8 53 -8 66q0 61 44 103q44 43 111 59q-65 18 -109 59t-44 103q0 32 6 65q6 34 6 62
q0 57 -32 87q-31 30 -107 31l-84 2v308h125q199 0 307 -63t108 -241q0 -24 -4 -57q-4 -51 -4 -74q0 -78 45 -105z" />
    <glyph glyph-name="bracketleft.case" horiz-adv-x="720" 
d="M92 1434h598v-310h-268v-815h268v-309h-598v1434z" />
    <glyph glyph-name="bracketright.case" horiz-adv-x="720" 
d="M629 1434v-1434h-598v309h268v815h-268v310h598z" />
    <glyph glyph-name="parenleft.case" horiz-adv-x="667" 
d="M131 1103q51 183 133 331h363q-100 -154 -149 -339q-50 -188 -50 -378t50 -378q49 -185 149 -339h-363q-81 144 -133 330q-53 191 -53 387q0 197 53 386z" />
    <glyph glyph-name="parenright.case" horiz-adv-x="667" 
d="M41 0q98 152 148 339q51 192 51 378t-51 378q-50 187 -148 339h362q84 -152 134 -331q53 -189 53 -386q0 -196 -53 -387q-51 -182 -134 -330h-362z" />
    <glyph glyph-name="emdash.case" horiz-adv-x="1918" 
d="M78 881h1763v-318h-1763v318z" />
    <glyph glyph-name="endash.case" horiz-adv-x="1261" 
d="M78 563v318h1106v-318h-1106z" />
    <glyph glyph-name="hyphen.case" horiz-adv-x="892" 
d="M78 563v318h737v-318h-737z" />
    <glyph glyph-name="guillemotleft.case" horiz-adv-x="1294" 
d="M705 1251l-299 -528l299 -528h-355l-303 528l303 528h355zM1237 1249l-299 -528l299 -528h-354l-303 528l303 528h354z" />
    <glyph glyph-name="guillemotright.case" horiz-adv-x="1294" 
d="M590 1251h354l303 -528l-303 -528h-354l299 528zM57 1249h355l303 -528l-303 -528h-355l299 528z" />
    <glyph glyph-name="guilsinglleft.case" horiz-adv-x="761" 
d="M340 1239h375l-299 -522l299 -522h-375l-303 522z" />
    <glyph glyph-name="guilsinglright.case" horiz-adv-x="761" 
d="M422 1239l303 -522l-303 -522h-375l299 522l-299 522h375z" />
    <glyph glyph-name="dotmath.case" horiz-adv-x="552" 
d="M130 870q60 58 146 58q87 0 147 -58q58 -57 58 -143t-58 -143q-60 -58 -147 -58q-86 0 -146 58q-58 57 -58 143t58 143z" />
    <glyph glyph-name="plus.case" 
d="M362 1186h320v-314h295v-297h-295v-315h-320v315h-294v297h294v314z" />
    <glyph glyph-name="minus.case" 
d="M68 575v297h909v-297h-909z" />
    <glyph glyph-name="multiply.case" 
d="M264 1200l266 -266l258 258l209 -209l-258 -258l267 -266l-226 -228l-266 269l-258 -258l-209 209l258 258l-266 264z" />
    <glyph glyph-name="divide.case" 
d="M383 1254q57 55 139 55q83 0 140 -55q55 -54 55 -136t-55 -136q-56 -54 -140 -54t-139 54t-55 136t55 136zM68 575v297h909v-297h-909zM383 480q57 55 139 55q83 0 140 -55q55 -54 55 -136t-55 -136q-56 -54 -140 -54t-139 54t-55 136t55 136z" />
    <glyph glyph-name="equal.case" 
d="M88 793v297h868v-297h-868zM88 344v297h868v-297h-868z" />
    <glyph glyph-name="notequal.case" 
d="M956 793h-239l-51 -152h290v-297h-387l-53 -164h-360l53 164h-121v297h217l51 152h-268v297h365l51 157h360l-51 -157h143v-297z" />
    <glyph glyph-name="greater.case" 
d="M936 889v-328l-827 -330v340l434 154l-434 154v340z" />
    <glyph glyph-name="less.case" 
d="M109 561v328l827 330v-340l-434 -154l434 -154v-340z" />
    <glyph glyph-name="greaterequal.case" 
d="M936 1032v-327l-827 -330v340l434 153l-434 154v340zM109 0v297h827v-297h-827z" />
    <glyph glyph-name="lessequal.case" 
d="M109 705v327l827 330v-340l-434 -154l434 -153v-340zM109 0v297h827v-297h-827z" />
    <glyph glyph-name="plusminus.case" 
d="M362 1358h320v-314h295v-296h-295v-316h-320v316h-294v296h294v314zM68 0v297h909v-297h-909z" />
    <glyph glyph-name="approxequal.case" 
d="M55 186q0 204 69 303t208 99q65 0 115 -16q45 -14 96 -44q27 -16 47 -24q19 -8 39 -8q84 0 84 90h276q0 -205 -68 -303q-69 -99 -208 -99q-66 0 -116 16q-42 14 -95 44q-27 16 -47 24q-19 8 -39 8q-84 0 -84 -90h-277zM55 678q0 204 69 303q68 98 208 98q68 0 115 -15
q45 -14 96 -44q33 -19 47 -25q19 -8 39 -8q84 0 84 90h276q0 -205 -68 -303t-208 -98q-69 0 -116 15q-42 14 -95 44q-33 19 -47 25q-19 8 -39 8q-84 0 -84 -90h-277z" />
    <glyph glyph-name="asciitilde.case" 
d="M55 485q0 204 69 303t208 99q65 0 115 -16q45 -14 96 -44q27 -16 47 -24q19 -8 39 -8q84 0 84 90h276q0 -205 -68 -303q-69 -99 -208 -99q-66 0 -116 16q-42 14 -95 44q-27 16 -47 24q-19 8 -39 8q-84 0 -84 -90h-277z" />
    <glyph glyph-name="logicalnot.case" 
d="M68 903h841v-620h-315v323h-526v297z" />
    <glyph glyph-name="arrowup.case" horiz-adv-x="1576" 
d="M72 731l716 719l717 -719l-254 -258l-280 287v-760h-365v760l-280 -287z" />
    <glyph glyph-name="uni2197.case" horiz-adv-x="1421" 
d="M334 1434h1016v-1012h-359v397l-661 -659l-258 258l659 657h-397v359z" />
    <glyph glyph-name="arrowright.case" horiz-adv-x="1593" 
d="M803 1430l719 -717l-719 -719l-258 256l286 278h-759v365l759 2l-286 281z" />
    <glyph glyph-name="uni2198.case" horiz-adv-x="1421" 
d="M334 0v358h397l-659 658l258 258l661 -660v398h359v-1012h-1016z" />
    <glyph glyph-name="arrowdown.case" horiz-adv-x="1576" 
d="M72 702l254 259l280 -287v760h365v-760l280 287l254 -259l-717 -718z" />
    <glyph glyph-name="uni2199.case" horiz-adv-x="1421" 
d="M1092 1272l258 -258l-660 -658h397v-358h-1015v1012h358v-398z" />
    <glyph glyph-name="arrowleft.case" horiz-adv-x="1593" 
d="M791 1430l258 -254l-287 -281l760 -2v-365h-760l287 -278l-258 -256l-719 719z" />
    <glyph glyph-name="uni2196.case" horiz-adv-x="1421" 
d="M1087 1434v-359h-397l660 -657l-258 -258l-662 659v-397h-358v1012h1015z" />
    <glyph glyph-name="arrowboth.case" horiz-adv-x="2177" 
d="M2177 713l-719 -713l-252 252l281 283h-797l281 -283l-252 -252l-719 713l258 258l463 463l256 -256l-283 -279h789l-283 279l256 256z" />
    <glyph glyph-name="bar.case" horiz-adv-x="600" 
d="M113 1434h374v-1434h-374v1434z" />
    <glyph glyph-name="brokenbar.case" horiz-adv-x="600" 
d="M113 1434h374v-650h-374v650zM113 641h374v-641h-374v641z" />
    </font>
</defs>
</svg>
