<?xml version="1.0" standalone="no"?>
<!DOCTYPE svg PUBLIC "-//W3C//DTD SVG 1.1//EN" "http://www.w3.org/Graphics/SVG/1.1/DTD/svg11.dtd" >
<svg xmlns="http://www.w3.org/2000/svg" xmlns:xlink="http://www.w3.org/1999/xlink" version="1.1">
<metadata>
Created by FontForge 20201107 at Wed Dec 27 15:33:36 2023
 By 
Mark Bloom and Joe Leadbeater (c) 2018
</metadata>
<defs>
<font id="Aeonik-Air" horiz-adv-x="1095" >
  <font-face 
    font-family="Aeonik Air"
    font-weight="100"
    font-stretch="normal"
    units-per-em="2048"
    panose-1="2 1 5 3 3 3 0 0 0 0"
    ascent="1638"
    descent="-410"
    x-height="1032"
    cap-height="1434"
    bbox="-682 -422 4540 1855"
    underline-thickness="16"
    underline-position="-425"
    unicode-range="U+0020-1F10C"
  />
<missing-glyph horiz-adv-x="1269" 
d="M164 1434h942v-1573h-942v1573z" />
    <glyph glyph-name="fi" unicode="fi" horiz-adv-x="892" 
d="M754 0h-17v1016h-516v-1016h-16v1016h-207v16h207v201q0 106 47 153q48 48 154 48h131v-17h-131q-101 0 -143 -42t-42 -142v-201h533v-1032zM768 1378q8 -8 8 -22q0 -15 -8 -23t-23 -8q-14 0 -22 8t-8 23q0 14 8 22t22 8q15 0 23 -8z" />
    <glyph glyph-name="f_f.liga" unicode="ff" horiz-adv-x="1075" 
d="M796 1375q-42 -42 -42 -142v-201h333v-16h-333v-1016h-17v1016h-516v-1016h-16v1016h-207v16h207v201q0 106 47 153q48 48 154 48h131v-17h-131q-101 0 -143 -42t-42 -142v-201h516v201q0 106 47 153q48 48 154 48h152v-17h-152q-100 0 -142 -42z" />
    <glyph glyph-name="f_f_i.liga" unicode="ffi" horiz-adv-x="1425" 
d="M1286 0h-16v1016h-516v-1016h-17v1016h-516v-1016h-16v1016h-207v16h207v201q0 106 47 153q48 48 154 48h131v-17h-131q-101 0 -143 -42t-42 -142v-201h516v201q0 106 47 153q48 48 154 48h131v-17h-131q-100 0 -142 -42t-42 -142v-201h532v-1032zM1300 1378q9 -9 9 -22
q0 -14 -9 -23q-8 -8 -22 -8q-15 0 -23 8t-8 23q0 14 8 22t23 8q14 0 22 -8z" />
    <glyph glyph-name="f_f_t.liga" unicode="fft" horiz-adv-x="1622" 
d="M1286 1016v-815q0 -101 42 -143t142 -42h109v-16h-109q-106 0 -153 47t-47 154v815h-516v-1016h-17v1016h-516v-1016h-16v1016h-207v16h207v201q0 106 47 153q48 48 154 48h131v-17h-131q-101 0 -143 -42t-42 -142v-201h516v201q0 106 47 153q48 48 154 48h131v-17h-131
q-100 0 -142 -42t-42 -142v-201h516v287h16v-287h293v-16h-293z" />
    <glyph glyph-name="f_t.liga" unicode="ft" horiz-adv-x="1089" 
d="M754 1016v-815q0 -101 42 -143t142 -42h109v-16h-109q-107 0 -154 47t-47 154v815h-516v-1016h-16v1016h-207v16h207v201q0 106 47 153q48 48 154 48h131v-17h-131q-101 0 -143 -42t-42 -142v-201h516v287h17v-287h293v-16h-293z" />
    <glyph glyph-name="t_t.liga" unicode="tt" horiz-adv-x="1089" 
d="M754 1016v-815q0 -101 42 -143t142 -42h109v-16h-109q-107 0 -154 47t-47 154v815h-516v-815q0 -101 42 -143t143 -42h88v-16h-88q-107 0 -154 47t-47 154v815h-207v16h207v287h16v-287h516v287h17v-287h293v-16h-293z" />
    <glyph glyph-name=".notdef" horiz-adv-x="1269" 
d="M164 1434h942v-1573h-942v1573z" />
    <glyph glyph-name=".null" horiz-adv-x="0" 
 />
    <glyph glyph-name="nonmarkingreturn" horiz-adv-x="682" 
 />
    <glyph glyph-name="space" unicode=" " horiz-adv-x="573" 
 />
    <glyph glyph-name="exclam" unicode="!" horiz-adv-x="368" 
d="M176 401v1033h17v-1033h-17zM167 36q7 7 17 7q11 0 18 -7t7 -18q0 -10 -7 -17t-18 -7q-10 0 -17 7t-7 17q0 11 7 18z" />
    <glyph glyph-name="quotedbl" unicode="&#x22;" horiz-adv-x="636" 
d="M162 1438q4 0 8 -4v-396h-16v396q4 4 8 4zM475 1438q4 0 8 -4v-396h-16v396q4 4 8 4z" />
    <glyph glyph-name="numbersign" unicode="#" horiz-adv-x="1224" 
d="M516 1241h16l-65 -422h350l66 422h16l-65 -422h268v-16h-271l-55 -365h277v-16h-279l-65 -422h-17l66 422h-350l-66 -422h-16l65 422h-268v16h270l56 365h-277v16h279zM465 803l-55 -365h350l55 365h-350z" />
    <glyph glyph-name="dollar" unicode="$" horiz-adv-x="1196" 
d="M962 100q-122 -103 -335 -110v-209h-17v209h-12q-212 0 -342 111q-131 111 -143 302h16q10 -182 137 -289q128 -108 332 -108q218 0 343 98q126 99 126 269q0 116 -65 186q-66 71 -162 104q-97 34 -244 58q-153 28 -245 56q-89 27 -150 96q-62 70 -62 194q0 178 127 280
q126 101 344 101v207h17v-207q186 -5 301 -102q117 -99 139 -265l-16 -2q-22 163 -140 258t-299 95q-209 0 -333 -97q-123 -96 -123 -268q0 -119 59 -184t145 -92q85 -27 236 -54q147 -24 252 -59q102 -35 169 -109q66 -73 66 -196q0 -171 -121 -273z" />
    <glyph glyph-name="percent" unicode="%" horiz-adv-x="1744" 
d="M190 1277q44 78 118 122q75 45 165 45t165 -45q74 -44 118 -122q43 -76 43 -171t-43 -171q-44 -78 -118 -122q-75 -45 -165 -45t-165 45q-74 44 -118 122q-43 76 -43 171t43 171zM389 0l948 1434h19l-948 -1434h-19zM741 1270q-40 73 -111 115q-70 42 -157 42t-157 -42
q-71 -42 -111 -115q-41 -74 -41 -164t41 -164t111 -116q71 -42 157 -42q87 0 157 42t111 116t41 164t-41 164zM989 497q43 76 118 121q77 46 165 46t165 -46q73 -44 117 -121q43 -76 43 -171t-43 -171q-45 -79 -117 -122q-75 -45 -165 -45t-165 45q-74 44 -118 122
q-43 76 -43 171t43 171zM1540 489q-40 73 -112 116q-70 42 -156 42t-157 -42q-70 -42 -111 -116t-41 -163q0 -90 41 -164t111 -116q71 -42 157 -42t156 42q72 43 112 116q41 74 41 164q0 89 -41 163z" />
    <glyph glyph-name="ampersand" unicode="&#x26;" horiz-adv-x="1378" 
d="M1313 16v-16h-127q-101 0 -164 80l-129 162q-84 -123 -195 -189q-109 -65 -235 -65q-105 0 -190 42t-135 123q-50 82 -50 187q0 131 92 231q91 98 295 195q-98 121 -136 198q-38 76 -38 171q0 87 42 158q43 72 116 112q74 41 166 41q120 0 200 -77t80 -195
q0 -123 -92 -217q-89 -91 -311 -197l45 -58l346 -434l330 506h18l-338 -518l131 -164q33 -42 71 -59q37 -17 87 -17h121zM468 1391q-70 -39 -111 -107q-40 -67 -40 -149q0 -92 38 -166q37 -73 137 -197q218 105 307 193q90 89 90 206q0 114 -75 186q-76 73 -189 73
q-87 0 -157 -39zM694 69q108 65 189 185l-346 436l-52 64q-202 -97 -292 -192q-89 -94 -89 -222q0 -154 102 -245q101 -91 257 -91q124 0 231 65z" />
    <glyph glyph-name="quotesingle" unicode="'" horiz-adv-x="323" 
d="M162 1438q4 0 8 -4v-396h-16v396q4 4 8 4z" />
    <glyph glyph-name="parenleft" unicode="(" horiz-adv-x="522" 
d="M471 1434q-180 -250 -257 -460q-75 -206 -75 -462t75 -462q77 -210 257 -460h-16q-176 244 -254 455t-78 467q0 258 78 468q78 211 254 454h16z" />
    <glyph glyph-name="parenright" unicode=")" horiz-adv-x="522" 
d="M322 980q77 -207 77 -468q0 -258 -77 -467q-78 -211 -254 -455h-17q180 250 257 460q75 206 75 462t-75 462q-77 210 -257 460h17q176 -243 254 -454z" />
    <glyph glyph-name="asterisk" unicode="*" horiz-adv-x="847" 
d="M715 1231l-277 -113l191 -231l-13 -10l-192 235l-193 -235l-12 10l191 231l-277 113l6 14l277 -115v306h16v-306l277 115z" />
    <glyph glyph-name="plus" unicode="+" 
d="M539 995h16v-395h381v-16h-381v-396h-16v396h-379v16h379v395z" />
    <glyph glyph-name="comma" unicode="," horiz-adv-x="315" 
d="M185 9q24 -35 24 -81q0 -65 -41 -115q-42 -51 -107 -57v15q55 5 93 49q39 45 39 108t-41 90q-2 -24 -25 -24q-8 0 -14 6q-7 7 -7 16q0 27 27 27q28 0 52 -34z" />
    <glyph glyph-name="hyphen" unicode="-" horiz-adv-x="913" 
d="M139 573v17h635v-17h-635z" />
    <glyph glyph-name="period" unicode="." horiz-adv-x="315" 
d="M140 36q7 7 18 7q10 0 17 -7t7 -18q0 -10 -7 -17t-17 -7q-11 0 -18 7t-7 17q0 11 7 18z" />
    <glyph glyph-name="slash" unicode="/" horiz-adv-x="618" 
d="M0 -410l600 1844h18l-600 -1844h-18z" />
    <glyph glyph-name="zero" unicode="0" horiz-adv-x="1224" 
d="M133 750q0 202 60 360q61 160 167 247q109 89 252 89t252 -89q107 -88 168 -247q60 -158 60 -360v-66q0 -202 -60 -360q-61 -159 -168 -247q-109 -89 -252 -89t-252 89q-106 87 -167 247q-60 158 -60 360v66zM1018 1101q-56 153 -163 241q-106 88 -243 88
q-136 0 -242 -88q-107 -88 -163 -241q-57 -155 -57 -351v-66q0 -196 57 -351q57 -154 163 -242q105 -87 242 -87q138 0 243 87q106 88 163 242q57 155 57 351v66q0 196 -57 351z" />
    <glyph glyph-name="one" unicode="1" horiz-adv-x="548" 
d="M365 1434v-1434h-17v1149q-24 -43 -86 -43h-262v16h262q86 0 86 90v222h17z" />
    <glyph glyph-name="two" unicode="2" horiz-adv-x="1128" 
d="M657 553q14 15 112 106q96 91 150 193q52 100 52 199q0 174 -113 276q-114 103 -305 103q-190 0 -302 -112t-112 -304v-33h-16v33q0 200 116 316t314 116q199 0 317 -107q117 -107 117 -288q0 -93 -38 -175q-39 -83 -94 -146q-57 -64 -153 -159l-34 -32l-543 -523h889
v-16h-912v16z" />
    <glyph glyph-name="three" unicode="3" horiz-adv-x="1206" 
d="M139 389q0 -181 126 -283t333 -102q131 0 236 48q103 47 163 133q60 85 60 192q0 170 -128 260t-343 90h-97v16h97q123 0 223 47t153 125q54 79 54 179q0 96 -53 173q-51 74 -149 119q-96 44 -216 44q-188 0 -303 -97t-115 -260h-16q0 175 119 274t315 99q127 0 226 -45
q100 -45 154 -125t54 -182q0 -144 -101 -242t-272 -115q195 -15 304 -105q110 -91 110 -255q0 -111 -60 -200q-61 -89 -169 -139q-109 -50 -246 -50q-216 0 -345 107q-130 108 -130 294h16z" />
    <glyph glyph-name="four" unicode="4" horiz-adv-x="1181" 
d="M66 428l784 1006h16v-1006h264v-16h-264v-412h-16v412h-784v16zM86 428h764v981z" />
    <glyph glyph-name="five" unicode="5" horiz-adv-x="1181" 
d="M846 873q103 -61 158 -166q55 -106 55 -242q0 -149 -65 -258t-171 -164t-231 -55q-137 0 -236 56t-155 151q-57 97 -64 206h17q10 -108 63 -198t150 -145q96 -54 225 -54q118 0 222 54q103 54 166 159q62 103 62 248q0 128 -53 232t-151 162q-100 59 -230 59
q-146 0 -261 -74q-114 -73 -159 -197l-16 4l57 783h740v-17h-725l-54 -725q52 109 167 176q114 66 251 66q134 0 238 -61z" />
    <glyph glyph-name="six" unicode="6" horiz-adv-x="1224" 
d="M158 464q-25 133 -25 259q0 324 124 523q125 200 372 200q178 0 284 -100q108 -102 136 -263h-17q-30 157 -132 251q-104 96 -271 96q-240 0 -360 -195q-119 -193 -119 -512q0 -194 45 -344q-7 47 -7 80q0 136 59 243q59 108 163 167q107 61 239 61q135 0 236 -60
t153 -167q54 -111 54 -244q0 -137 -57 -244q-58 -108 -158 -167q-102 -60 -238 -60q-145 0 -250 66t-162 188q-45 94 -69 222zM1024 695q-52 105 -148 161q-98 57 -227 57q-130 0 -232 -57q-100 -56 -158 -161q-56 -102 -56 -236q0 -133 54 -237q54 -103 154 -161
q99 -57 228 -57q130 0 229 57t153 161t54 237t-51 236z" />
    <glyph glyph-name="seven" unicode="7" horiz-adv-x="1056" 
d="M31 1434h964v-17l-800 -1417h-19l801 1417h-946v17z" />
    <glyph glyph-name="eight" unicode="8" horiz-adv-x="1220" 
d="M241 611q108 102 285 124q-158 23 -254 117q-96 95 -96 233q0 105 54 187q53 80 154 128q98 46 226 46q129 0 227 -46q100 -47 153 -128q54 -82 54 -187q0 -139 -96 -233t-254 -117q179 -23 286 -124t107 -249q0 -108 -60 -193q-59 -84 -169 -133q-108 -48 -248 -48
t-248 48q-109 48 -168 133q-61 87 -61 193q0 147 108 249zM975 1264q-51 76 -149 121t-216 45t-216 -45q-96 -44 -148 -121q-53 -79 -53 -179q0 -97 53 -176q53 -78 148 -122q96 -44 216 -44t216 44q97 45 149 122q53 79 53 176q0 100 -53 179zM1012 550q-62 85 -164 130
q-106 47 -238 47q-135 0 -239 -46q-105 -46 -163 -130q-58 -83 -58 -189q0 -104 58 -186q58 -81 164 -127q105 -45 238 -45q134 0 238 46t164 127q59 80 59 185q0 107 -59 188z" />
    <glyph glyph-name="nine" unicode="9" horiz-adv-x="1220" 
d="M1064 972q23 -119 23 -251q0 -355 -128 -545q-127 -188 -367 -188q-176 0 -296 96q-121 97 -151 276h17q30 -172 145 -264t285 -92q234 0 356 185q123 186 123 538q0 171 -41 326q0 -3 1.5 -15l2.5 -20q2 -28 2 -49q-2 -136 -60 -241q-59 -106 -163 -164t-238 -58
q-136 0 -235 59q-102 61 -154 166q-53 108 -53 244q0 141 56 246t160 165t241 60q143 0 251 -69q107 -68 158 -187q42 -97 65 -218zM201 739q51 -102 148 -159q99 -58 226 -58q129 0 233 58q101 57 158 161q56 103 56 240q0 131 -54 233q-54 101 -154 159q-99 57 -228 57
q-131 0 -230 -57q-98 -56 -152 -160q-54 -103 -54 -238q0 -134 51 -236z" />
    <glyph glyph-name="colon" unicode=":" horiz-adv-x="315" 
d="M140 890q7 7 18 7q10 0 17 -7t7 -18q0 -10 -7 -17t-17 -7q-11 0 -18 7t-7 17q0 11 7 18zM140 36q7 7 18 7q10 0 17 -7t7 -18q0 -10 -7 -17t-17 -7q-11 0 -18 7t-7 17q0 11 7 18z" />
    <glyph glyph-name="semicolon" unicode=";" horiz-adv-x="315" 
d="M185 9q24 -35 24 -81q0 -65 -41 -115q-42 -51 -107 -57v15q55 5 93 49q39 45 39 108t-41 90q-2 -24 -25 -24q-8 0 -14 6q-7 7 -7 16q0 27 27 27q28 0 52 -34zM140 890q7 7 18 7q10 0 17 -7t7 -18q0 -10 -7 -17t-17 -7q-11 0 -18 7t-7 17q0 11 7 18z" />
    <glyph glyph-name="less" unicode="&#x3c;" 
d="M180 571v21l735 364v-18l-716 -356l716 -355v-18z" />
    <glyph glyph-name="equal" unicode="=" 
d="M180 754v16h735v-16h-735zM180 344v16h735v-16h-735z" />
    <glyph glyph-name="greater" unicode="&#x3e;" 
d="M915 592v-21l-735 -362v18l717 355l-717 356v18z" />
    <glyph glyph-name="question" unicode="?" horiz-adv-x="995" 
d="M154 1241q52 97 144 151q93 54 214 54q109 0 194 -43q84 -43 131 -118q46 -74 46 -167q0 -110 -45 -186q-45 -77 -127 -144l-45 -36q-84 -62 -129 -118q-43 -53 -43 -140v-95h-17v95q0 86 44 144q41 53 134 128l43 33q80 67 125 140q43 70 43 179q0 88 -45 159
q-46 72 -126 112q-82 41 -183 41q-116 0 -206 -52q-88 -51 -138 -144q-49 -92 -49 -212h-17q0 121 52 219zM468 36q7 7 17 7q11 0 18 -7t7 -18q0 -10 -7 -17t-18 -7q-10 0 -17 7t-7 17q0 11 7 18z" />
    <glyph glyph-name="at" unicode="@" horiz-adv-x="2015" 
d="M248 956q124 200 338 319q212 118 469 118q238 0 432 -96q189 -94 298 -263q107 -166 107 -381q0 -151 -51 -277q-51 -127 -139 -198q-88 -72 -195 -72q-84 0 -131 52t-47 145q0 21 2 41l8 80q-41 -148 -150 -233t-247 -85q-104 0 -186 51q-79 49 -123 137
q-43 86 -43 195q0 127 60 237q59 108 163 175q102 66 221 66q130 0 222 -78t108 -201l25 258h16l-57 -602q-2 -16 -2 -37q0 -90 44 -137t119 -47q100 0 185 71q83 70 133 192q49 120 49 267q0 207 -106 374q-105 166 -291 257q-187 92 -424 92q-247 0 -459 -114
q-210 -113 -334 -313q-123 -198 -123 -435q0 -240 110 -427q109 -186 306 -288t453 -102q147 0 274 37q131 38 219 104l2 -16q-86 -65 -219 -103q-132 -38 -276 -38q-262 0 -461 104q-202 106 -313 294q-111 189 -111 435q0 240 125 442zM1266 859q-88 91 -232 91
q-112 0 -211 -63q-95 -61 -157 -170q-60 -107 -60 -228q0 -101 41 -186q40 -83 118 -132q77 -48 177 -48q119 0 212 63t146 178q54 117 54 257q0 147 -88 238z" />
    <glyph glyph-name="A" unicode="A" horiz-adv-x="1249" 
d="M51 0l563 1434h21l563 -1434h-18l-201 512h-709l-200 -512h-19zM276 528h697l-348 885z" />
    <glyph glyph-name="B" unicode="B" horiz-adv-x="1239" 
d="M621 1434q197 0 306 -95q107 -94 107 -260q0 -139 -77 -228q-78 -90 -220 -114q180 -23 274 -112q95 -90 95 -242q0 -180 -123 -282q-122 -101 -362 -101h-461v1434h461zM176 743h445q185 0 292 90q105 89 105 246q0 158 -104 248t-293 90h-445v-674zM176 16h445
q231 0 350 98t119 269q0 166 -122 255t-347 89h-445v-711z" />
    <glyph glyph-name="C" unicode="C" horiz-adv-x="1415" 
d="M191 1094q79 165 224 259q144 93 335 93q209 0 353 -106q143 -105 200 -308h-17q-56 193 -194 296q-136 102 -342 102q-185 0 -327 -92q-141 -91 -217 -254q-77 -165 -77 -369q0 -205 77 -370q76 -163 217 -253t327 -90q208 0 342 101q134 102 190 300h16
q-57 -206 -195 -311q-137 -104 -353 -104q-190 0 -335 92t-224 258q-78 163 -78 377q0 216 78 379z" />
    <glyph glyph-name="D" unicode="D" horiz-adv-x="1323" 
d="M160 1434h329q230 0 392 -87q160 -86 245 -248q84 -161 84 -382t-84 -382q-85 -162 -245 -248q-162 -87 -392 -87h-329v1434zM489 16q224 0 382 85t241 243q82 157 82 373q0 219 -82 374q-82 156 -241 241q-158 85 -382 85h-313v-1401h313z" />
    <glyph glyph-name="E" unicode="E" horiz-adv-x="1087" 
d="M160 1432h837v-17h-821v-672h696v-16h-696v-713h850v-16h-866v1434z" />
    <glyph glyph-name="F" unicode="F" horiz-adv-x="997" 
d="M160 1434h796v-17h-780v-692h655v-16h-655v-709h-16v1434z" />
    <glyph glyph-name="G" unicode="G" horiz-adv-x="1488" 
d="M189 1094q76 165 221 259q144 93 333 93q212 0 356 -106q142 -104 199 -308h-18q-56 192 -195 296q-137 102 -342 102q-183 0 -323 -92q-138 -91 -215 -253q-76 -161 -76 -370q0 -207 75 -369q74 -161 209 -253q133 -91 310 -91q188 0 321 85q134 86 201 224
q68 141 68 301v80h-527v17h543v-709h-16v469q-43 -211 -195 -346t-395 -135q-180 0 -320 92q-138 91 -215 258q-75 163 -75 377t76 379z" />
    <glyph glyph-name="H" unicode="H" horiz-adv-x="1302" 
d="M160 1436h16v-693h950v693h17v-1436h-17v727h-950v-727h-16v1436z" />
    <glyph glyph-name="I" unicode="I" horiz-adv-x="335" 
d="M160 1434h16v-1434h-16v1434z" />
    <glyph glyph-name="J" unicode="J" horiz-adv-x="661" 
d="M502 1434v-1190q0 -127 -59 -186q-58 -58 -185 -58h-197v16h197q121 0 174 55t53 173v1190h17z" />
    <glyph glyph-name="K" unicode="K" horiz-adv-x="1171" 
d="M160 1434h16v-1031l891 1031h20l-514 -594l568 -840h-21l-559 825l-385 -446v-379h-16v1434z" />
    <glyph glyph-name="L" unicode="L" horiz-adv-x="950" 
d="M160 0v1434h16v-1418h733v-16h-749z" />
    <glyph glyph-name="M" unicode="M" horiz-adv-x="1617" 
d="M160 1434h24l625 -1416l625 1416h24v-1434h-16v1411l-623 -1411h-20l-623 1411v-1411h-16v1434z" />
    <glyph glyph-name="N" unicode="N" horiz-adv-x="1314" 
d="M160 0v1434h20l959 -1407v1407h16v-1434h-20l-959 1409v-1409h-16z" />
    <glyph glyph-name="O" unicode="O" horiz-adv-x="1523" 
d="M1328 340q-82 -165 -230 -259q-147 -93 -336 -93t-336 93q-148 94 -230 259q-83 168 -83 377t83 377q82 165 230 259q147 93 336 93t336 -93q148 -94 230 -259q83 -168 83 -377t-83 -377zM210 347q81 -164 224 -253q144 -90 328 -90t328 90q143 89 224 253q81 163 81 370
q0 206 -81 369q-81 164 -224 253q-146 91 -328 91t-328 -91q-143 -89 -224 -253q-81 -163 -81 -369q0 -207 81 -370z" />
    <glyph glyph-name="P" unicode="P" horiz-adv-x="1130" 
d="M666 1434q120 0 217 -51q94 -49 145 -138t51 -198q0 -111 -51 -198q-50 -86 -146 -136q-94 -49 -218 -49h-488v-664h-16v1434h506zM176 680h488q117 0 209 47q91 46 141 131q49 83 49 189q0 107 -49 190q-49 84 -140 132q-90 48 -208 48h-490v-737z" />
    <glyph glyph-name="Q" unicode="Q" horiz-adv-x="1525" 
d="M1436 16v-16h-95q-69 0 -102 16q-36 17 -74 76l-16 25q-163 -129 -387 -129q-189 0 -336 93q-148 94 -230 259q-83 168 -83 377t83 377q82 165 230 259q147 93 336 93t336 -93q148 -94 230 -259q83 -168 83 -377q0 -188 -65 -339t-183 -251l17 -25q38 -55 69 -70
q32 -16 92 -16h95zM1141 131l-119 174q-39 54 -66 70q-28 16 -75 16h-129v17h129q52 0 83 -17q28 -15 72 -78l117 -172q116 96 178 243q64 151 64 333q0 206 -81 369q-81 164 -224 253q-146 91 -328 91t-328 -91q-143 -89 -224 -253q-81 -163 -81 -369q0 -207 81 -370
q81 -164 224 -253q144 -90 328 -90q218 0 379 127z" />
    <glyph glyph-name="R" unicode="R" horiz-adv-x="1171" 
d="M666 1434q187 0 301 -106q112 -105 112 -281q0 -167 -103 -270q-102 -102 -278 -113l367 -664h-21l-366 664h-502v-664h-16v1434h506zM176 680h488q182 0 290 99q109 100 109 268q0 169 -109 270q-107 100 -288 100h-490v-737z" />
    <glyph glyph-name="S" unicode="S" horiz-adv-x="1196" 
d="M129 403q10 -182 137 -289q128 -108 332 -108q218 0 343 98q126 99 126 269q0 118 -64 186q-65 70 -163 104q-97 34 -244 58q-153 28 -245 56q-89 27 -150 96q-62 70 -62 194q0 178 127 280q126 101 346 101q192 0 312 -98t143 -269l-16 -2q-22 163 -140 258t-299 95
q-209 0 -333 -97q-123 -96 -123 -268q0 -119 59 -184t145 -92q85 -27 236 -54q147 -24 252 -59q102 -35 169 -109q66 -73 66 -196q0 -176 -131 -280q-130 -103 -354 -103q-212 0 -342 111q-131 111 -143 302h16z" />
    <glyph glyph-name="T" unicode="T" horiz-adv-x="1155" 
d="M41 1434h1073v-17h-528v-1417h-17v1417h-528v17z" />
    <glyph glyph-name="U" unicode="U" horiz-adv-x="1296" 
d="M170 1434v-869q0 -284 115 -423q114 -138 360 -138q251 0 366 138q115 137 115 423v869h17v-869q0 -293 -120 -435t-378 -142q-256 0 -374 142q-117 141 -117 435v869h16z" />
    <glyph glyph-name="V" unicode="V" horiz-adv-x="1224" 
d="M41 1434h18l553 -1414l553 1414h19l-561 -1434h-21z" />
    <glyph glyph-name="W" unicode="W" horiz-adv-x="1949" 
d="M61 1434h19l450 -1407l435 1407h20l430 -1407l455 1407h18l-463 -1434h-20l-430 1407l-434 -1407h-21z" />
    <glyph glyph-name="X" unicode="X" horiz-adv-x="1214" 
d="M598 731l-494 703h21l483 -689l482 689h20l-492 -701l523 -733h-21l-512 719l-514 -719h-20z" />
    <glyph glyph-name="Y" unicode="Y" horiz-adv-x="1222" 
d="M41 1436h20l549 -891l551 891h21l-564 -910v-526h-16v526z" />
    <glyph glyph-name="Z" unicode="Z" horiz-adv-x="1234" 
d="M143 1434h1020v-17l-1071 -1401h1071v-16h-1091v16l1071 1401h-1000v17z" />
    <glyph glyph-name="bracketleft" unicode="[" horiz-adv-x="538" 
d="M160 1436h327v-17h-311v-1812h311v-17h-327v1846z" />
    <glyph glyph-name="backslash" unicode="\" horiz-adv-x="618" 
d="M618 -410h-18l-600 1844h18z" />
    <glyph glyph-name="bracketright" unicode="]" horiz-adv-x="538" 
d="M379 -412h-328v17h311v1812h-311v17h328v-1846z" />
    <glyph glyph-name="asciicircum" unicode="^" horiz-adv-x="1021" 
d="M115 795l385 639h20l387 -639h-18l-379 624l-377 -624h-18z" />
    <glyph glyph-name="underscore" unicode="_" horiz-adv-x="1028" 
d="M143 -29v17h742v-17h-742z" />
    <glyph glyph-name="grave" unicode="`" horiz-adv-x="819" 
d="M197 1434h20l203 -260h-21z" />
    <glyph glyph-name="a" unicode="a" horiz-adv-x="1083" 
d="M1063 16v-16h-21q-65 0 -104 41t-39 111v149q-37 -143 -157 -228q-119 -85 -308 -85q-158 0 -250 77t-92 207q0 133 103 210t292 77h412v119q0 167 -97 258q-98 92 -276 92q-154 0 -250 -69t-120 -187h-17q22 123 125 198q101 74 262 74q186 0 288 -96q101 -95 101 -270
v-526q0 -61 35 -99q34 -37 92 -37h21zM684 56q104 52 160 146q55 92 55 210v131h-412q-180 0 -280 -73q-98 -71 -98 -198q0 -123 88 -195q90 -73 237 -73q146 0 250 52z" />
    <glyph glyph-name="b" unicode="b" horiz-adv-x="1177" 
d="M848 977q107 -68 167 -189q60 -122 60 -272q0 -153 -60 -273t-167 -188q-106 -67 -244 -67q-171 0 -293 104t-161 279v-371h-17v1434h17v-772q39 174 161 278t293 104q138 0 244 -67zM839 70q102 65 161 181t59 265q0 146 -59 264t-161 183t-235 65q-132 0 -234 -65
q-104 -66 -162 -183q-58 -116 -58 -264q0 -150 58 -265t162 -181t234 -66q132 0 235 66z" />
    <glyph glyph-name="c" unicode="c" horiz-adv-x="1083" 
d="M843 73q-110 -85 -270 -85q-137 0 -243 67q-107 68 -167 189q-61 124 -61 274q0 152 61 274q60 120 167 186q106 66 243 66q158 0 271 -86t141 -229h-16q-29 138 -136 218q-108 81 -260 81q-131 0 -234 -64t-162 -181q-58 -115 -58 -265t58 -266t162 -182
q103 -66 234 -66q151 0 258 80q108 81 138 217h16q-29 -141 -142 -228z" />
    <glyph glyph-name="d" unicode="d" horiz-adv-x="1177" 
d="M1044 1434v-1434h-16v371q-39 -174 -162 -279q-122 -104 -293 -104q-137 0 -243 67q-107 68 -167 188q-61 122 -61 273q0 148 61 272q60 121 167 189q106 67 243 67q171 0 293 -104q123 -105 162 -278v772h16zM808 70q104 66 162 181t58 265q0 148 -58 264
q-58 117 -162 183q-102 65 -235 65q-132 0 -234 -65q-103 -66 -162 -183q-58 -116 -58 -264q0 -150 58 -265t162 -181q103 -66 234 -66t235 66z" />
    <glyph glyph-name="e" unicode="e" horiz-adv-x="1118" 
d="M161 792q59 120 162 186q104 66 236 66q199 0 322 -126q125 -128 135 -355v-6h-895q-2 -16 -2 -39q0 -148 58 -265q57 -116 162 -183q103 -66 232 -66q148 0 260 91q113 92 152 243h16q-40 -162 -155 -255q-118 -95 -273 -95q-133 0 -240 67q-108 67 -168 189
q-61 124 -61 274q0 153 59 274zM997 573q-15 216 -133 335q-118 120 -305 120q-119 0 -215 -57t-155 -161q-57 -101 -68 -237h876z" />
    <glyph glyph-name="f" unicode="f" horiz-adv-x="542" 
d="M205 1032v201q0 106 47 153q48 48 154 48h151v-17h-151q-101 0 -143 -42t-42 -142v-201h334v-16h-334v-1016h-16v1016h-207v16h207z" />
    <glyph glyph-name="g" unicode="g" horiz-adv-x="1177" 
d="M1044 1032v-950q0 -268 -113 -385q-114 -119 -347 -119q-175 0 -293 83t-148 237h19q28 -145 140 -225q110 -79 282 -79q228 0 336 116t108 372v291q-39 -175 -162 -280t-293 -105q-137 0 -243 67q-107 68 -167 189q-61 124 -61 274q0 154 60 274q60 121 167 186
q108 66 244 66q171 0 293 -103q123 -104 162 -277v368h16zM808 70q105 67 162 183q58 117 58 267q0 148 -58 263q-59 117 -162 181t-235 64t-234 -65q-103 -66 -162 -182q-58 -115 -58 -263q0 -150 58 -266t162 -182q103 -66 234 -66t235 66z" />
    <glyph glyph-name="h" unicode="h" horiz-adv-x="1081" 
d="M854 925q104 -119 104 -341v-584h-16v584q0 213 -100 328q-101 116 -273 116q-129 0 -222 -65q-96 -67 -146 -187q-51 -122 -51 -280v-496h-17v1434h17v-777q38 184 146 285q110 102 273 102q181 0 285 -119z" />
    <glyph glyph-name="i" unicode="i" horiz-adv-x="282" 
d="M159 1373q7 -7 7 -17q0 -11 -7 -18t-18 -7q-10 0 -17 7t-7 18q0 10 7 17t17 7q11 0 18 -7zM133 1032h17v-1032h-17v1032z" />
    <glyph glyph-name="j" unicode="j" horiz-adv-x="294" 
d="M171 1373q7 -7 7 -17q0 -11 -7 -18t-17 -7q-11 0 -18 7t-7 18q0 10 7 17t18 7q10 0 17 -7zM-39 -393q100 0 142 42t42 142v1241h17v-1241q0 -106 -47 -153q-48 -48 -154 -48h-108v17h108z" />
    <glyph glyph-name="k" unicode="k" horiz-adv-x="958" 
d="M133 1434h17v-1123l714 721h23l-434 -436l475 -596h-21l-467 584l-290 -293v-291h-17v1434z" />
    <glyph glyph-name="l" unicode="l" horiz-adv-x="282" 
d="M133 1434h17v-1434h-17v1434z" />
    <glyph glyph-name="m" unicode="m" horiz-adv-x="1771" 
d="M1550 924q99 -122 99 -340v-584h-17v584q0 212 -93 328t-253 116q-166 0 -269 -124t-118 -329v-575h-16v584q0 212 -93 328t-253 116q-118 0 -205 -65q-88 -66 -136 -187q-49 -124 -49 -280v-496h-14v1032h14v-389q28 185 133 294q103 107 257 107q152 0 246 -98
q96 -100 112 -280q33 174 135 276t256 102q166 0 264 -120z" />
    <glyph glyph-name="n" unicode="n" horiz-adv-x="1081" 
d="M854 925q104 -119 104 -341v-584h-16v584q0 213 -100 328q-101 116 -273 116q-129 0 -222 -65q-96 -67 -146 -187q-51 -122 -51 -280v-496h-17v1032h17v-375q38 184 146 285q110 102 273 102q181 0 285 -119z" />
    <glyph glyph-name="o" unicode="o" horiz-adv-x="1146" 
d="M330 55q-107 68 -167 188q-61 122 -61 273q0 152 61 274q59 119 167 187q106 67 243 67q138 0 244 -67q108 -68 167 -187q60 -120 60 -274q0 -153 -60 -273t-167 -188q-106 -67 -244 -67q-137 0 -243 67zM808 69q104 65 162 181t58 266t-58 266q-59 118 -162 182t-235 64
q-131 0 -234 -64t-162 -182q-58 -116 -58 -266t58 -266t162 -181t234 -65q131 0 235 65z" />
    <glyph glyph-name="p" unicode="p" horiz-adv-x="1177" 
d="M848 977q107 -68 167 -189q60 -122 60 -272q0 -153 -60 -273t-167 -188q-106 -67 -244 -67q-171 0 -293 104t-161 279v-781h-17v1442h17v-370q39 174 161 278t293 104q138 0 244 -67zM839 70q102 65 161 181t59 265q0 146 -59 264t-161 183t-235 65q-132 0 -234 -65
q-104 -66 -162 -183q-58 -116 -58 -264q0 -150 58 -265t162 -181t234 -66q132 0 235 66z" />
    <glyph glyph-name="q" unicode="q" horiz-adv-x="1177" 
d="M1044 1032v-1442h-16v781q-39 -174 -162 -279q-122 -104 -293 -104q-137 0 -243 67q-107 68 -167 188q-61 122 -61 273q0 148 61 272q60 121 167 189q106 67 243 67q171 0 293 -104q123 -105 162 -278v370h16zM808 70q104 66 162 181t58 265q0 148 -58 264
q-58 117 -162 183q-102 65 -235 65q-132 0 -234 -65q-103 -66 -162 -183q-58 -116 -58 -264q0 -150 58 -265t162 -181q103 -66 234 -66t235 66z" />
    <glyph glyph-name="r" unicode="r" horiz-adv-x="575" 
d="M522 1032v-16h-45q-190 0 -259 -130q-68 -129 -68 -370v-516h-17v1032h17v-315q22 150 99 233q76 82 228 82h45z" />
    <glyph glyph-name="s" unicode="s" horiz-adv-x="991" 
d="M113 287q8 -138 116 -210q109 -73 285 -73q153 0 260 70q105 69 105 186q0 85 -52 137t-129 76q-79 24 -200 45q-132 22 -205 42q-71 19 -125 70q-53 50 -53 144q0 122 104 196t273 74q162 0 267 -69q106 -70 124 -203h-17q-21 128 -120 192q-98 64 -254 64
q-162 0 -262 -71q-99 -71 -99 -183q0 -86 50 -134q51 -49 121 -67q59 -15 198 -38q121 -20 207 -47q84 -26 135 -80q53 -56 53 -148q0 -125 -109 -199q-107 -73 -272 -73q-187 0 -299 77t-119 222h17z" />
    <glyph glyph-name="t" unicode="t" horiz-adv-x="557" 
d="M205 1016h-207v16h207v287h16v-287h293v-16h-293v-815q0 -101 42 -143t143 -42h108v-16h-108q-107 0 -154 47t-47 154v815z" />
    <glyph glyph-name="u" unicode="u" horiz-adv-x="1069" 
d="M936 1032v-1032h-16v375q-34 -179 -145 -284q-109 -103 -269 -103q-174 0 -279 121q-104 120 -104 340v583h16v-583q0 -213 101 -329t266 -116q122 0 217 66t145 186q52 124 52 281v495h16z" />
    <glyph glyph-name="v" unicode="v" horiz-adv-x="929" 
d="M31 1032h18l416 -1007l416 1007h18l-426 -1032h-16z" />
    <glyph glyph-name="w" unicode="w" horiz-adv-x="1576" 
d="M31 1032h18l363 -1003l368 1003h19l344 -1003l385 1003h18l-395 -1032h-16l-347 1008l-368 -1008h-17z" />
    <glyph glyph-name="x" unicode="x" horiz-adv-x="905" 
d="M442 524l-399 508h20l390 -493l389 493h20l-399 -508l411 -524h-22l-399 510l-402 -510h-20z" />
    <glyph glyph-name="y" unicode="y" horiz-adv-x="929" 
d="M49 1032l416 -1007l416 1007h18l-516 -1249q-35 -88 -60 -124q-26 -38 -61 -53q-37 -16 -98 -16h-103v17h103q61 0 94 15t54 50q24 39 55 117l88 213l-424 1030h18z" />
    <glyph glyph-name="z" unicode="z" horiz-adv-x="923" 
d="M76 1032h772v-20l-785 -996h816v-16h-834v20l784 996h-753v16z" />
    <glyph glyph-name="braceleft" unicode="{" horiz-adv-x="636" 
d="M266 -39q-10 -54 -10 -96q0 -126 72 -192t207 -66h51v-17h-51q-140 0 -218 72q-77 71 -77 203q0 44 10 98l41 221q12 60 12 107q0 96 -59 152t-172 61v16q113 5 172 61t59 152q0 50 -12 107l-41 221q-10 54 -10 98q0 132 77 203q78 72 218 72h51v-17h-51q-135 0 -207 -66
t-72 -192q0 -42 10 -96l41 -221q12 -57 12 -105q0 -93 -50 -151t-144 -74q94 -16 144 -74t50 -151q0 -45 -12 -105z" />
    <glyph glyph-name="bar" unicode="|" horiz-adv-x="335" 
d="M160 1434h16v-1844h-16v1844z" />
    <glyph glyph-name="braceright" unicode="}" horiz-adv-x="636" 
d="M368 438q50 58 144 74q-94 16 -144 74q-51 59 -51 151q0 43 13 105l41 221q10 54 10 96q0 126 -72 192t-207 66h-51v17h51q139 0 217 -72t78 -203q0 -44 -10 -98l-41 -221q-12 -57 -12 -107q0 -96 59 -152t172 -61v-16q-113 -5 -172 -61t-59 -152q0 -47 12 -107l41 -221
q10 -54 10 -98q0 -131 -78 -203t-217 -72h-51v17h51q135 0 207 66t72 192q0 42 -10 96l-41 221q-13 65 -13 105q0 92 51 151z" />
    <glyph glyph-name="asciitilde" unicode="~" 
d="M180 479q0 89 54 146t139 57q55 0 93 -23q39 -23 87 -67q44 -43 83 -66q37 -22 89 -22q77 0 127 53q49 52 49 133h17q0 -86 -54 -145q-53 -58 -139 -58q-56 0 -96 23q-39 22 -86 68q-41 40 -83 65q-38 23 -91 23q-75 0 -124 -54q-48 -52 -48 -133h-17z" />
    <glyph glyph-name="exclamdown" unicode="&#xa1;" horiz-adv-x="368" 
d="M226 1433q7 -7 7 -18q0 -10 -7 -17t-17 -7q-11 0 -18 7t-7 17q0 11 7 18t18 7q10 0 17 -7zM201 1032h16v-1032h-16v1032z" />
    <glyph glyph-name="cent" unicode="&#xa2;" horiz-adv-x="1083" 
d="M831 270q108 81 138 217h16q-28 -139 -135 -223t-256 -90v-174h-16v174h-5q-136 0 -243 68q-108 68 -167 188q-61 124 -61 275t61 273q60 120 167 186q108 67 243 67h5v203h16v-203q152 -6 258 -91t133 -225h-16q-29 139 -136 219t-260 80q-131 0 -234 -64t-162 -180
q-58 -115 -58 -265q0 -151 58 -267t162 -182q103 -66 234 -66q151 0 258 80z" />
    <glyph glyph-name="sterling" unicode="&#xa3;" horiz-adv-x="1234" 
d="M319 698l-20 101q-35 149 -35 245q0 112 55 203q57 94 151 146q95 53 208 53q186 0 293 -93q106 -93 141 -280h-16q-34 175 -138 266q-103 91 -280 91q-107 0 -200 -52q-92 -51 -144 -139q-53 -89 -53 -195q0 -51 8 -107q7 -51 24 -130q19 -84 23 -109h493v-16h-489
q14 -69 14 -158q0 -272 -198 -508h954v-16h-979v14q205 239 205 516q0 85 -14 152h-199v16h196z" />
    <glyph glyph-name="currency" unicode="&#xa4;" horiz-adv-x="1210" 
d="M313 1022q61 54 136 83q76 30 157 30q82 0 158 -30q73 -29 135 -83l166 168l12 -12l-166 -168q63 -62 97 -141q34 -80 34 -171q0 -85 -29 -159q-29 -75 -83 -136l147 -147l-10 -10l-147 147q-61 -61 -143 -96t-171 -35t-171 35q-80 34 -142 96l-148 -147l-12 12l148 148
q-52 61 -81 135q-30 76 -30 157q0 89 35 171q35 81 96 141l-166 168l10 10zM243 487q57 -95 152 -152q94 -56 211 -56t211 56q97 58 153 152t56 211t-56 211q-57 96 -153 153q-94 56 -211 56t-211 -56t-152 -153q-57 -96 -57 -211t57 -211z" />
    <glyph glyph-name="yen" unicode="&#xa5;" horiz-adv-x="1222" 
d="M1182 1436l-555 -895h424v-17h-433v-293h433v-16h-433v-215h-16v215h-432v16h432v293h-432v17h424l-553 895h20l549 -891l551 891h21z" />
    <glyph glyph-name="brokenbar" unicode="&#xa6;" horiz-adv-x="335" 
d="M160 1434h16v-781h-16v781zM160 373h16v-783h-16v783z" />
    <glyph glyph-name="section" unicode="&#xa7;" horiz-adv-x="1101" 
d="M876 399q-81 -70 -219 -92q110 -38 167 -92q59 -56 59 -164q0 -118 -92 -193q-91 -75 -238 -75q-139 0 -235 73q-95 72 -101 199h16q6 -120 97 -188t223 -68q138 0 226 70q87 69 87 182q0 91 -45 142t-103 73q-71 27 -179 58q-140 39 -211 68q-79 32 -131 90
q-54 60 -54 153q0 122 84 194t219 93q-109 38 -167 93q-60 57 -60 165q0 116 96 191t250 75q132 0 223 -73t97 -199h-17q-6 123 -91 189q-87 67 -212 67q-145 0 -238 -70q-91 -69 -91 -180q0 -90 45 -143q43 -50 105 -75q60 -24 177 -57q140 -39 211 -68q78 -32 131 -89
q53 -58 53 -152q0 -125 -82 -197zM854 403q88 69 88 193q0 86 -51 141q-50 54 -125 85q-67 27 -205 67l-84 24q-139 -18 -229 -88q-88 -69 -88 -190q0 -87 51 -143q50 -54 125 -85q67 -27 205 -67l84 -25q139 18 229 88z" />
    <glyph glyph-name="dieresis" unicode="&#xa8;" horiz-adv-x="819" 
d="M241 1361q7 7 17 7t17 -7q8 -8 8 -18q0 -9 -8 -17q-7 -7 -17 -7t-17 7q-8 8 -8 17q0 10 8 18zM544 1361q7 7 17 7q11 0 18 -7t7 -18q0 -10 -7 -17t-18 -7q-10 0 -17 7t-7 17q0 11 7 18z" />
    <glyph glyph-name="copyright" unicode="&#xa9;" horiz-adv-x="1710" 
d="M220 1083q98 169 265 266t369 97t369 -97q166 -96 266 -266q98 -166 98 -366q0 -201 -98 -367q-99 -168 -266 -265t-369 -97t-369 97q-168 97 -265 265q-97 167 -97 367q0 199 97 366zM1476 1075q-95 164 -261 259q-168 96 -361 96q-194 0 -360 -96t-260 -259
q-95 -164 -95 -358q0 -195 95 -359q94 -163 260 -259q164 -95 360 -95q195 0 361 95t261 259t95 359q0 194 -95 358zM1081 375q-92 -80 -227 -80q-121 0 -209 58q-87 58 -134 156q-46 96 -46 214q0 116 46 211q47 97 134 153q90 58 209 58q136 0 227 -81q94 -83 123 -214
h-16q-29 125 -118 203q-85 75 -216 75q-114 0 -200 -54t-129 -147q-44 -94 -44 -204q0 -109 44 -205q43 -92 129 -150q86 -57 200 -57q130 0 215 76q86 77 119 201h16q-30 -132 -123 -213z" />
    <glyph glyph-name="ordfeminine" unicode="&#xaa;" horiz-adv-x="882" 
d="M210 1093q63 48 177 48h260v73q0 102 -58 159t-169 57q-98 0 -159 -52q-60 -51 -75 -139h-16q12 93 80 151q66 56 170 56q116 0 180 -61t64 -171v-327q0 -39 18 -60q17 -20 53 -20h35v-16h-35q-40 0 -64 25q-24 26 -24 71v100q-27 -85 -99 -147q-73 -62 -181 -62
q-103 0 -161 49q-59 50 -59 134t63 132zM647 1124h-260q-106 0 -165 -44q-58 -43 -58 -119q0 -78 54 -122q55 -44 149 -44q85 0 147 40q64 41 98 106q35 67 35 142v41zM133 569h637v-16h-637v16z" />
    <glyph glyph-name="guillemotleft" unicode="&#xab;" horiz-adv-x="1056" 
d="M496 1032l-340 -516l340 -516h-19l-344 516l344 516h19zM913 1030l-340 -516l340 -516h-18l-344 516l344 516h18z" />
    <glyph glyph-name="logicalnot" unicode="&#xac;" 
d="M160 662h680v-367h-17v350h-663v17z" />
    <glyph glyph-name="registered" unicode="&#xae;" horiz-adv-x="1046" 
d="M184 1254q51 89 141 142q88 52 197 52t199 -51q89 -50 141 -141q51 -88 51 -197t-51 -198t-141 -140t-199 -51q-108 0 -197 51q-90 52 -141 140q-51 89 -51 196q0 109 51 197zM848 1247q-50 85 -135 135q-86 50 -191 50q-102 0 -188 -50t-135 -135t-49 -190
q0 -103 49 -188q49 -84 135 -134q85 -49 188 -49q106 0 191 49t135 135q49 85 49 189q0 103 -49 188zM543 1292q64 0 101 -35q36 -35 36 -92q0 -53 -34 -87t-89 -38l123 -215h-21l-122 215h-140v-215h-16v467h162zM397 1057h146q52 0 86 28q35 29 35 80q0 54 -34 82
q-35 29 -87 29h-146v-219z" />
    <glyph glyph-name="macron" unicode="&#xaf;" horiz-adv-x="819" 
d="M174 1335v17h471v-17h-471z" />
    <glyph glyph-name="degree" unicode="&#xb0;" horiz-adv-x="878" 
d="M705 1293q-41 71 -112 112t-153 41q-83 0 -154 -41t-112 -112t-41 -154q0 -82 41 -153t112 -112q70 -40 154 -40q83 0 153 40q71 41 112 112q40 70 40 153q0 84 -40 154zM190 1284q39 67 106 107q66 39 144 39q79 0 145 -39t105 -107t39 -145q0 -79 -39 -145t-105 -105
t-145 -39q-78 0 -144 39q-68 40 -106 105q-38 64 -38 145q0 79 38 145z" />
    <glyph glyph-name="plusminus" unicode="&#xb1;" 
d="M160 0v16h776v-16h-776zM539 995h16v-395h381v-16h-381v-396h-16v396h-379v16h379v395z" />
    <glyph glyph-name="uni00B2" unicode="&#xb2;" horiz-adv-x="620" 
d="M80 1430q0 101 64 161q65 60 167 60t166 -58t64 -147q0 -76 -40 -135q-41 -61 -118 -129l-299 -273h469v-16h-492v16l312 285q73 65 114 125q37 55 37 127q0 84 -59 136t-154 52t-155 -54t-60 -150v-17h-16v17z" />
    <glyph glyph-name="uni00B3" unicode="&#xb3;" horiz-adv-x="636" 
d="M151 1599q67 56 171 56q100 0 163 -54q64 -55 64 -139q0 -72 -49 -120q-50 -48 -133 -60q96 -15 148 -63q54 -49 54 -129q0 -91 -69 -148t-181 -57q-120 0 -188 58q-70 59 -70 161h17q0 -98 66 -150q67 -53 175 -53q103 0 168 52q66 53 66 137t-68 134t-176 50h-51v16h51
q97 0 161 47q62 46 62 125q0 78 -59 127t-151 49q-101 0 -161 -51q-61 -52 -61 -137h-16q0 93 67 149z" />
    <glyph glyph-name="acute" unicode="&#xb4;" horiz-adv-x="819" 
d="M401 1174l203 260h21l-203 -260h-21z" />
    <glyph glyph-name="uni00B5" unicode="&#xb5;" horiz-adv-x="1079" 
d="M150 -410h-17v1442h17v-583q0 -214 100 -329q101 -116 266 -116q122 0 217 66q96 67 146 186q51 122 51 281v495h16v-1032h-16v379q-34 -181 -145 -287q-108 -104 -269 -104q-139 0 -236 79t-130 226v-703z" />
    <glyph glyph-name="paragraph" unicode="&#xb6;" horiz-adv-x="1179" 
d="M821 500h-276q-145 0 -253 59q-110 60 -170 165q-61 107 -61 241q0 135 60 241q61 108 169 167q111 61 253 61h295v-1434h-17v500zM1004 1434h16v-1434h-16v1434z" />
    <glyph glyph-name="periodcentered" unicode="&#xb7;" horiz-adv-x="315" 
d="M140 605q7 7 18 7q10 0 17 -7t7 -17q0 -11 -7 -18t-17 -7q-11 0 -18 7t-7 18q0 10 7 17z" />
    <glyph glyph-name="cedilla" unicode="&#xb8;" horiz-adv-x="819" 
d="M418 0l-25 -119h47q68 0 111 -40t43 -103q0 -66 -44 -107t-114 -41h-145v17h145q64 0 103 36t39 95q0 55 -39 91t-99 36h-69l30 135h17z" />
    <glyph glyph-name="uni00B9" unicode="&#xb9;" horiz-adv-x="309" 
d="M184 895v561q-6 -14 -30 -14h-154v16h154q12 0 21 9t9 22v151h17v-745h-17z" />
    <glyph glyph-name="ordmasculine" unicode="&#xba;" horiz-adv-x="841" 
d="M631 871q-83 -93 -211 -93t-211 93q-82 92 -82 241q0 148 82 242t211 94t211 -94t82 -242q0 -149 -82 -241zM221 883q78 -88 199 -88q120 0 198 88q78 89 78 229q0 142 -78 230q-79 90 -198 90q-120 0 -199 -90q-78 -88 -78 -230q0 -140 78 -229zM123 569h596v-16h-596
v16z" />
    <glyph glyph-name="guillemotright" unicode="&#xbb;" horiz-adv-x="1056" 
d="M561 1032h19l344 -516l-344 -516h-19l340 516zM143 1030h19l344 -516l-344 -516h-19l340 516z" />
    <glyph glyph-name="onequarter" unicode="&#xbc;" horiz-adv-x="1101" 
d="M184 690v561q-6 -14 -30 -14h-154v16h154q11 0 21 10q9 9 9 21v152h17v-746h-17zM23 0l909 1434h20l-909 -1434h-20zM934 745h16v-516h135v-16h-135v-213h-16v213h-412v16zM934 719l-391 -490h391v490z" />
    <glyph glyph-name="onehalf" unicode="&#xbd;" horiz-adv-x="1226" 
d="M184 690v561q-6 -14 -30 -14h-154v16h154q11 0 21 10q9 9 9 21v152h17v-746h-17zM23 0l909 1434h20l-909 -1434h-20zM696 537q0 101 65 161t167 60t166 -58q63 -57 63 -147q0 -76 -40 -135q-41 -61 -118 -129l-299 -273h469v-16h-491v16l311 285q76 67 115 125
q37 55 37 127q0 83 -60 136q-59 52 -153 52q-96 0 -156 -54q-59 -53 -59 -150v-17h-17v17z" />
    <glyph glyph-name="threequarters" unicode="&#xbe;" horiz-adv-x="1429" 
d="M151 1395q65 55 171 55q100 0 163 -54q64 -55 64 -139q0 -71 -49 -119q-51 -49 -133 -61q96 -15 148 -63q54 -50 54 -129q0 -91 -69 -148t-181 -57q-120 0 -188 58q-70 59 -70 161h17q0 -97 66 -149q68 -54 175 -54q101 0 168 53q66 53 66 136q0 84 -68 134t-176 50h-51
v16h51q96 0 161 48q62 46 62 124t-59 127q-61 50 -151 50q-100 0 -161 -52t-61 -137h-16q0 94 67 150zM350 0l910 1434h20l-909 -1434h-21zM1262 745h16v-516h135v-16h-135v-213h-16v213h-412v16zM1262 719l-392 -490h392v490z" />
    <glyph glyph-name="questiondown" unicode="&#xbf;" horiz-adv-x="995" 
d="M527 1398q-7 -7 -17 -7t-17 7q-8 8 -8 17q0 10 8 18q7 7 17 7t17 -7q8 -8 8 -18q0 -9 -8 -17zM842 193q-51 -97 -145 -151q-93 -54 -214 -54q-108 0 -193 43t-131 117t-46 167q0 111 45 187q44 75 127 143l45 37q84 62 129 118q43 53 43 140v94h16v-94q0 -86 -44 -144
q-41 -53 -134 -128l-43 -33q-80 -67 -125 -140q-43 -70 -43 -180q0 -87 45 -158q46 -72 126 -112q82 -41 183 -41q117 0 206 51q88 51 138 145t50 212h16q0 -123 -51 -219z" />
    <glyph glyph-name="Agrave" unicode="&#xc0;" horiz-adv-x="1249" 
d="M51 0l563 1434h21l563 -1434h-18l-201 512h-709l-200 -512h-19zM276 528h697l-348 885zM412 1835h20l203 -260h-21z" />
    <glyph glyph-name="Aacute" unicode="&#xc1;" horiz-adv-x="1249" 
d="M51 0l563 1434h21l563 -1434h-18l-201 512h-709l-200 -512h-19zM276 528h697l-348 885zM616 1575l203 260h21l-203 -260h-21z" />
    <glyph glyph-name="Acircumflex" unicode="&#xc2;" horiz-adv-x="1249" 
d="M51 0l563 1434h21l563 -1434h-18l-201 512h-709l-200 -512h-19zM276 528h697l-348 885zM625 1821l-250 -248h-23l262 262h21l262 -262h-23z" />
    <glyph glyph-name="Atilde" unicode="&#xc3;" horiz-adv-x="1249" 
d="M51 0l563 1434h21l563 -1434h-18l-201 512h-709l-200 -512h-19zM276 528h697l-348 885zM439 1752q-23 -33 -23 -83h-17v2q0 56 29 94q28 37 84 37q45 0 68 -16q25 -17 51 -49q25 -30 48 -44q26 -16 58 -16q49 0 73 34t24 83h16v-2q0 -56 -29 -94q-28 -37 -84 -37
q-44 0 -67 16q-27 19 -52 49t-48 44q-26 16 -58 16q-49 0 -73 -34z" />
    <glyph glyph-name="Adieresis" unicode="&#xc4;" horiz-adv-x="1249" 
d="M51 0l563 1434h21l563 -1434h-18l-201 512h-709l-200 -512h-19zM276 528h697l-348 885zM456 1762q7 7 17 7t17 -7q8 -8 8 -17q0 -10 -8 -18q-7 -7 -17 -7t-17 7t-7 18q0 10 7 17zM759 1762q7 7 17 7q11 0 18 -7t7 -17q0 -11 -7 -18t-18 -7q-10 0 -17 7t-7 18q0 10 7 17z
" />
    <glyph glyph-name="Aring" unicode="&#xc5;" horiz-adv-x="1249" 
d="M1198 0h-18l-201 512h-709l-200 -512h-19l561 1425q-85 6 -144 68q-58 61 -58 147q0 90 63 153q62 62 152 62t152 -62q63 -63 63 -153q0 -85 -59 -147t-144 -68zM484 1500q58 -58 141 -58q84 0 141 58t57 140q0 85 -57 142t-141 57q-83 0 -141 -57t-58 -142
q0 -82 58 -140zM276 528h697l-348 885z" />
    <glyph glyph-name="AE" unicode="&#xc6;" horiz-adv-x="1859" 
d="M948 16h850v-16h-866v453h-598l-283 -453h-20l897 1434h841v-17h-821v-672h697v-16h-697v-713zM344 469h588v942z" />
    <glyph glyph-name="Ccedilla" unicode="&#xc7;" horiz-adv-x="1415" 
d="M1092 103q134 102 190 300h16q-55 -202 -189 -307q-132 -103 -339 -108l-22 -107h47q67 0 110 -40t43 -103q0 -66 -44 -107t-113 -41h-146v17h146q63 0 102 36t39 95q0 55 -39 91t-98 36h-70l29 123h-4q-190 0 -335 92t-224 258q-78 163 -78 377q0 216 78 379
q79 165 224 259q144 93 335 93q209 0 353 -106q143 -105 200 -308h-17q-56 193 -194 296q-136 102 -342 102q-185 0 -327 -92q-141 -91 -217 -254q-77 -165 -77 -369q0 -205 77 -370q76 -163 217 -253t327 -90q208 0 342 101z" />
    <glyph glyph-name="Egrave" unicode="&#xc8;" horiz-adv-x="1087" 
d="M160 1432h837v-17h-821v-672h696v-16h-696v-713h850v-16h-866v1434zM330 1835h20l203 -260h-21z" />
    <glyph glyph-name="Eacute" unicode="&#xc9;" horiz-adv-x="1087" 
d="M160 1432h837v-17h-821v-672h696v-16h-696v-713h850v-16h-866v1434zM535 1575l202 260h21l-203 -260h-20z" />
    <glyph glyph-name="Ecircumflex" unicode="&#xca;" horiz-adv-x="1087" 
d="M160 1432h837v-17h-821v-672h696v-16h-696v-713h850v-16h-866v1434zM543 1821l-250 -248h-23l262 262h21l262 -262h-22z" />
    <glyph glyph-name="Edieresis" unicode="&#xcb;" horiz-adv-x="1087" 
d="M160 1432h837v-17h-821v-672h696v-16h-696v-713h850v-16h-866v1434zM374 1762q7 7 17 7q11 0 18 -7t7 -17q0 -11 -7 -18t-18 -7q-10 0 -17 7t-7 18q0 10 7 17zM677 1762q7 7 17 7q11 0 18 -7t7 -17q0 -11 -7 -18t-18 -7q-10 0 -17 7t-7 18q0 10 7 17z" />
    <glyph glyph-name="Igrave" unicode="&#xcc;" horiz-adv-x="335" 
d="M160 1434h16v-1434h-16v1434zM-45 1835h20l203 -260h-20z" />
    <glyph glyph-name="Iacute" unicode="&#xcd;" horiz-adv-x="335" 
d="M160 1434h16v-1434h-16v1434zM160 1575l202 260h21l-203 -260h-20z" />
    <glyph glyph-name="Icircumflex" unicode="&#xce;" horiz-adv-x="335" 
d="M160 1434h16v-1434h-16v1434zM168 1821l-250 -248h-22l262 262h20l262 -262h-22z" />
    <glyph glyph-name="Idieresis" unicode="&#xcf;" horiz-adv-x="335" 
d="M160 1434h16v-1434h-16v1434zM-1 1762q7 7 17 7q11 0 18 -7t7 -17q0 -11 -7 -18t-18 -7q-10 0 -17 7t-7 18q0 10 7 17zM302 1762q7 7 17 7q11 0 18 -7t7 -17q0 -11 -7 -18t-18 -7q-10 0 -17 7t-7 18q0 10 7 17z" />
    <glyph glyph-name="Eth" unicode="&#xd0;" horiz-adv-x="1355" 
d="M913 1347q162 -87 246 -248t84 -382t-84 -382t-246 -248t-391 -87h-329v727h-195v16h195v691h329q229 0 391 -87zM904 101q158 85 241 243q82 157 82 373q0 219 -82 374q-82 156 -241 241q-158 85 -382 85h-313v-674h364v-16h-364v-711h313q224 0 382 85z" />
    <glyph glyph-name="Ntilde" unicode="&#xd1;" horiz-adv-x="1314" 
d="M160 0v1434h20l959 -1407v1407h16v-1434h-20l-959 1409v-1409h-16zM474 1752q-23 -33 -23 -83h-17v2q0 56 29 94q28 37 84 37q44 0 67 -16q27 -19 52 -49t48 -44q26 -16 58 -16q49 0 73 34q23 33 23 83h17v-2q0 -56 -29 -94q-28 -37 -84 -37q-44 0 -67 16q-27 19 -52 49
t-48 44q-26 16 -58 16q-49 0 -73 -34z" />
    <glyph glyph-name="Ograve" unicode="&#xd2;" horiz-adv-x="1523" 
d="M1328 340q-82 -165 -230 -259q-147 -93 -336 -93t-336 93q-148 94 -230 259q-83 168 -83 377t83 377q82 165 230 259q147 93 336 93t336 -93q148 -94 230 -259q83 -168 83 -377t-83 -377zM210 347q81 -164 224 -253q144 -90 328 -90t328 90q143 89 224 253q81 163 81 370
q0 206 -81 369q-81 164 -224 253q-146 91 -328 91t-328 -91q-143 -89 -224 -253q-81 -163 -81 -369q0 -207 81 -370zM551 1835h20l203 -260h-20z" />
    <glyph glyph-name="Oacute" unicode="&#xd3;" horiz-adv-x="1523" 
d="M1328 340q-82 -165 -230 -259q-147 -93 -336 -93t-336 93q-148 94 -230 259q-83 168 -83 377t83 377q82 165 230 259q147 93 336 93t336 -93q148 -94 230 -259q83 -168 83 -377t-83 -377zM210 347q81 -164 224 -253q144 -90 328 -90t328 90q143 89 224 253q81 163 81 370
q0 206 -81 369q-81 164 -224 253q-146 91 -328 91t-328 -91q-143 -89 -224 -253q-81 -163 -81 -369q0 -207 81 -370zM756 1575l202 260h21l-203 -260h-20z" />
    <glyph glyph-name="Ocircumflex" unicode="&#xd4;" horiz-adv-x="1523" 
d="M1328 340q-82 -165 -230 -259q-147 -93 -336 -93t-336 93q-148 94 -230 259q-83 168 -83 377t83 377q82 165 230 259q147 93 336 93t336 -93q148 -94 230 -259q83 -168 83 -377t-83 -377zM210 347q81 -164 224 -253q144 -90 328 -90t328 90q143 89 224 253q81 163 81 370
q0 206 -81 369q-81 164 -224 253q-146 91 -328 91t-328 -91q-143 -89 -224 -253q-81 -163 -81 -369q0 -207 81 -370zM764 1821l-250 -248h-22l262 262h20l262 -262h-22z" />
    <glyph glyph-name="Otilde" unicode="&#xd5;" horiz-adv-x="1523" 
d="M1328 340q-82 -165 -230 -259q-147 -93 -336 -93t-336 93q-148 94 -230 259q-83 168 -83 377t83 377q82 165 230 259q147 93 336 93t336 -93q148 -94 230 -259q83 -168 83 -377t-83 -377zM210 347q81 -164 224 -253q144 -90 328 -90t328 90q143 89 224 253q81 163 81 370
q0 206 -81 369q-81 164 -224 253q-146 91 -328 91t-328 -91q-143 -89 -224 -253q-81 -163 -81 -369q0 -207 81 -370zM579 1752q-24 -34 -24 -83h-16v2q0 57 28 94t84 37q45 0 68 -16q25 -17 51 -49q25 -30 48 -44q26 -16 59 -16q48 0 72 34t24 83h16v-2q0 -57 -28 -94
t-84 -37q-45 0 -68 16q-25 17 -51 49q-25 30 -48 44q-26 16 -59 16q-48 0 -72 -34z" />
    <glyph glyph-name="Odieresis" unicode="&#xd6;" horiz-adv-x="1523" 
d="M1328 340q-82 -165 -230 -259q-147 -93 -336 -93t-336 93q-148 94 -230 259q-83 168 -83 377t83 377q82 165 230 259q147 93 336 93t336 -93q148 -94 230 -259q83 -168 83 -377t-83 -377zM210 347q81 -164 224 -253q144 -90 328 -90t328 90q143 89 224 253q81 163 81 370
q0 206 -81 369q-81 164 -224 253q-146 91 -328 91t-328 -91q-143 -89 -224 -253q-81 -163 -81 -369q0 -207 81 -370zM595 1762q7 7 17 7q11 0 18 -7t7 -17q0 -11 -7 -18t-18 -7q-10 0 -17 7t-7 18q0 10 7 17zM898 1762q7 7 17 7q11 0 18 -7t7 -17q0 -11 -7 -18t-18 -7
q-10 0 -17 7t-7 18q0 10 7 17z" />
    <glyph glyph-name="multiply" unicode="&#xd7;" 
d="M219 928l330 -330l330 330l10 -10l-330 -330l330 -330l-10 -10l-330 330l-330 -330l-10 10l330 330l-330 330z" />
    <glyph glyph-name="Oslash" unicode="&#xd8;" horiz-adv-x="1523" 
d="M1235 1237q84 -99 130 -231t46 -289q0 -209 -83 -377q-82 -165 -230 -259q-147 -93 -336 -93q-138 0 -256 51q-121 52 -205 145l-176 -196l-12 10l176 199q-84 99 -130 231t-46 289q0 209 83 377q82 165 230 259q147 93 336 93q138 0 256 -51q119 -51 205 -146l176 197
l12 -10zM174 434q45 -130 127 -225l911 1028q-86 94 -199 142q-119 51 -251 51q-182 0 -328 -91q-143 -89 -224 -253q-81 -163 -81 -369q0 -154 45 -283zM1350 999q-46 132 -127 226l-912 -1028q87 -94 200 -143q117 -50 251 -50q184 0 328 90q143 89 224 253q81 163 81 370
q0 153 -45 282z" />
    <glyph glyph-name="Ugrave" unicode="&#xd9;" horiz-adv-x="1296" 
d="M170 1434v-869q0 -284 115 -423q114 -138 360 -138q251 0 366 138q115 137 115 423v869h17v-869q0 -293 -120 -435t-378 -142q-256 0 -374 142q-117 141 -117 435v869h16zM436 1835h21l202 -260h-20z" />
    <glyph glyph-name="Uacute" unicode="&#xda;" horiz-adv-x="1296" 
d="M170 1434v-869q0 -284 115 -423q114 -138 360 -138q251 0 366 138q115 137 115 423v869h17v-869q0 -293 -120 -435t-378 -142q-256 0 -374 142q-117 141 -117 435v869h16zM641 1575l203 260h20l-202 -260h-21z" />
    <glyph glyph-name="Ucircumflex" unicode="&#xdb;" horiz-adv-x="1296" 
d="M170 1434v-869q0 -284 115 -423q114 -138 360 -138q251 0 366 138q115 137 115 423v869h17v-869q0 -293 -120 -435t-378 -142q-256 0 -374 142q-117 141 -117 435v869h16zM649 1821l-250 -248h-22l262 262h20l263 -262h-23z" />
    <glyph glyph-name="Udieresis" unicode="&#xdc;" horiz-adv-x="1296" 
d="M170 1434v-869q0 -284 115 -423q114 -138 360 -138q251 0 366 138q115 137 115 423v869h17v-869q0 -293 -120 -435t-378 -142q-256 0 -374 142q-117 141 -117 435v869h16zM480 1762q7 7 18 7q10 0 17 -7t7 -17q0 -11 -7 -18t-17 -7q-11 0 -18 7t-7 18q0 10 7 17z
M783 1762q7 7 18 7q10 0 17 -7t7 -17q0 -11 -7 -18t-17 -7q-11 0 -18 7t-7 18q0 10 7 17z" />
    <glyph glyph-name="Yacute" unicode="&#xdd;" horiz-adv-x="1222" 
d="M41 1436h20l549 -891l551 891h21l-564 -910v-526h-16v526zM592 1575l203 260h20l-203 -260h-20z" />
    <glyph glyph-name="Thorn" unicode="&#xde;" horiz-adv-x="1087" 
d="M176 1434v-293h408q452 0 452 -400q0 -204 -118 -298q-119 -95 -336 -95h-406v-348h-16v1434h16zM176 365h406q213 0 325 94q113 95 113 282q0 383 -436 383h-408v-759z" />
    <glyph glyph-name="germandbls" unicode="&#xdf;" horiz-adv-x="1130" 
d="M408 29v18q104 -43 219 -43q114 0 203 47q91 48 140 132q50 86 50 190q0 191 -140 289t-372 98q-23 0 -51 -2v16q211 1 325 99q115 98 115 249q0 141 -98 224q-99 84 -252 84q-163 0 -267 -101t-104 -280v-1049h-16v1049q0 184 107 290q109 107 280 107q160 0 263 -88
t103 -232t-92 -238t-246 -118q211 -10 336 -114t125 -283q0 -111 -52 -199q-52 -87 -145 -137q-92 -49 -212 -49q-107 0 -219 41z" />
    <glyph glyph-name="agrave" unicode="&#xe0;" horiz-adv-x="1083" 
d="M1063 16v-16h-21q-65 0 -104 41t-39 111v149q-37 -143 -157 -228q-119 -85 -308 -85q-158 0 -250 77t-92 207q0 133 103 210t292 77h412v119q0 167 -97 258q-98 92 -276 92q-154 0 -250 -69t-120 -187h-17q22 123 125 198q101 74 262 74q186 0 288 -96q101 -95 101 -270
v-526q0 -61 35 -99q34 -37 92 -37h21zM684 56q104 52 160 146q55 92 55 210v131h-412q-180 0 -280 -73q-98 -71 -98 -198q0 -123 88 -195q90 -73 237 -73q146 0 250 52zM313 1434h21l203 -260h-21z" />
    <glyph glyph-name="aacute" unicode="&#xe1;" horiz-adv-x="1083" 
d="M1063 16v-16h-21q-65 0 -104 41t-39 111v149q-37 -143 -157 -228q-119 -85 -308 -85q-158 0 -250 77t-92 207q0 133 103 210t292 77h412v119q0 167 -97 258q-98 92 -276 92q-154 0 -250 -69t-120 -187h-17q22 123 125 198q101 74 262 74q186 0 288 -96q101 -95 101 -270
v-526q0 -61 35 -99q34 -37 92 -37h21zM684 56q104 52 160 146q55 92 55 210v131h-412q-180 0 -280 -73q-98 -71 -98 -198q0 -123 88 -195q90 -73 237 -73q146 0 250 52zM518 1174l203 260h20l-202 -260h-21z" />
    <glyph glyph-name="acircumflex" unicode="&#xe2;" horiz-adv-x="1083" 
d="M1063 16v-16h-21q-65 0 -104 41t-39 111v149q-37 -143 -157 -228q-119 -85 -308 -85q-158 0 -250 77t-92 207q0 133 103 210t292 77h412v119q0 167 -97 258q-98 92 -276 92q-154 0 -250 -69t-120 -187h-17q22 123 125 198q101 74 262 74q186 0 288 -96q101 -95 101 -270
v-526q0 -61 35 -99q34 -37 92 -37h21zM684 56q104 52 160 146q55 92 55 210v131h-412q-180 0 -280 -73q-98 -71 -98 -198q0 -123 88 -195q90 -73 237 -73q146 0 250 52zM526 1419l-250 -248h-22l262 263h21l262 -263h-23z" />
    <glyph glyph-name="atilde" unicode="&#xe3;" horiz-adv-x="1083" 
d="M1063 16v-16h-21q-65 0 -104 41t-39 111v149q-37 -143 -157 -228q-119 -85 -308 -85q-158 0 -250 77t-92 207q0 133 103 210t292 77h412v119q0 167 -97 258q-98 92 -276 92q-154 0 -250 -69t-120 -187h-17q22 123 125 198q101 74 262 74q186 0 288 -96q101 -95 101 -270
v-526q0 -61 35 -99q34 -37 92 -37h21zM684 56q104 52 160 146q55 92 55 210v131h-412q-180 0 -280 -73q-98 -71 -98 -198q0 -123 88 -195q90 -73 237 -73q146 0 250 52zM341 1351q-24 -35 -24 -83h-16v2q0 56 29 94q28 37 84 37q42 0 67 -17t51 -49q24 -28 49 -44
q24 -15 58 -15q49 0 73 34q23 33 23 83h17v-2q0 -57 -29 -95q-27 -36 -84 -36q-45 0 -68 16q-25 17 -51 49q-25 30 -48 44q-24 15 -58 15q-50 0 -73 -33z" />
    <glyph glyph-name="adieresis" unicode="&#xe4;" horiz-adv-x="1083" 
d="M1063 16v-16h-21q-65 0 -104 41t-39 111v149q-37 -143 -157 -228q-119 -85 -308 -85q-158 0 -250 77t-92 207q0 133 103 210t292 77h412v119q0 167 -97 258q-98 92 -276 92q-154 0 -250 -69t-120 -187h-17q22 123 125 198q101 74 262 74q186 0 288 -96q101 -95 101 -270
v-526q0 -61 35 -99q34 -37 92 -37h21zM684 56q104 52 160 146q55 92 55 210v131h-412q-180 0 -280 -73q-98 -71 -98 -198q0 -123 88 -195q90 -73 237 -73q146 0 250 52zM357 1361q7 7 18 7q10 0 17 -7t7 -18q0 -10 -7 -17t-17 -7q-11 0 -18 7t-7 17q0 11 7 18zM660 1361
q7 7 18 7q10 0 17 -7t7 -18q0 -10 -7 -17t-17 -7q-11 0 -18 7t-7 17q0 11 7 18z" />
    <glyph glyph-name="aring" unicode="&#xe5;" horiz-adv-x="1083" 
d="M1063 16v-16h-21q-65 0 -104 41t-39 111v149q-37 -143 -157 -228q-119 -85 -308 -85q-158 0 -250 77t-92 207q0 133 103 210t292 77h412v119q0 167 -97 258q-98 92 -276 92q-154 0 -250 -69t-120 -187h-17q22 123 125 198q101 74 262 74q186 0 288 -96q101 -95 101 -270
v-526q0 -61 35 -99q34 -37 92 -37h21zM684 56q104 52 160 146q55 92 55 210v131h-412q-180 0 -280 -73q-98 -71 -98 -198q0 -123 88 -195q90 -73 237 -73q146 0 250 52zM374 1517q62 62 152 62t152 -62q63 -63 63 -153q0 -89 -63 -152t-152 -63t-152 63t-63 152q0 90 63 153
zM667 1505q-60 58 -141 58q-83 0 -141 -58q-57 -57 -57 -141q0 -82 57 -140q57 -59 141 -59q82 0 141 59q58 58 58 140q0 84 -58 141z" />
    <glyph glyph-name="ae" unicode="&#xe6;" horiz-adv-x="1914" 
d="M915 551v-33q0 -145 59 -265q57 -116 162 -183q104 -66 232 -66q148 0 260 91q113 92 152 243h16q-39 -161 -156 -255q-118 -95 -272 -95q-172 0 -296 109t-159 288q-8 -114 -71 -205q-63 -90 -167 -141q-103 -51 -229 -51q-168 0 -261 78t-93 217q0 131 102 207
q103 77 291 77h414v111q0 165 -98 257q-99 93 -275 93q-154 0 -250 -69t-120 -187h-17q22 123 125 198q101 74 262 74q186 0 288 -96q101 -95 101 -270v-25q37 179 156 285q118 106 285 106q196 0 321 -129t135 -358v-6h-897zM1141 970q-97 -59 -155 -163q-57 -103 -68 -240
h876q-15 219 -133 340t-305 121q-120 0 -215 -58zM899 551h-414q-180 0 -279 -73q-97 -72 -97 -195q0 -131 89 -205t248 -74q125 0 229 53q103 52 164 147q60 93 60 208v139z" />
    <glyph glyph-name="ccedilla" unicode="&#xe7;" horiz-adv-x="1083" 
d="M831 84q108 81 138 217h16q-30 -140 -141 -226q-111 -85 -264 -87l-23 -107h47q68 0 111 -40t43 -103q0 -66 -44 -107t-114 -41h-145v17h145q63 0 102 36t39 95q0 55 -39 91t-98 36h-69l28 123q-135 1 -239 70t-163 189q-59 121 -59 271q0 152 61 274q60 120 167 186
q106 66 243 66q158 0 271 -86t141 -229h-16q-29 138 -136 218q-108 81 -260 81q-131 0 -234 -64t-162 -181q-58 -115 -58 -265t58 -266t162 -182q103 -66 234 -66q151 0 258 80z" />
    <glyph glyph-name="egrave" unicode="&#xe8;" horiz-adv-x="1118" 
d="M161 792q59 120 162 186q104 66 236 66q199 0 322 -126q125 -128 135 -355v-6h-895q-2 -16 -2 -39q0 -148 58 -265q57 -116 162 -183q103 -66 232 -66q148 0 260 91q113 92 152 243h16q-40 -162 -155 -255q-118 -95 -273 -95q-133 0 -240 67q-108 67 -168 189
q-61 124 -61 274q0 153 59 274zM997 573q-15 216 -133 335q-118 120 -305 120q-119 0 -215 -57t-155 -161q-57 -101 -68 -237h876zM346 1434h21l202 -260h-20z" />
    <glyph glyph-name="eacute" unicode="&#xe9;" horiz-adv-x="1118" 
d="M161 792q59 120 162 186q104 66 236 66q199 0 322 -126q125 -128 135 -355v-6h-895q-2 -16 -2 -39q0 -148 58 -265q57 -116 162 -183q103 -66 232 -66q148 0 260 91q113 92 152 243h16q-40 -162 -155 -255q-118 -95 -273 -95q-133 0 -240 67q-108 67 -168 189
q-61 124 -61 274q0 153 59 274zM997 573q-15 216 -133 335q-118 120 -305 120q-119 0 -215 -57t-155 -161q-57 -101 -68 -237h876zM551 1174l203 260h20l-203 -260h-20z" />
    <glyph glyph-name="ecircumflex" unicode="&#xea;" horiz-adv-x="1118" 
d="M161 792q59 120 162 186q104 66 236 66q199 0 322 -126q125 -128 135 -355v-6h-895q-2 -16 -2 -39q0 -148 58 -265q57 -116 162 -183q103 -66 232 -66q148 0 260 91q113 92 152 243h16q-40 -162 -155 -255q-118 -95 -273 -95q-133 0 -240 67q-108 67 -168 189
q-61 124 -61 274q0 153 59 274zM997 573q-15 216 -133 335q-118 120 -305 120q-119 0 -215 -57t-155 -161q-57 -101 -68 -237h876zM559 1419l-250 -248h-22l262 263h20l262 -263h-22z" />
    <glyph glyph-name="edieresis" unicode="&#xeb;" horiz-adv-x="1118" 
d="M161 792q59 120 162 186q104 66 236 66q199 0 322 -126q125 -128 135 -355v-6h-895q-2 -16 -2 -39q0 -148 58 -265q57 -116 162 -183q103 -66 232 -66q148 0 260 91q113 92 152 243h16q-40 -162 -155 -255q-118 -95 -273 -95q-133 0 -240 67q-108 67 -168 189
q-61 124 -61 274q0 153 59 274zM997 573q-15 216 -133 335q-118 120 -305 120q-119 0 -215 -57t-155 -161q-57 -101 -68 -237h876zM390 1361q7 7 18 7q10 0 17 -7t7 -18q0 -10 -7 -17t-17 -7q-11 0 -18 7t-7 17q0 11 7 18zM693 1361q7 7 18 7q10 0 17 -7t7 -18q0 -10 -7 -17
t-17 -7q-11 0 -18 7t-7 17q0 11 7 18z" />
    <glyph glyph-name="igrave" unicode="&#xec;" horiz-adv-x="282" 
d="M133 1032h17v-1032h-17v1032zM-72 1434h21l203 -260h-21z" />
    <glyph glyph-name="iacute" unicode="&#xed;" horiz-adv-x="282" 
d="M133 1032h17v-1032h-17v1032zM133 1174l203 260h20l-202 -260h-21z" />
    <glyph glyph-name="icircumflex" unicode="&#xee;" horiz-adv-x="282" 
d="M133 1032h17v-1032h-17v1032zM141 1419l-250 -248h-22l262 263h21l262 -263h-23z" />
    <glyph glyph-name="idieresis" unicode="&#xef;" horiz-adv-x="282" 
d="M133 1032h17v-1032h-17v1032zM-28 1361q7 7 18 7q10 0 17 -7t7 -18q0 -10 -7 -17t-17 -7q-11 0 -18 7t-7 17q0 11 7 18zM275 1361q7 7 18 7q10 0 17 -7t7 -18q0 -10 -7 -17t-17 -7q-11 0 -18 7t-7 17q0 11 7 18z" />
    <glyph glyph-name="eth" unicode="&#xf0;" horiz-adv-x="1169" 
d="M942 906q104 -202 105 -402q-1 -151 -61 -272q-58 -118 -165 -181t-248 -63q-138 0 -243 62q-108 64 -167 173q-61 113 -61 252q0 140 61 251q60 109 169 171q107 61 248 61q147 0 258 -71q113 -72 168 -193q-43 158 -134 303q-91 146 -210 256l-263 -176l-8 15l258 174
q-111 103 -229 170l12 10q120 -68 232 -170l251 170l9 -14l-248 -168q163 -157 266 -358zM814 67q103 63 160 177q56 112 56 266q-6 134 -69 233q-63 100 -165 149q-103 50 -223 50q-132 0 -234 -59q-104 -60 -162 -166t-58 -242t58 -243t162 -167q105 -61 234 -61
q137 0 241 63z" />
    <glyph glyph-name="ntilde" unicode="&#xf1;" horiz-adv-x="1081" 
d="M854 925q104 -119 104 -341v-584h-16v584q0 213 -100 328q-101 116 -273 116q-129 0 -222 -65q-96 -67 -146 -187q-51 -122 -51 -280v-496h-17v1032h17v-375q38 184 146 285q110 102 273 102q181 0 285 -119zM384 1351q-24 -35 -24 -83h-16v2q0 56 29 94q28 37 84 37
q42 0 67 -17t51 -49q24 -28 49 -44q24 -15 58 -15q49 0 73 34q23 33 23 83h17v-2q0 -57 -29 -95q-27 -36 -84 -36q-45 0 -68 16q-25 17 -51 49q-25 30 -48 44q-24 15 -58 15q-50 0 -73 -33z" />
    <glyph glyph-name="ograve" unicode="&#xf2;" horiz-adv-x="1146" 
d="M330 55q-107 68 -167 188q-61 122 -61 273q0 152 61 274q59 119 167 187q106 67 243 67q138 0 244 -67q108 -68 167 -187q60 -120 60 -274q0 -153 -60 -273t-167 -188q-106 -67 -244 -67q-137 0 -243 67zM808 69q104 65 162 181t58 266t-58 266q-59 118 -162 182t-235 64
q-131 0 -234 -64t-162 -182q-58 -116 -58 -266t58 -266t162 -181t234 -65q131 0 235 65zM360 1434h21l203 -260h-21z" />
    <glyph glyph-name="oacute" unicode="&#xf3;" horiz-adv-x="1146" 
d="M330 55q-107 68 -167 188q-61 122 -61 273q0 152 61 274q59 119 167 187q106 67 243 67q138 0 244 -67q108 -68 167 -187q60 -120 60 -274q0 -153 -60 -273t-167 -188q-106 -67 -244 -67q-137 0 -243 67zM808 69q104 65 162 181t58 266t-58 266q-59 118 -162 182t-235 64
q-131 0 -234 -64t-162 -182q-58 -116 -58 -266t58 -266t162 -181t234 -65q131 0 235 65zM565 1174l203 260h20l-202 -260h-21z" />
    <glyph glyph-name="ocircumflex" unicode="&#xf4;" horiz-adv-x="1146" 
d="M330 55q-107 68 -167 188q-61 122 -61 273q0 152 61 274q59 119 167 187q106 67 243 67q138 0 244 -67q108 -68 167 -187q60 -120 60 -274q0 -153 -60 -273t-167 -188q-106 -67 -244 -67q-137 0 -243 67zM808 69q104 65 162 181t58 266t-58 266q-59 118 -162 182t-235 64
q-131 0 -234 -64t-162 -182q-58 -116 -58 -266t58 -266t162 -181t234 -65q131 0 235 65zM573 1419l-249 -248h-23l262 263h21l262 -263h-23z" />
    <glyph glyph-name="otilde" unicode="&#xf5;" horiz-adv-x="1146" 
d="M330 55q-107 68 -167 188q-61 122 -61 273q0 152 61 274q59 119 167 187q106 67 243 67q138 0 244 -67q108 -68 167 -187q60 -120 60 -274q0 -153 -60 -273t-167 -188q-106 -67 -244 -67q-137 0 -243 67zM808 69q104 65 162 181t58 266t-58 266q-59 118 -162 182t-235 64
q-131 0 -234 -64t-162 -182q-58 -116 -58 -266t58 -266t162 -181t234 -65q131 0 235 65zM388 1351q-23 -33 -23 -83h-17v2q0 56 29 94q28 37 84 37q42 0 67 -17q27 -19 52 -49t48 -44q24 -15 58 -15q49 0 73 34q23 33 23 83h17v-2q0 -57 -29 -95q-27 -36 -84 -36
q-45 0 -68 16q-25 17 -51 49q-25 30 -48 44q-24 15 -58 15q-50 0 -73 -33z" />
    <glyph glyph-name="odieresis" unicode="&#xf6;" horiz-adv-x="1146" 
d="M330 55q-107 68 -167 188q-61 122 -61 273q0 152 61 274q59 119 167 187q106 67 243 67q138 0 244 -67q108 -68 167 -187q60 -120 60 -274q0 -153 -60 -273t-167 -188q-106 -67 -244 -67q-137 0 -243 67zM808 69q104 65 162 181t58 266t-58 266q-59 118 -162 182t-235 64
q-131 0 -234 -64t-162 -182q-58 -116 -58 -266t58 -266t162 -181t234 -65q131 0 235 65zM404 1361q7 7 18 7q10 0 17 -7t7 -18q0 -10 -7 -17t-17 -7q-11 0 -18 7t-7 17q0 11 7 18zM708 1361q7 7 17 7t17 -7q8 -8 8 -18q0 -9 -8 -17q-7 -7 -17 -7t-17 7q-8 8 -8 17q0 10 8 18
z" />
    <glyph glyph-name="divide" unicode="&#xf7;" 
d="M529 257q7 7 18 7q10 0 17 -7t7 -17q0 -11 -7 -18t-17 -7q-11 0 -18 7t-7 18q0 10 7 17zM529 962q7 7 18 7q10 0 17 -7t7 -18q0 -10 -7 -17t-17 -7q-11 0 -18 7t-7 17q0 11 7 18zM160 584v16h776v-16h-776z" />
    <glyph glyph-name="oslash" unicode="&#xf8;" horiz-adv-x="1157" 
d="M922 887q58 -67 91 -165q31 -93 31 -206q0 -153 -60 -273t-167 -188q-106 -67 -244 -67q-101 0 -185 37q-86 38 -148 104l-127 -141l-11 10l127 141q-61 71 -94 168q-33 96 -33 209q0 152 61 274q59 119 167 187q106 67 243 67q104 0 190 -37t148 -110l133 147l11 -10z
M151 313q31 -94 91 -161l659 733q-62 68 -145 105q-85 38 -183 38q-131 0 -234 -64t-162 -182q-58 -116 -58 -266q0 -107 32 -203zM911 874l-659 -733q61 -65 143 -101q83 -36 178 -36q131 0 235 65t162 181t58 266q0 214 -117 358z" />
    <glyph glyph-name="ugrave" unicode="&#xf9;" horiz-adv-x="1069" 
d="M936 1032v-1032h-16v375q-34 -179 -145 -284q-109 -103 -269 -103q-174 0 -279 121q-104 120 -104 340v583h16v-583q0 -213 101 -329t266 -116q122 0 217 66t145 186q52 124 52 281v495h16zM317 1434h21l203 -260h-21z" />
    <glyph glyph-name="uacute" unicode="&#xfa;" horiz-adv-x="1069" 
d="M936 1032v-1032h-16v375q-34 -179 -145 -284q-109 -103 -269 -103q-174 0 -279 121q-104 120 -104 340v583h16v-583q0 -213 101 -329t266 -116q122 0 217 66t145 186q52 124 52 281v495h16zM522 1174l203 260h20l-202 -260h-21z" />
    <glyph glyph-name="ucircumflex" unicode="&#xfb;" horiz-adv-x="1069" 
d="M936 1032v-1032h-16v375q-34 -179 -145 -284q-109 -103 -269 -103q-174 0 -279 121q-104 120 -104 340v583h16v-583q0 -213 101 -329t266 -116q122 0 217 66t145 186q52 124 52 281v495h16zM530 1419l-249 -248h-23l262 263h21l262 -263h-23z" />
    <glyph glyph-name="udieresis" unicode="&#xfc;" horiz-adv-x="1069" 
d="M936 1032v-1032h-16v375q-34 -179 -145 -284q-109 -103 -269 -103q-174 0 -279 121q-104 120 -104 340v583h16v-583q0 -213 101 -329t266 -116q122 0 217 66t145 186q52 124 52 281v495h16zM361 1361q7 7 18 7q10 0 17 -7t7 -18q0 -10 -7 -17t-17 -7q-11 0 -18 7t-7 17
q0 11 7 18zM665 1361q7 7 17 7t17 -7q8 -8 8 -18q0 -9 -8 -17q-7 -7 -17 -7t-17 7q-8 8 -8 17q0 10 8 18z" />
    <glyph glyph-name="yacute" unicode="&#xfd;" horiz-adv-x="929" 
d="M49 1032l416 -1007l416 1007h18l-516 -1249q-35 -88 -60 -124q-26 -38 -61 -53q-37 -16 -98 -16h-103v17h103q61 0 94 15t54 50q24 39 55 117l88 213l-424 1030h18zM455 1174l202 260h21l-203 -260h-20z" />
    <glyph glyph-name="thorn" unicode="&#xfe;" horiz-adv-x="1177" 
d="M150 1434v-777q38 179 159 282q123 105 295 105q138 0 244 -67q107 -68 167 -189q60 -122 60 -272q0 -153 -60 -273t-167 -188q-106 -67 -244 -67q-172 0 -295 105q-121 103 -159 282v-785h-17v1844h17zM1000 780q-59 118 -161 183t-235 65q-132 0 -234 -65
q-104 -66 -162 -183q-58 -116 -58 -264q0 -150 58 -265t162 -181t234 -66q132 0 235 66q102 65 161 181t59 265q0 146 -59 264z" />
    <glyph glyph-name="ydieresis" unicode="&#xff;" horiz-adv-x="929" 
d="M49 1032l416 -1007l416 1007h18l-516 -1249q-35 -88 -60 -124q-26 -38 -61 -53q-37 -16 -98 -16h-103v17h103q61 0 94 15t54 50q24 39 55 117l88 213l-424 1030h18zM294 1361q7 7 17 7q11 0 18 -7t7 -18q0 -10 -7 -17t-18 -7q-10 0 -17 7t-7 17q0 11 7 18zM597 1361
q7 7 17 7q11 0 18 -7t7 -18q0 -10 -7 -17t-18 -7q-10 0 -17 7t-7 17q0 11 7 18z" />
    <glyph glyph-name="Amacron" unicode="&#x100;" horiz-adv-x="1249" 
d="M51 0l563 1434h21l563 -1434h-18l-201 512h-709l-200 -512h-19zM276 528h697l-348 885zM389 1737v16h471v-16h-471z" />
    <glyph glyph-name="amacron" unicode="&#x101;" horiz-adv-x="1083" 
d="M1063 16v-16h-21q-65 0 -104 41t-39 111v149q-37 -143 -157 -228q-119 -85 -308 -85q-158 0 -250 77t-92 207q0 133 103 210t292 77h412v119q0 167 -97 258q-98 92 -276 92q-154 0 -250 -69t-120 -187h-17q22 123 125 198q101 74 262 74q186 0 288 -96q101 -95 101 -270
v-526q0 -61 35 -99q34 -37 92 -37h21zM684 56q104 52 160 146q55 92 55 210v131h-412q-180 0 -280 -73q-98 -71 -98 -198q0 -123 88 -195q90 -73 237 -73q146 0 250 52zM291 1335v17h471v-17h-471z" />
    <glyph glyph-name="Abreve" unicode="&#x102;" horiz-adv-x="1249" 
d="M51 0l563 1434h21l563 -1434h-18l-201 512h-709l-200 -512h-19zM276 528h697l-348 885zM416 1835q0 -94 58 -153q58 -60 147 -60q92 0 152 60q61 61 61 153h16q0 -100 -65 -165q-64 -64 -164 -64q-96 0 -159 64t-63 165h17z" />
    <glyph glyph-name="abreve" unicode="&#x103;" horiz-adv-x="1083" 
d="M1063 16v-16h-21q-65 0 -104 41t-39 111v149q-37 -143 -157 -228q-119 -85 -308 -85q-158 0 -250 77t-92 207q0 133 103 210t292 77h412v119q0 167 -97 258q-98 92 -276 92q-154 0 -250 -69t-120 -187h-17q22 123 125 198q101 74 262 74q186 0 288 -96q101 -95 101 -270
v-526q0 -61 35 -99q34 -37 92 -37h21zM684 56q104 52 160 146q55 92 55 210v131h-412q-180 0 -280 -73q-98 -71 -98 -198q0 -123 88 -195q90 -73 237 -73q146 0 250 52zM317 1434q0 -92 59 -153q59 -60 146 -60q93 0 153 60t60 153h17q0 -100 -65 -165t-165 -65
q-95 0 -158 65t-63 165h16z" />
    <glyph glyph-name="Aogonek" unicode="&#x104;" horiz-adv-x="1249" 
d="M1219 -393v-17h-113q-75 0 -118 38q-42 37 -42 104q0 73 56 130q54 56 176 142l-199 508h-709l-200 -512h-19l563 1434h21l563 -1434q-4 -3 -15.5 -11.5t-32 -23.5t-42.5 -31q-78 -57 -111 -104q-34 -49 -34 -98q0 -59 37 -92q38 -33 106 -33h113zM276 528h697l-348 885z
" />
    <glyph glyph-name="aogonek" unicode="&#x105;" horiz-adv-x="1083" 
d="M1083 -393v-17h-112q-75 0 -118 38q-42 38 -42 104q0 70 56 129t171 139q-63 1 -101 43q-38 41 -38 109v149q-37 -143 -157 -228q-119 -85 -308 -85q-158 0 -250 77t-92 207q0 133 103 210t292 77h412v119q0 167 -97 258q-98 92 -276 92q-154 0 -250 -69t-120 -187h-17
q22 123 125 198q101 74 262 74q186 0 288 -96q101 -95 101 -270v-526q0 -61 35 -99q34 -37 92 -37h21v-16q-4 -3 -15.5 -11.5t-32 -23.5t-42.5 -31q-78 -57 -111 -104q-35 -50 -35 -98q0 -59 38 -92q37 -33 106 -33h112zM684 56q104 52 160 146q55 92 55 210v131h-412
q-180 0 -280 -73q-98 -71 -98 -198q0 -123 88 -195q90 -73 237 -73q146 0 250 52z" />
    <glyph glyph-name="Cacute" unicode="&#x106;" horiz-adv-x="1415" 
d="M191 1094q79 165 224 259q144 93 335 93q209 0 353 -106q143 -105 200 -308h-17q-56 193 -194 296q-136 102 -342 102q-185 0 -327 -92q-141 -91 -217 -254q-77 -165 -77 -369q0 -205 77 -370q76 -163 217 -253t327 -90q208 0 342 101q134 102 190 300h16
q-57 -206 -195 -311q-137 -104 -353 -104q-190 0 -335 92t-224 258q-78 163 -78 377q0 216 78 379zM741 1575l203 260h21l-203 -260h-21z" />
    <glyph glyph-name="cacute" unicode="&#x107;" horiz-adv-x="1083" 
d="M843 73q-110 -85 -270 -85q-137 0 -243 67q-107 68 -167 189q-61 124 -61 274q0 152 61 274q60 120 167 186q106 66 243 66q158 0 271 -86t141 -229h-16q-29 138 -136 218q-108 81 -260 81q-131 0 -234 -64t-162 -181q-58 -115 -58 -265t58 -266t162 -182
q103 -66 234 -66q151 0 258 80q108 81 138 217h16q-29 -141 -142 -228zM565 1174l203 260h20l-202 -260h-21z" />
    <glyph glyph-name="Ccircumflex" unicode="&#x108;" horiz-adv-x="1415" 
d="M191 1094q79 165 224 259q144 93 335 93q209 0 353 -106q143 -105 200 -308h-17q-56 193 -194 296q-136 102 -342 102q-185 0 -327 -92q-141 -91 -217 -254q-77 -165 -77 -369q0 -205 77 -370q76 -163 217 -253t327 -90q208 0 342 101q134 102 190 300h16
q-57 -206 -195 -311q-137 -104 -353 -104q-190 0 -335 92t-224 258q-78 163 -78 377q0 216 78 379zM750 1821l-250 -248h-23l262 262h21l262 -262h-23z" />
    <glyph glyph-name="ccircumflex" unicode="&#x109;" horiz-adv-x="1083" 
d="M843 73q-110 -85 -270 -85q-137 0 -243 67q-107 68 -167 189q-61 124 -61 274q0 152 61 274q60 120 167 186q106 66 243 66q158 0 271 -86t141 -229h-16q-29 138 -136 218q-108 81 -260 81q-131 0 -234 -64t-162 -181q-58 -115 -58 -265t58 -266t162 -182
q103 -66 234 -66q151 0 258 80q108 81 138 217h16q-29 -141 -142 -228zM573 1419l-249 -248h-23l262 263h21l262 -263h-23z" />
    <glyph glyph-name="Cdotaccent" unicode="&#x10a;" horiz-adv-x="1415" 
d="M191 1094q79 165 224 259q144 93 335 93q209 0 353 -106q143 -105 200 -308h-17q-56 193 -194 296q-136 102 -342 102q-185 0 -327 -92q-141 -91 -217 -254q-77 -165 -77 -369q0 -205 77 -370q76 -163 217 -253t327 -90q208 0 342 101q134 102 190 300h16
q-57 -206 -195 -311q-137 -104 -353 -104q-190 0 -335 92t-224 258q-78 163 -78 377q0 216 78 379zM732 1775q7 7 18 7q10 0 17 -7t7 -18q0 -10 -7 -17t-17 -7q-11 0 -18 7t-7 17q0 11 7 18z" />
    <glyph glyph-name="cdotaccent" unicode="&#x10b;" horiz-adv-x="1083" 
d="M843 73q-110 -85 -270 -85q-137 0 -243 67q-107 68 -167 189q-61 124 -61 274q0 152 61 274q60 120 167 186q106 66 243 66q158 0 271 -86t141 -229h-16q-29 138 -136 218q-108 81 -260 81q-131 0 -234 -64t-162 -181q-58 -115 -58 -265t58 -266t162 -182
q103 -66 234 -66q151 0 258 80q108 81 138 217h16q-29 -141 -142 -228zM556 1373q7 7 17 7q11 0 18 -7t7 -17q0 -11 -7 -18t-18 -7q-10 0 -17 7t-7 18q0 10 7 17z" />
    <glyph glyph-name="Ccaron" unicode="&#x10c;" horiz-adv-x="1415" 
d="M191 1094q79 165 224 259q144 93 335 93q209 0 353 -106q143 -105 200 -308h-17q-56 193 -194 296q-136 102 -342 102q-185 0 -327 -92q-141 -91 -217 -254q-77 -165 -77 -369q0 -205 77 -370q76 -163 217 -253t327 -90q208 0 342 101q134 102 190 300h16
q-57 -206 -195 -311q-137 -104 -353 -104q-190 0 -335 92t-224 258q-78 163 -78 377q0 216 78 379zM750 1587l249 248h23l-262 -262h-21l-262 262h23z" />
    <glyph glyph-name="ccaron" unicode="&#x10d;" horiz-adv-x="1083" 
d="M843 73q-110 -85 -270 -85q-137 0 -243 67q-107 68 -167 189q-61 124 -61 274q0 152 61 274q60 120 167 186q106 66 243 66q158 0 271 -86t141 -229h-16q-29 138 -136 218q-108 81 -260 81q-131 0 -234 -64t-162 -181q-58 -115 -58 -265t58 -266t162 -182
q103 -66 234 -66q151 0 258 80q108 81 138 217h16q-29 -141 -142 -228zM573 1186l250 248h23l-262 -263h-21l-262 263h23z" />
    <glyph glyph-name="Dcaron" unicode="&#x10e;" horiz-adv-x="1323" 
d="M160 1434h329q230 0 392 -87q160 -86 245 -248q84 -161 84 -382t-84 -382q-85 -162 -245 -248q-162 -87 -392 -87h-329v1434zM489 16q224 0 382 85t241 243q82 157 82 373q0 219 -82 374q-82 156 -241 241q-158 85 -382 85h-313v-1401h313zM571 1587l250 248h23
l-262 -262h-21l-262 262h23z" />
    <glyph glyph-name="dcaron" unicode="&#x10f;" horiz-adv-x="1245" 
d="M1044 1434v-1434h-16v371q-39 -174 -162 -279q-122 -104 -293 -104q-137 0 -243 67q-107 68 -167 188q-61 122 -61 273q0 148 61 272q60 121 167 189q106 67 243 67q171 0 293 -104q123 -105 162 -278v772h16zM808 70q104 66 162 181t58 265q0 148 -58 264
q-58 117 -162 183q-102 65 -235 65q-132 0 -234 -65q-103 -66 -162 -183q-58 -116 -58 -264q0 -150 58 -265t162 -181q103 -66 234 -66t235 66zM1247 1434h17l-95 -293h-16z" />
    <glyph glyph-name="Dcroat" unicode="&#x110;" horiz-adv-x="1355" 
d="M913 1347q162 -87 246 -248t84 -382t-84 -382t-246 -248t-391 -87h-329v727h-195v16h195v691h329q229 0 391 -87zM904 101q158 85 241 243q82 157 82 373q0 219 -82 374q-82 156 -241 241q-158 85 -382 85h-313v-674h364v-16h-364v-711h313q224 0 382 85z" />
    <glyph glyph-name="dcroat" unicode="&#x111;" horiz-adv-x="1198" 
d="M1235 1237h-191v-1237h-16v371q-39 -174 -162 -279q-122 -104 -293 -104q-137 0 -243 67q-107 68 -167 188q-61 122 -61 273q0 148 61 272q60 121 167 189q106 67 243 67q171 0 293 -104q123 -105 162 -278v575h-307v16h307v181h16v-181h191v-16zM808 70q104 66 162 181
t58 265q0 148 -58 264q-58 117 -162 183q-102 65 -235 65q-132 0 -234 -65q-103 -66 -162 -183q-58 -116 -58 -264q0 -150 58 -265t162 -181q103 -66 234 -66t235 66z" />
    <glyph glyph-name="Emacron" unicode="&#x112;" horiz-adv-x="1087" 
d="M160 1432h837v-17h-821v-672h696v-16h-696v-713h850v-16h-866v1434zM307 1737v16h471v-16h-471z" />
    <glyph glyph-name="emacron" unicode="&#x113;" horiz-adv-x="1118" 
d="M161 792q59 120 162 186q104 66 236 66q199 0 322 -126q125 -128 135 -355v-6h-895q-2 -16 -2 -39q0 -148 58 -265q57 -116 162 -183q103 -66 232 -66q148 0 260 91q113 92 152 243h16q-40 -162 -155 -255q-118 -95 -273 -95q-133 0 -240 67q-108 67 -168 189
q-61 124 -61 274q0 153 59 274zM997 573q-15 216 -133 335q-118 120 -305 120q-119 0 -215 -57t-155 -161q-57 -101 -68 -237h876zM324 1335v17h471v-17h-471z" />
    <glyph glyph-name="Ebreve" unicode="&#x114;" horiz-adv-x="1087" 
d="M160 1432h837v-17h-821v-672h696v-16h-696v-713h850v-16h-866v1434zM334 1835q0 -94 58 -153q58 -60 147 -60q92 0 152 60q61 61 61 153h16q0 -100 -65 -165q-64 -64 -164 -64q-96 0 -159 64t-63 165h17z" />
    <glyph glyph-name="ebreve" unicode="&#x115;" horiz-adv-x="1118" 
d="M161 792q59 120 162 186q104 66 236 66q199 0 322 -126q125 -128 135 -355v-6h-895q-2 -16 -2 -39q0 -148 58 -265q57 -116 162 -183q103 -66 232 -66q148 0 260 91q113 92 152 243h16q-40 -162 -155 -255q-118 -95 -273 -95q-133 0 -240 67q-108 67 -168 189
q-61 124 -61 274q0 153 59 274zM997 573q-15 216 -133 335q-118 120 -305 120q-119 0 -215 -57t-155 -161q-57 -101 -68 -237h876zM350 1434q0 -92 59 -153q59 -60 146 -60q93 0 153 60t60 153h16q0 -101 -64 -165q-65 -65 -165 -65q-96 0 -159 65q-62 63 -62 165h16z" />
    <glyph glyph-name="Edotaccent" unicode="&#x116;" horiz-adv-x="1087" 
d="M160 1432h837v-17h-821v-672h696v-16h-696v-713h850v-16h-866v1434zM525 1775q7 7 18 7q10 0 17 -7t7 -18q0 -10 -7 -17t-17 -7q-11 0 -18 7t-7 17q0 11 7 18z" />
    <glyph glyph-name="edotaccent" unicode="&#x117;" horiz-adv-x="1118" 
d="M161 792q59 120 162 186q104 66 236 66q199 0 322 -126q125 -128 135 -355v-6h-895q-2 -16 -2 -39q0 -148 58 -265q57 -116 162 -183q103 -66 232 -66q148 0 260 91q113 92 152 243h16q-40 -162 -155 -255q-118 -95 -273 -95q-133 0 -240 67q-108 67 -168 189
q-61 124 -61 274q0 153 59 274zM997 573q-15 216 -133 335q-118 120 -305 120q-119 0 -215 -57t-155 -161q-57 -101 -68 -237h876zM542 1373q7 7 17 7q11 0 18 -7t7 -17q0 -11 -7 -18t-18 -7q-10 0 -17 7t-7 18q0 10 7 17z" />
    <glyph glyph-name="Eogonek" unicode="&#x118;" horiz-adv-x="1087" 
d="M1047 -393v-17h-113q-75 0 -118 38q-42 38 -42 104q0 70 54 127q50 53 169 139h-837v1434h837v-17h-821v-672h696v-16h-696v-713h850v-16h-2q-3 -2 -32 -24t-58 -43q-76 -56 -109 -102q-34 -47 -34 -97q0 -59 37 -92q38 -33 106 -33h113z" />
    <glyph glyph-name="eogonek" unicode="&#x119;" horiz-adv-x="1118" 
d="M121 557q-2 -16 -2 -39q0 -148 58 -265q57 -116 162 -183q103 -66 232 -66q148 0 260 91q113 92 152 243h16q-34 -133 -119 -220q-88 -90 -208 -118q-3 -2 -32 -24t-58 -43q-76 -56 -109 -103q-35 -50 -35 -98q0 -59 38 -92t106 -33h112v-17h-112q-75 0 -118 38
q-42 38 -42 104q0 70 54 128q52 57 163 132q-40 -4 -68 -4q-133 0 -240 67q-108 67 -168 189q-61 124 -61 274q0 153 59 274q59 120 162 186q104 66 236 66q199 0 322 -126q125 -128 135 -355v-6h-895zM344 971q-96 -57 -155 -161q-57 -101 -68 -237h876q-15 216 -133 335
q-118 120 -305 120q-119 0 -215 -57z" />
    <glyph glyph-name="Ecaron" unicode="&#x11a;" horiz-adv-x="1087" 
d="M160 1432h837v-17h-821v-672h696v-16h-696v-713h850v-16h-866v1434zM543 1587l250 248h22l-262 -262h-21l-262 262h23z" />
    <glyph glyph-name="ecaron" unicode="&#x11b;" horiz-adv-x="1118" 
d="M161 792q59 120 162 186q104 66 236 66q199 0 322 -126q125 -128 135 -355v-6h-895q-2 -16 -2 -39q0 -148 58 -265q57 -116 162 -183q103 -66 232 -66q148 0 260 91q113 92 152 243h16q-40 -162 -155 -255q-118 -95 -273 -95q-133 0 -240 67q-108 67 -168 189
q-61 124 -61 274q0 153 59 274zM997 573q-15 216 -133 335q-118 120 -305 120q-119 0 -215 -57t-155 -161q-57 -101 -68 -237h876zM559 1186l250 248h22l-262 -263h-20l-262 263h22z" />
    <glyph glyph-name="Gcircumflex" unicode="&#x11c;" horiz-adv-x="1488" 
d="M189 1094q76 165 221 259q144 93 333 93q212 0 356 -106q142 -104 199 -308h-18q-56 192 -195 296q-137 102 -342 102q-183 0 -323 -92q-138 -91 -215 -253q-76 -161 -76 -370q0 -207 75 -369q74 -161 209 -253q133 -91 310 -91q188 0 321 85q134 86 201 224
q68 141 68 301v80h-527v17h543v-709h-16v469q-43 -211 -195 -346t-395 -135q-180 0 -320 92q-138 91 -215 258q-75 163 -75 377t76 379zM741 1821l-249 -248h-23l262 262h21l262 -262h-23z" />
    <glyph glyph-name="gcircumflex" unicode="&#x11d;" horiz-adv-x="1177" 
d="M1044 1032v-950q0 -268 -113 -385q-114 -119 -347 -119q-175 0 -293 83t-148 237h19q28 -145 140 -225q110 -79 282 -79q228 0 336 116t108 372v291q-39 -175 -162 -280t-293 -105q-137 0 -243 67q-107 68 -167 189q-61 124 -61 274q0 154 60 274q60 121 167 186
q108 66 244 66q171 0 293 -103q123 -104 162 -277v368h16zM808 70q105 67 162 183q58 117 58 267q0 148 -58 263q-59 117 -162 181t-235 64t-234 -65q-103 -66 -162 -182q-58 -115 -58 -263q0 -150 58 -266t162 -182q103 -66 234 -66t235 66zM573 1419l-249 -248h-23
l262 263h21l262 -263h-23z" />
    <glyph glyph-name="Gbreve" unicode="&#x11e;" horiz-adv-x="1488" 
d="M189 1094q76 165 221 259q144 93 333 93q212 0 356 -106q142 -104 199 -308h-18q-56 192 -195 296q-137 102 -342 102q-183 0 -323 -92q-138 -91 -215 -253q-76 -161 -76 -370q0 -207 75 -369q74 -161 209 -253q133 -91 310 -91q188 0 321 85q134 86 201 224
q68 141 68 301v80h-527v17h543v-709h-16v469q-43 -211 -195 -346t-395 -135q-180 0 -320 92q-138 91 -215 258q-75 163 -75 377t76 379zM532 1835q0 -92 59 -153q59 -60 146 -60q93 0 153 60t60 153h17q0 -100 -65 -165q-64 -64 -165 -64q-95 0 -158 64t-63 165h16z" />
    <glyph glyph-name="gbreve" unicode="&#x11f;" horiz-adv-x="1177" 
d="M1044 1032v-950q0 -268 -113 -385q-114 -119 -347 -119q-175 0 -293 83t-148 237h19q28 -145 140 -225q110 -79 282 -79q228 0 336 116t108 372v291q-39 -175 -162 -280t-293 -105q-137 0 -243 67q-107 68 -167 189q-61 124 -61 274q0 154 60 274q60 121 167 186
q108 66 244 66q171 0 293 -103q123 -104 162 -277v368h16zM808 70q105 67 162 183q58 117 58 267q0 148 -58 263q-59 117 -162 181t-235 64t-234 -65q-103 -66 -162 -182q-58 -115 -58 -263q0 -150 58 -266t162 -182q103 -66 234 -66t235 66zM365 1434q0 -94 58 -153
q59 -60 146 -60q93 0 153 60t60 153h17q0 -100 -65 -165t-165 -65q-95 0 -158 65t-63 165h17z" />
    <glyph glyph-name="Gdotaccent" unicode="&#x120;" horiz-adv-x="1488" 
d="M189 1094q76 165 221 259q144 93 333 93q212 0 356 -106q142 -104 199 -308h-18q-56 192 -195 296q-137 102 -342 102q-183 0 -323 -92q-138 -91 -215 -253q-76 -161 -76 -370q0 -207 75 -369q74 -161 209 -253q133 -91 310 -91q188 0 321 85q134 86 201 224
q68 141 68 301v80h-527v17h543v-709h-16v469q-43 -211 -195 -346t-395 -135q-180 0 -320 92q-138 91 -215 258q-75 163 -75 377t76 379zM724 1775q7 7 17 7q11 0 18 -7t7 -18q0 -10 -7 -17t-18 -7q-10 0 -17 7t-7 17q0 11 7 18z" />
    <glyph glyph-name="gdotaccent" unicode="&#x121;" horiz-adv-x="1177" 
d="M1044 1032v-950q0 -268 -113 -385q-114 -119 -347 -119q-175 0 -293 83t-148 237h19q28 -145 140 -225q110 -79 282 -79q228 0 336 116t108 372v291q-39 -175 -162 -280t-293 -105q-137 0 -243 67q-107 68 -167 189q-61 124 -61 274q0 154 60 274q60 121 167 186
q108 66 244 66q171 0 293 -103q123 -104 162 -277v368h16zM808 70q105 67 162 183q58 117 58 267q0 148 -58 263q-59 117 -162 181t-235 64t-234 -65q-103 -66 -162 -182q-58 -115 -58 -263q0 -150 58 -266t162 -182q103 -66 234 -66t235 66zM556 1373q7 7 17 7q11 0 18 -7
t7 -17q0 -11 -7 -18t-18 -7q-10 0 -17 7t-7 18q0 10 7 17z" />
    <glyph glyph-name="Gcommaaccent" unicode="&#x122;" horiz-adv-x="1488" 
d="M189 1094q76 165 221 259q144 93 333 93q212 0 356 -106q142 -104 199 -308h-18q-56 192 -195 296q-137 102 -342 102q-183 0 -323 -92q-138 -91 -215 -253q-76 -161 -76 -370q0 -207 75 -369q74 -161 209 -253q133 -91 310 -91q188 0 321 85q134 86 201 224
q68 141 68 301v80h-527v17h543v-709h-16v469q-43 -211 -195 -346t-395 -135q-180 0 -320 92q-138 91 -215 258q-75 163 -75 377t76 379zM715 -111h16l-88 -282h-16z" />
    <glyph glyph-name="gcommaaccent" unicode="&#x123;" horiz-adv-x="1177" 
d="M1044 1032v-950q0 -268 -113 -385q-114 -119 -347 -119q-175 0 -293 83t-148 237h19q28 -145 140 -225q110 -79 282 -79q228 0 336 116t108 372v291q-39 -175 -162 -280t-293 -105q-137 0 -243 67q-107 68 -167 189q-61 124 -61 274q0 154 60 274q60 121 167 186
q108 66 244 66q171 0 293 -103q123 -104 162 -277v368h16zM808 70q105 67 162 183q58 117 58 267q0 148 -58 263q-59 117 -162 181t-235 64t-234 -65q-103 -66 -162 -182q-58 -115 -58 -263q0 -150 58 -266t162 -182q103 -66 234 -66t235 66zM565 1151h-16l88 283h16z" />
    <glyph glyph-name="Hcircumflex" unicode="&#x124;" horiz-adv-x="1302" 
d="M160 1436h16v-693h950v693h17v-1436h-17v727h-950v-727h-16v1436zM651 1821l-250 -248h-22l262 262h21l262 -262h-23z" />
    <glyph glyph-name="hcircumflex" unicode="&#x125;" horiz-adv-x="1081" 
d="M854 925q104 -119 104 -341v-584h-16v584q0 213 -100 328q-101 116 -273 116q-129 0 -222 -65q-96 -67 -146 -187q-51 -122 -51 -280v-496h-17v1434h17v-777q38 184 146 285q110 102 273 102q181 0 285 -119zM141 1800l-250 -248h-22l262 263h21l262 -263h-23z" />
    <glyph glyph-name="Hbar" unicode="&#x126;" horiz-adv-x="1323" 
d="M1325 1102v-17h-172v-1085h-16v717h-951v-717h-16v1085h-172v17h172v334h16v-334h951v334h16v-334h172zM1137 733v352h-951v-352h951z" />
    <glyph glyph-name="hbar" unicode="&#x127;" horiz-adv-x="1101" 
d="M874 925q105 -120 105 -341v-584h-16v584q0 212 -101 328t-272 116q-129 0 -222 -65q-97 -68 -147 -187q-51 -122 -51 -280v-496h-16v1237h-191v16h191v181h16v-181h307v-16h-307v-580q38 184 146 285q110 102 274 102q180 0 284 -119z" />
    <glyph glyph-name="Itilde" unicode="&#x128;" horiz-adv-x="335" 
d="M160 1434h16v-1434h-16v1434zM-17 1752q-24 -34 -24 -83h-16v2q0 57 28 94t84 37q45 0 68 -16q25 -17 51 -49q25 -30 48 -44q26 -16 59 -16q48 0 72 34t24 83h16v-2q0 -57 -28 -94t-84 -37q-45 0 -68 16q-25 17 -51 49q-25 30 -48 44q-26 16 -59 16q-48 0 -72 -34z" />
    <glyph glyph-name="itilde" unicode="&#x129;" horiz-adv-x="282" 
d="M133 1032h17v-1032h-17v1032zM-44 1351q-24 -35 -24 -83h-16v2q0 56 29 94q28 37 84 37q42 0 67 -17t51 -49q24 -28 49 -44q24 -15 58 -15q49 0 73 34q23 33 23 83h17v-2q0 -57 -29 -95q-27 -36 -84 -36q-45 0 -68 16q-25 17 -51 49q-25 30 -48 44q-24 15 -58 15
q-50 0 -73 -33z" />
    <glyph glyph-name="Imacron" unicode="&#x12a;" horiz-adv-x="335" 
d="M160 1434h16v-1434h-16v1434zM-68 1737v16h471v-16h-471z" />
    <glyph glyph-name="imacron" unicode="&#x12b;" horiz-adv-x="282" 
d="M133 1032h17v-1032h-17v1032zM-94 1335v17h471v-17h-471z" />
    <glyph glyph-name="Ibreve" unicode="&#x12c;" horiz-adv-x="335" 
d="M160 1434h16v-1434h-16v1434zM-41 1835q0 -94 58 -153q59 -60 147 -60q92 0 152 60q61 61 61 153h16q0 -101 -64 -165t-165 -64q-96 0 -159 64q-62 63 -62 165h16z" />
    <glyph glyph-name="ibreve" unicode="&#x12d;" horiz-adv-x="282" 
d="M133 1032h17v-1032h-17v1032zM-68 1434q0 -92 59 -153q58 -60 146 -60q93 0 153 60t60 153h17q0 -100 -65 -165t-165 -65q-96 0 -159 65q-62 63 -62 165h16z" />
    <glyph glyph-name="Iogonek" unicode="&#x12e;" horiz-adv-x="335" 
d="M197 -393v-17h-113q-75 0 -118 38q-42 38 -42 104q0 71 59 132q57 58 177 142v1428h16v-1434q-4 -3 -15.5 -11.5t-32 -23.5t-42.5 -31q-78 -57 -111 -104q-34 -49 -34 -98q0 -59 37 -92t106 -33h113z" />
    <glyph glyph-name="iogonek" unicode="&#x12f;" horiz-adv-x="282" 
d="M124 1338q-7 7 -7 18q0 10 7 17t17 7q11 0 18 -7t7 -17q0 -11 -7 -18t-18 -7q-10 0 -17 7zM170 -393v-17h-113q-74 0 -117 38q-42 38 -42 104q0 73 58 132q57 58 177 142v1026h17v-1032q-1 -1 -91 -66q-76 -55 -110 -104q-35 -50 -35 -98q0 -59 38 -92t105 -33h113z" />
    <glyph glyph-name="Idotaccent" unicode="&#x130;" horiz-adv-x="335" 
d="M160 1434h16v-1434h-16v1434zM151 1775q7 7 17 7t17 -7q8 -8 8 -18q0 -9 -8 -17q-7 -7 -17 -7t-17 7q-8 8 -8 17q0 10 8 18z" />
    <glyph glyph-name="dotlessi" unicode="&#x131;" horiz-adv-x="282" 
d="M133 1032h17v-1032h-17v1032z" />
    <glyph glyph-name="IJ" unicode="&#x132;" horiz-adv-x="1163" 
d="M154 1434h16v-531h-16v531zM170 479q0 -224 109 -350q108 -125 301 -125q204 0 309 113q104 111 104 383v934h17v-934q0 -278 -110 -396q-109 -116 -320 -116q-202 0 -314 130t-112 361h16z" />
    <glyph glyph-name="ij" unicode="&#x133;" horiz-adv-x="577" 
d="M159 1373q7 -7 7 -17q0 -11 -7 -18t-18 -7q-10 0 -17 7t-7 18q0 10 7 17t17 7q11 0 18 -7zM133 1032h17v-1032h-17v1032zM454 1373q7 -7 7 -17q0 -11 -7 -18t-18 -7q-10 0 -17 7t-7 18q0 10 7 17t17 7q11 0 18 -7zM244 -393q100 0 142 42t42 142v1241h16v-1241
q0 -106 -47 -153q-48 -48 -153 -48h-109v17h109z" />
    <glyph glyph-name="Jcircumflex" unicode="&#x134;" horiz-adv-x="661" 
d="M502 1434v-1190q0 -127 -59 -186q-58 -58 -185 -58h-197v16h197q121 0 174 55t53 173v1190h17zM492 1821l-250 -248h-23l262 262h21l262 -262h-23z" />
    <glyph glyph-name="jcircumflex" unicode="&#x135;" horiz-adv-x="294" 
d="M-39 -393q100 0 142 42t42 142v1241h17v-1241q0 -106 -47 -153q-48 -48 -154 -48h-108v17h108zM152 1419l-250 -248h-23l262 263h21l262 -263h-23z" />
    <glyph glyph-name="Kcommaaccent" unicode="&#x136;" horiz-adv-x="1171" 
d="M160 1434h16v-1031l891 1031h20l-514 -594l568 -840h-21l-559 825l-385 -446v-379h-16v1434zM618 -113h17l-88 -282h-17z" />
    <glyph glyph-name="kcommaaccent" unicode="&#x137;" horiz-adv-x="958" 
d="M133 1434h17v-1123l714 721h23l-434 -436l475 -596h-21l-467 584l-290 -293v-291h-17v1434zM502 -113h16l-88 -282h-16z" />
    <glyph glyph-name="Lacute" unicode="&#x139;" horiz-adv-x="950" 
d="M160 0v1434h16v-1418h733v-16h-749zM160 1575l202 260h21l-203 -260h-20z" />
    <glyph glyph-name="lacute" unicode="&#x13a;" horiz-adv-x="282" 
d="M133 1434h17v-1434h-17v1434zM133 1554l203 261h20l-202 -261h-21z" />
    <glyph glyph-name="Lcommaaccent" unicode="&#x13b;" horiz-adv-x="950" 
d="M160 0v1434h16v-1418h733v-16h-749zM526 -113h17l-88 -282h-17z" />
    <glyph glyph-name="lcommaaccent" unicode="&#x13c;" horiz-adv-x="282" 
d="M133 1434h17v-1434h-17v1434zM133 -113h17l-89 -282h-16z" />
    <glyph glyph-name="Lcaron" unicode="&#x13d;" horiz-adv-x="950" 
d="M160 0v1434h16v-1418h733v-16h-749zM453 1434h16l-94 -293h-17z" />
    <glyph glyph-name="lcaron" unicode="&#x13e;" horiz-adv-x="350" 
d="M133 1434h17v-1434h-17v1434zM352 1434h17l-95 -293h-16z" />
    <glyph glyph-name="Ldot" unicode="&#x13f;" horiz-adv-x="950" 
d="M160 0v1434h16v-1418h733v-16h-749zM622 765q7 7 17 7t17 -7q8 -8 8 -17q0 -10 -8 -18q-7 -7 -17 -7t-17 7q-8 8 -8 18q0 9 8 17z" />
    <glyph glyph-name="ldot" unicode="&#x140;" horiz-adv-x="497" 
d="M133 1434h17v-1434h-17v1434zM364 767q7 7 17 7t17 -7q8 -8 8 -17q0 -10 -8 -18q-7 -7 -17 -7t-17 7q-8 8 -8 18q0 9 8 17z" />
    <glyph glyph-name="Lslash" unicode="&#x141;" horiz-adv-x="987" 
d="M213 16h733v-16h-749v692l-199 -104v18l199 105v723h16v-715l367 194v-18l-367 -195v-684z" />
    <glyph glyph-name="lslash" unicode="&#x142;" horiz-adv-x="487" 
d="M475 926v-19l-223 -125v-782h-16v772l-224 -125v19l224 125v643h16v-633z" />
    <glyph glyph-name="Nacute" unicode="&#x143;" horiz-adv-x="1314" 
d="M160 0v1434h20l959 -1407v1407h16v-1434h-20l-959 1409v-1409h-16zM651 1575l203 260h20l-202 -260h-21z" />
    <glyph glyph-name="nacute" unicode="&#x144;" horiz-adv-x="1081" 
d="M854 925q104 -119 104 -341v-584h-16v584q0 213 -100 328q-101 116 -273 116q-129 0 -222 -65q-96 -67 -146 -187q-51 -122 -51 -280v-496h-17v1032h17v-375q38 184 146 285q110 102 273 102q181 0 285 -119zM561 1174l203 260h20l-202 -260h-21z" />
    <glyph glyph-name="Ncommaaccent" unicode="&#x145;" horiz-adv-x="1314" 
d="M160 0v1434h20l959 -1407v1407h16v-1434h-20l-959 1409v-1409h-16zM651 -113h17l-88 -282h-17z" />
    <glyph glyph-name="ncommaaccent" unicode="&#x146;" horiz-adv-x="1081" 
d="M854 925q104 -119 104 -341v-584h-16v584q0 213 -100 328q-101 116 -273 116q-129 0 -222 -65q-96 -67 -146 -187q-51 -122 -51 -280v-496h-17v1032h17v-375q38 184 146 285q110 102 273 102q181 0 285 -119zM537 -113h16l-88 -282h-16z" />
    <glyph glyph-name="Ncaron" unicode="&#x147;" horiz-adv-x="1314" 
d="M160 0v1434h20l959 -1407v1407h16v-1434h-20l-959 1409v-1409h-16zM659 1587l250 248h23l-262 -262h-21l-262 262h23z" />
    <glyph glyph-name="ncaron" unicode="&#x148;" horiz-adv-x="1081" 
d="M854 925q104 -119 104 -341v-584h-16v584q0 213 -100 328q-101 116 -273 116q-129 0 -222 -65q-96 -67 -146 -187q-51 -122 -51 -280v-496h-17v1032h17v-375q38 184 146 285q110 102 273 102q181 0 285 -119zM569 1186l250 248h23l-262 -263h-21l-262 263h22z" />
    <glyph glyph-name="napostrophe" unicode="&#x149;" horiz-adv-x="1345" 
d="M185 1408q24 -34 24 -81q0 -66 -41 -116t-107 -56v14q54 5 93 50t39 108t-41 90q-2 -24 -25 -24q-8 0 -14 6q-7 7 -7 16q0 27 27 27q28 0 52 -34zM1118 925q105 -120 105 -341v-584h-17v584q0 213 -100 328q-101 116 -272 116q-130 0 -223 -65q-96 -67 -146 -187
q-51 -122 -51 -280v-496h-17v1032h17v-375q38 184 146 285q110 102 274 102q180 0 284 -119z" />
    <glyph glyph-name="Eng" unicode="&#x14a;" horiz-adv-x="1314" 
d="M1155 1434v-1643q0 -106 -47 -153q-48 -48 -154 -48h-108v17h108q101 0 143 42t42 142v209l-963 1409v-1409h-16v1434h20l959 -1403v1403h16z" />
    <glyph glyph-name="eng" unicode="&#x14b;" horiz-adv-x="1081" 
d="M854 925q104 -119 104 -341v-793q0 -106 -47 -153q-48 -48 -153 -48h-109v17h109q100 0 142 42t42 142v793q0 213 -100 328q-101 116 -273 116q-129 0 -222 -65q-96 -67 -146 -187q-51 -122 -51 -280v-496h-17v1032h17v-375q38 184 146 285q110 102 273 102
q181 0 285 -119z" />
    <glyph glyph-name="Omacron" unicode="&#x14c;" horiz-adv-x="1523" 
d="M1328 340q-82 -165 -230 -259q-147 -93 -336 -93t-336 93q-148 94 -230 259q-83 168 -83 377t83 377q82 165 230 259q147 93 336 93t336 -93q148 -94 230 -259q83 -168 83 -377t-83 -377zM210 347q81 -164 224 -253q144 -90 328 -90t328 90q143 89 224 253q81 163 81 370
q0 206 -81 369q-81 164 -224 253q-146 91 -328 91t-328 -91q-143 -89 -224 -253q-81 -163 -81 -369q0 -207 81 -370zM528 1737v16h471v-16h-471z" />
    <glyph glyph-name="omacron" unicode="&#x14d;" horiz-adv-x="1146" 
d="M330 55q-107 68 -167 188q-61 122 -61 273q0 152 61 274q59 119 167 187q106 67 243 67q138 0 244 -67q108 -68 167 -187q60 -120 60 -274q0 -153 -60 -273t-167 -188q-106 -67 -244 -67q-137 0 -243 67zM808 69q104 65 162 181t58 266t-58 266q-59 118 -162 182t-235 64
q-131 0 -234 -64t-162 -182q-58 -116 -58 -266t58 -266t162 -181t234 -65q131 0 235 65zM338 1335v17h471v-17h-471z" />
    <glyph glyph-name="Obreve" unicode="&#x14e;" horiz-adv-x="1523" 
d="M1328 340q-82 -165 -230 -259q-147 -93 -336 -93t-336 93q-148 94 -230 259q-83 168 -83 377t83 377q82 165 230 259q147 93 336 93t336 -93q148 -94 230 -259q83 -168 83 -377t-83 -377zM210 347q81 -164 224 -253q144 -90 328 -90t328 90q143 89 224 253q81 163 81 370
q0 206 -81 369q-81 164 -224 253q-146 91 -328 91t-328 -91q-143 -89 -224 -253q-81 -163 -81 -369q0 -207 81 -370zM555 1835q0 -94 58 -153q59 -60 147 -60q92 0 152 60q61 61 61 153h16q0 -101 -64 -165t-165 -64q-96 0 -159 64q-62 63 -62 165h16z" />
    <glyph glyph-name="obreve" unicode="&#x14f;" horiz-adv-x="1146" 
d="M330 55q-107 68 -167 188q-61 122 -61 273q0 152 61 274q59 119 167 187q106 67 243 67q138 0 244 -67q108 -68 167 -187q60 -120 60 -274q0 -153 -60 -273t-167 -188q-106 -67 -244 -67q-137 0 -243 67zM808 69q104 65 162 181t58 266t-58 266q-59 118 -162 182t-235 64
q-131 0 -234 -64t-162 -182q-58 -116 -58 -266t58 -266t162 -181t234 -65q131 0 235 65zM365 1434q0 -94 58 -153q59 -60 146 -60q93 0 153 60t60 153h17q0 -100 -65 -165t-165 -65q-95 0 -158 65t-63 165h17z" />
    <glyph glyph-name="Ohungarumlaut" unicode="&#x150;" horiz-adv-x="1523" 
d="M1328 340q-82 -165 -230 -259q-147 -93 -336 -93t-336 93q-148 94 -230 259q-83 168 -83 377t83 377q82 165 230 259q147 93 336 93t336 -93q148 -94 230 -259q83 -168 83 -377t-83 -377zM210 347q81 -164 224 -253q144 -90 328 -90t328 90q143 89 224 253q81 163 81 370
q0 206 -81 369q-81 164 -224 253q-146 91 -328 91t-328 -91q-143 -89 -224 -253q-81 -163 -81 -369q0 -207 81 -370zM592 1575l203 260h20l-203 -260h-20zM893 1575l203 260h20l-203 -260h-20z" />
    <glyph glyph-name="ohungarumlaut" unicode="&#x151;" horiz-adv-x="1146" 
d="M330 55q-107 68 -167 188q-61 122 -61 273q0 152 61 274q59 119 167 187q106 67 243 67q138 0 244 -67q108 -68 167 -187q60 -120 60 -274q0 -153 -60 -273t-167 -188q-106 -67 -244 -67q-137 0 -243 67zM808 69q104 65 162 181t58 266t-58 266q-59 118 -162 182t-235 64
q-131 0 -234 -64t-162 -182q-58 -116 -58 -266t58 -266t162 -181t234 -65q131 0 235 65zM401 1174l203 260h21l-203 -260h-21zM702 1174l203 260h21l-203 -260h-21z" />
    <glyph glyph-name="OE" unicode="&#x152;" horiz-adv-x="2324" 
d="M2263 16v-16h-866v547q-28 -167 -116 -294q-88 -128 -220 -196q-133 -69 -297 -69q-190 0 -339 92q-147 91 -230 258q-82 165 -82 377q0 214 82 379q83 167 230 259q149 93 339 93q162 0 297 -70q132 -68 220 -197q88 -128 116 -296v551h837v-17h-821v-672h696v-16h-696
v-713h850zM1094 93q144 91 223 253q80 163 80 369q0 204 -80 369q-79 163 -223 254q-145 92 -330 92q-186 0 -331 -92t-224 -254q-80 -165 -80 -369q0 -206 80 -369q79 -161 224 -253q143 -91 331 -91q187 0 330 91z" />
    <glyph glyph-name="oe" unicode="&#x153;" horiz-adv-x="2045" 
d="M1049 557q-2 -16 -2 -39q0 -148 58 -265q57 -116 162 -183q103 -66 232 -66q148 0 260 91q113 92 152 243h16q-40 -162 -155 -255q-118 -95 -273 -95q-179 0 -306 118q-128 119 -157 312q-28 -194 -153 -313q-123 -117 -310 -117q-137 0 -243 67q-107 68 -167 189
q-61 124 -61 274q0 152 61 274q60 120 167 186q106 66 243 66q184 0 309 -116q126 -117 154 -307q28 189 151 307q120 116 300 116q198 0 321 -126q126 -129 136 -355v-6h-895zM808 70q105 67 162 183q58 117 58 267q0 148 -58 263q-59 117 -162 181t-235 64t-234 -65
q-103 -66 -162 -182q-58 -115 -58 -263q0 -150 58 -266t162 -182q103 -66 234 -66t235 66zM1272 971q-96 -57 -155 -161q-57 -101 -68 -237h876q-15 216 -133 335q-118 120 -305 120q-119 0 -215 -57z" />
    <glyph glyph-name="Racute" unicode="&#x154;" horiz-adv-x="1171" 
d="M666 1434q187 0 301 -106q112 -105 112 -281q0 -167 -103 -270q-102 -102 -278 -113l367 -664h-21l-366 664h-502v-664h-16v1434h506zM176 680h488q182 0 290 99q109 100 109 268q0 169 -109 270q-107 100 -288 100h-490v-737zM571 1575l203 260h21l-203 -260h-21z" />
    <glyph glyph-name="racute" unicode="&#x155;" horiz-adv-x="575" 
d="M522 1032v-16h-45q-190 0 -259 -130q-68 -129 -68 -370v-516h-17v1032h17v-315q22 150 99 233q76 82 228 82h45zM295 1174l203 260h20l-203 -260h-20z" />
    <glyph glyph-name="Rcommaaccent" unicode="&#x156;" horiz-adv-x="1171" 
d="M666 1434q187 0 301 -106q112 -105 112 -281q0 -167 -103 -270q-102 -102 -278 -113l367 -664h-21l-366 664h-502v-664h-16v1434h506zM176 680h488q182 0 290 99q109 100 109 268q0 169 -109 270q-107 100 -288 100h-490v-737zM580 -113h16l-88 -282h-16z" />
    <glyph glyph-name="rcommaaccent" unicode="&#x157;" horiz-adv-x="575" 
d="M522 1032v-16h-45q-190 0 -259 -130q-68 -129 -68 -370v-516h-17v1032h17v-315q22 150 99 233q76 82 228 82h45zM133 -113h17l-89 -282h-16z" />
    <glyph glyph-name="Rcaron" unicode="&#x158;" horiz-adv-x="1171" 
d="M666 1434q187 0 301 -106q112 -105 112 -281q0 -167 -103 -270q-102 -102 -278 -113l367 -664h-21l-366 664h-502v-664h-16v1434h506zM176 680h488q182 0 290 99q109 100 109 268q0 169 -109 270q-107 100 -288 100h-490v-737zM580 1587l249 248h23l-262 -262h-21
l-262 262h23z" />
    <glyph glyph-name="rcaron" unicode="&#x159;" horiz-adv-x="575" 
d="M522 1032v-16h-45q-190 0 -259 -130q-68 -129 -68 -370v-516h-17v1032h17v-315q22 150 99 233q76 82 228 82h45zM303 1186l250 248h22l-262 -263h-20l-262 263h22z" />
    <glyph glyph-name="Sacute" unicode="&#x15a;" horiz-adv-x="1196" 
d="M129 403q10 -182 137 -289q128 -108 332 -108q218 0 343 98q126 99 126 269q0 118 -64 186q-65 70 -163 104q-97 34 -244 58q-153 28 -245 56q-89 27 -150 96q-62 70 -62 194q0 178 127 280q126 101 346 101q192 0 312 -98t143 -269l-16 -2q-22 163 -140 258t-299 95
q-209 0 -333 -97q-123 -96 -123 -268q0 -119 59 -184t145 -92q85 -27 236 -54q147 -24 252 -59q102 -35 169 -109q66 -73 66 -196q0 -176 -131 -280q-130 -103 -354 -103q-212 0 -342 111q-131 111 -143 302h16zM602 1575l203 260h20l-202 -260h-21z" />
    <glyph glyph-name="sacute" unicode="&#x15b;" horiz-adv-x="991" 
d="M113 287q8 -138 116 -210q109 -73 285 -73q153 0 260 70q105 69 105 186q0 85 -52 137t-129 76q-79 24 -200 45q-132 22 -205 42q-71 19 -125 70q-53 50 -53 144q0 122 104 196t273 74q162 0 267 -69q106 -70 124 -203h-17q-21 128 -120 192q-98 64 -254 64
q-162 0 -262 -71q-99 -71 -99 -183q0 -86 50 -134q51 -49 121 -67q59 -15 198 -38q121 -20 207 -47q84 -26 135 -80q53 -56 53 -148q0 -125 -109 -199q-107 -73 -272 -73q-187 0 -299 77t-119 222h17zM494 1174l202 260h21l-203 -260h-20z" />
    <glyph glyph-name="Scircumflex" unicode="&#x15c;" horiz-adv-x="1196" 
d="M129 403q10 -182 137 -289q128 -108 332 -108q218 0 343 98q126 99 126 269q0 118 -64 186q-65 70 -163 104q-97 34 -244 58q-153 28 -245 56q-89 27 -150 96q-62 70 -62 194q0 178 127 280q126 101 346 101q192 0 312 -98t143 -269l-16 -2q-22 163 -140 258t-299 95
q-209 0 -333 -97q-123 -96 -123 -268q0 -119 59 -184t145 -92q85 -27 236 -54q147 -24 252 -59q102 -35 169 -109q66 -73 66 -196q0 -176 -131 -280q-130 -103 -354 -103q-212 0 -342 111q-131 111 -143 302h16zM610 1821l-250 -248h-22l262 262h21l262 -262h-23z" />
    <glyph glyph-name="scircumflex" unicode="&#x15d;" horiz-adv-x="991" 
d="M113 287q8 -138 116 -210q109 -73 285 -73q153 0 260 70q105 69 105 186q0 85 -52 137t-129 76q-79 24 -200 45q-132 22 -205 42q-71 19 -125 70q-53 50 -53 144q0 122 104 196t273 74q162 0 267 -69q106 -70 124 -203h-17q-21 128 -120 192q-98 64 -254 64
q-162 0 -262 -71q-99 -71 -99 -183q0 -86 50 -134q51 -49 121 -67q59 -15 198 -38q121 -20 207 -47q84 -26 135 -80q53 -56 53 -148q0 -125 -109 -199q-107 -73 -272 -73q-187 0 -299 77t-119 222h17zM502 1419l-250 -248h-23l263 263h20l262 -263h-22z" />
    <glyph glyph-name="Scedilla" unicode="&#x15e;" horiz-adv-x="1196" 
d="M958 96q-124 -101 -342 -106l-22 -109h47q68 0 111 -40t43 -103q0 -66 -44 -107t-114 -41h-145v17h145q63 0 102 36t39 95q0 55 -39 91t-98 36h-70l29 125h-2q-212 0 -342 111q-131 111 -143 302h16q10 -182 137 -289q128 -108 332 -108q218 0 343 98q126 99 126 269
q0 116 -65 186q-66 71 -162 104q-97 34 -244 58q-153 28 -245 56q-89 27 -150 96q-62 70 -62 194q0 178 127 280q126 101 346 101q192 0 312 -98t143 -269l-16 -2q-22 163 -140 258t-299 95q-209 0 -333 -97q-123 -96 -123 -268q0 -119 59 -184t145 -92q85 -27 236 -54
q147 -24 252 -59q102 -35 169 -109q66 -73 66 -196q0 -175 -125 -277z" />
    <glyph glyph-name="scedilla" unicode="&#x15f;" horiz-adv-x="991" 
d="M794 68q-103 -74 -257 -80l-23 -107h47q68 0 111 -40t43 -103q0 -66 -44 -107t-114 -41h-145v17h145q63 0 102 36t39 95q0 55 -39 91t-98 36h-69l28 123h-6q-187 0 -299 77t-119 222h17q8 -138 116 -210q109 -73 285 -73q153 0 260 70q105 69 105 186q0 85 -52 137
t-129 76q-79 24 -200 45q-132 22 -205 42q-71 19 -125 70q-53 50 -53 144q0 122 104 196t273 74q162 0 267 -69q106 -70 124 -203h-17q-21 128 -120 192q-98 64 -254 64q-162 0 -262 -71q-99 -71 -99 -183q0 -86 50 -134q51 -49 121 -67q59 -15 198 -38q121 -20 207 -47
q84 -26 135 -80q53 -56 53 -148q0 -119 -101 -192z" />
    <glyph glyph-name="Scaron" unicode="&#x160;" horiz-adv-x="1196" 
d="M129 403q10 -182 137 -289q128 -108 332 -108q218 0 343 98q126 99 126 269q0 118 -64 186q-65 70 -163 104q-97 34 -244 58q-153 28 -245 56q-89 27 -150 96q-62 70 -62 194q0 178 127 280q126 101 346 101q192 0 312 -98t143 -269l-16 -2q-22 163 -140 258t-299 95
q-209 0 -333 -97q-123 -96 -123 -268q0 -119 59 -184t145 -92q85 -27 236 -54q147 -24 252 -59q102 -35 169 -109q66 -73 66 -196q0 -176 -131 -280q-130 -103 -354 -103q-212 0 -342 111q-131 111 -143 302h16zM610 1587l250 248h23l-262 -262h-21l-262 262h22z" />
    <glyph glyph-name="scaron" unicode="&#x161;" horiz-adv-x="991" 
d="M113 287q8 -138 116 -210q109 -73 285 -73q153 0 260 70q105 69 105 186q0 85 -52 137t-129 76q-79 24 -200 45q-132 22 -205 42q-71 19 -125 70q-53 50 -53 144q0 122 104 196t273 74q162 0 267 -69q106 -70 124 -203h-17q-21 128 -120 192q-98 64 -254 64
q-162 0 -262 -71q-99 -71 -99 -183q0 -86 50 -134q51 -49 121 -67q59 -15 198 -38q121 -20 207 -47q84 -26 135 -80q53 -56 53 -148q0 -125 -109 -199q-107 -73 -272 -73q-187 0 -299 77t-119 222h17zM502 1186l250 248h22l-262 -263h-20l-263 263h23z" />
    <glyph glyph-name="uni0162" unicode="&#x162;" horiz-adv-x="1155" 
d="M41 1434h1073v-17h-528v-1417h-17v1417h-528v17zM569 -113h17l-88 -282h-17z" />
    <glyph glyph-name="uni0163" unicode="&#x163;" horiz-adv-x="557" 
d="M205 1016h-207v16h207v287h16v-287h293v-16h-293v-815q0 -101 42 -143t143 -42h108v-16h-108q-107 0 -154 47t-47 154v815zM369 -113h16l-88 -282h-16z" />
    <glyph glyph-name="Tcaron" unicode="&#x164;" horiz-adv-x="1155" 
d="M41 1434h1073v-17h-528v-1417h-17v1417h-528v17zM578 1587l249 248h23l-262 -262h-21l-262 262h23z" />
    <glyph glyph-name="tcaron" unicode="&#x165;" horiz-adv-x="557" 
d="M205 1016h-207v16h207v287h16v-287h293v-16h-293v-815q0 -101 42 -143t143 -42h108v-16h-108q-107 0 -154 47t-47 154v815zM451 1454h16l-94 -293h-17z" />
    <glyph glyph-name="Tbar" unicode="&#x166;" horiz-adv-x="1155" 
d="M1114 1417h-528v-692h291v-16h-291v-709h-17v709h-288v16h288v692h-528v17h1073v-17z" />
    <glyph glyph-name="tbar" unicode="&#x167;" horiz-adv-x="569" 
d="M227 1016v-404h293v-16h-293v-395q0 -101 42 -143t143 -42h108v-16h-108q-107 0 -154 47t-47 154v395h-207v16h207v404h-207v16h207v287h16v-287h293v-16h-293z" />
    <glyph glyph-name="Utilde" unicode="&#x168;" horiz-adv-x="1296" 
d="M170 1434v-869q0 -284 115 -423q114 -138 360 -138q251 0 366 138q115 137 115 423v869h17v-869q0 -293 -120 -435t-378 -142q-256 0 -374 142q-117 141 -117 435v869h16zM464 1752q-24 -34 -24 -83h-16v2q0 56 29 94q28 37 84 37q44 0 67 -16q25 -17 51 -49
q25 -30 48 -44q26 -16 59 -16q49 0 73 34q23 33 23 83h16v-2q0 -57 -28 -94t-84 -37q-45 0 -68 16q-25 17 -51 49q-25 30 -48 44q-26 16 -58 16q-49 0 -73 -34z" />
    <glyph glyph-name="utilde" unicode="&#x169;" horiz-adv-x="1069" 
d="M936 1032v-1032h-16v375q-34 -179 -145 -284q-109 -103 -269 -103q-174 0 -279 121q-104 120 -104 340v583h16v-583q0 -213 101 -329t266 -116q122 0 217 66t145 186q52 124 52 281v495h16zM345 1351q-23 -33 -23 -83h-17v2q0 56 29 94q28 37 84 37q42 0 67 -17
q27 -19 52 -49t48 -44q24 -15 58 -15q49 0 73 34q23 33 23 83h17v-2q0 -57 -29 -95q-27 -36 -84 -36q-45 0 -68 16q-25 17 -51 49q-25 30 -48 44q-24 15 -58 15q-50 0 -73 -33z" />
    <glyph glyph-name="Umacron" unicode="&#x16a;" horiz-adv-x="1296" 
d="M170 1434v-869q0 -284 115 -423q114 -138 360 -138q251 0 366 138q115 137 115 423v869h17v-869q0 -293 -120 -435t-378 -142q-256 0 -374 142q-117 141 -117 435v869h16zM414 1737v16h471v-16h-471z" />
    <glyph glyph-name="umacron" unicode="&#x16b;" horiz-adv-x="1069" 
d="M936 1032v-1032h-16v375q-34 -179 -145 -284q-109 -103 -269 -103q-174 0 -279 121q-104 120 -104 340v583h16v-583q0 -213 101 -329t266 -116q122 0 217 66t145 186q52 124 52 281v495h16zM295 1335v17h471v-17h-471z" />
    <glyph glyph-name="Ubreve" unicode="&#x16c;" horiz-adv-x="1296" 
d="M170 1434v-869q0 -284 115 -423q114 -138 360 -138q251 0 366 138q115 137 115 423v869h17v-869q0 -293 -120 -435t-378 -142q-256 0 -374 142q-117 141 -117 435v869h16zM440 1835q0 -92 59 -153q58 -60 146 -60q93 0 153 60t60 153h16q0 -101 -64 -165t-165 -64
q-96 0 -159 64q-62 63 -62 165h16z" />
    <glyph glyph-name="ubreve" unicode="&#x16d;" horiz-adv-x="1069" 
d="M936 1032v-1032h-16v375q-34 -179 -145 -284q-109 -103 -269 -103q-174 0 -279 121q-104 120 -104 340v583h16v-583q0 -213 101 -329t266 -116q122 0 217 66t145 186q52 124 52 281v495h16zM322 1434q0 -94 58 -153q59 -60 146 -60q93 0 153 60t60 153h17
q0 -100 -65 -165t-165 -65q-95 0 -158 65t-63 165h17z" />
    <glyph glyph-name="Uring" unicode="&#x16e;" horiz-adv-x="1296" 
d="M170 1434v-869q0 -284 115 -423q114 -138 360 -138q251 0 366 138q115 137 115 423v869h17v-869q0 -293 -120 -435t-378 -142q-256 0 -374 142q-117 141 -117 435v869h16zM497 1791q62 62 152 62t152 -62q63 -63 63 -153q0 -88 -63 -151q-64 -64 -152 -64t-152 64
q-63 63 -63 151q0 90 63 153zM790 1780q-58 57 -141 57q-84 0 -141 -57t-57 -142q0 -82 57 -140t141 -58q83 0 141 58t58 140q0 85 -58 142z" />
    <glyph glyph-name="uring" unicode="&#x16f;" horiz-adv-x="1069" 
d="M936 1032v-1032h-16v375q-34 -179 -145 -284q-109 -103 -269 -103q-174 0 -279 121q-104 120 -104 340v583h16v-583q0 -213 101 -329t266 -116q122 0 217 66t145 186q52 124 52 281v495h16zM378 1517q62 62 152 62t152 -62q63 -63 63 -153q0 -89 -63 -152t-152 -63
t-152 63t-63 152q0 90 63 153zM671 1505q-60 58 -141 58q-83 0 -141 -58q-57 -57 -57 -141q0 -82 57 -140q57 -59 141 -59q82 0 141 59q58 58 58 140q0 84 -58 141z" />
    <glyph glyph-name="Uhungarumlaut" unicode="&#x170;" horiz-adv-x="1296" 
d="M170 1434v-869q0 -284 115 -423q114 -138 360 -138q251 0 366 138q115 137 115 423v869h17v-869q0 -293 -120 -435t-378 -142q-256 0 -374 142q-117 141 -117 435v869h16zM477 1575l203 260h20l-202 -260h-21zM778 1575l203 260h20l-202 -260h-21z" />
    <glyph glyph-name="uhungarumlaut" unicode="&#x171;" horiz-adv-x="1069" 
d="M936 1032v-1032h-16v375q-34 -179 -145 -284q-109 -103 -269 -103q-174 0 -279 121q-104 120 -104 340v583h16v-583q0 -213 101 -329t266 -116q122 0 217 66t145 186q52 124 52 281v495h16zM358 1174l203 260h21l-203 -260h-21zM659 1174l203 260h21l-203 -260h-21z" />
    <glyph glyph-name="Uogonek" unicode="&#x172;" horiz-adv-x="1296" 
d="M1143 1434v-869q0 -261 -95 -403q-94 -141 -298 -168q-96 -71 -127 -96q-42 -35 -71 -76q-30 -44 -30 -90q0 -59 38 -92t106 -33h112v-17h-112q-75 0 -118 38q-42 38 -42 104q0 67 53 126q47 53 162 134q-44 -4 -76 -4q-256 0 -374 142q-117 141 -117 435v869h16v-869
q0 -284 115 -423q114 -138 360 -138q251 0 366 138q115 137 115 423v869h17z" />
    <glyph glyph-name="uogonek" unicode="&#x173;" horiz-adv-x="1069" 
d="M956 -393v-17h-112q-75 0 -118 38q-42 38 -42 104q0 73 58 132q55 56 178 142v369q-34 -179 -145 -284q-109 -103 -269 -103q-174 0 -279 121q-104 120 -104 340v583h16v-583q0 -213 101 -329t266 -116q122 0 217 66t145 186q52 124 52 281v495h16v-1032
q-4 -3 -15.5 -11.5t-32 -23.5t-42.5 -31q-78 -57 -111 -104q-35 -50 -35 -98q0 -59 38 -92t106 -33h112z" />
    <glyph glyph-name="Wcircumflex" unicode="&#x174;" horiz-adv-x="1949" 
d="M61 1434h19l450 -1407l435 1407h20l430 -1407l455 1407h18l-463 -1434h-20l-430 1407l-434 -1407h-21zM975 1821l-250 -248h-23l263 262h20l262 -262h-22z" />
    <glyph glyph-name="wcircumflex" unicode="&#x175;" horiz-adv-x="1576" 
d="M31 1032h18l363 -1003l368 1003h19l344 -1003l385 1003h18l-395 -1032h-16l-347 1008l-368 -1008h-17zM788 1419l-249 -248h-23l262 263h21l262 -263h-23z" />
    <glyph glyph-name="Ycircumflex" unicode="&#x176;" horiz-adv-x="1222" 
d="M41 1436h20l549 -891l551 891h21l-564 -910v-526h-16v526zM600 1821l-250 -248h-22l262 262h20l262 -262h-22z" />
    <glyph glyph-name="ycircumflex" unicode="&#x177;" horiz-adv-x="929" 
d="M49 1032l416 -1007l416 1007h18l-516 -1249q-35 -88 -60 -124q-26 -38 -61 -53q-37 -16 -98 -16h-103v17h103q61 0 94 15t54 50q24 39 55 117l88 213l-424 1030h18zM463 1419l-250 -248h-23l263 263h20l262 -263h-22z" />
    <glyph glyph-name="Ydieresis" unicode="&#x178;" horiz-adv-x="1222" 
d="M41 1436h20l549 -891l551 891h21l-564 -910v-526h-16v526zM431 1762q7 7 18 7q10 0 17 -7t7 -17q0 -11 -7 -18t-17 -7q-11 0 -18 7t-7 18q0 10 7 17zM734 1762q7 7 18 7q10 0 17 -7t7 -17q0 -11 -7 -18t-17 -7q-11 0 -18 7t-7 18q0 10 7 17z" />
    <glyph glyph-name="Zacute" unicode="&#x179;" horiz-adv-x="1234" 
d="M143 1434h1020v-17l-1071 -1401h1071v-16h-1091v16l1071 1401h-1000v17zM610 1575l203 260h21l-203 -260h-21z" />
    <glyph glyph-name="zacute" unicode="&#x17a;" horiz-adv-x="923" 
d="M76 1032h772v-20l-785 -996h816v-16h-834v20l784 996h-753v16zM455 1174l202 260h21l-203 -260h-20z" />
    <glyph glyph-name="Zdotaccent" unicode="&#x17b;" horiz-adv-x="1234" 
d="M143 1434h1020v-17l-1071 -1401h1071v-16h-1091v16l1071 1401h-1000v17zM601 1775q7 7 17 7q11 0 18 -7t7 -18q0 -10 -7 -17t-18 -7q-10 0 -17 7t-7 17q0 11 7 18z" />
    <glyph glyph-name="zdotaccent" unicode="&#x17c;" horiz-adv-x="923" 
d="M76 1032h772v-20l-785 -996h816v-16h-834v20l784 996h-753v16zM445 1373q7 7 18 7q10 0 17 -7t7 -17q0 -11 -7 -18t-17 -7q-11 0 -18 7t-7 18q0 10 7 17z" />
    <glyph glyph-name="Zcaron" unicode="&#x17d;" horiz-adv-x="1234" 
d="M143 1434h1020v-17l-1071 -1401h1071v-16h-1091v16l1071 1401h-1000v17zM618 1587l250 248h23l-262 -262h-21l-262 262h23z" />
    <glyph glyph-name="zcaron" unicode="&#x17e;" horiz-adv-x="923" 
d="M76 1032h772v-20l-785 -996h816v-16h-834v20l784 996h-753v16zM463 1186l250 248h22l-262 -263h-20l-263 263h23z" />
    <glyph glyph-name="florin" unicode="&#x192;" horiz-adv-x="993" 
d="M614 1374q-48 -45 -55 -141l-45 -514h281v-17h-281l-63 -720q-7 -106 -61 -153q-52 -46 -159 -46h-170v16h172q100 0 146 43q48 45 55 142l62 718h-273v17h275l45 516q7 107 60 153q52 46 159 46h170v-17h-172q-100 0 -146 -43z" />
    <glyph glyph-name="AEacute" unicode="&#x1fc;" horiz-adv-x="1859" 
d="M1530 1835l-203 -260h-20l202 260h21zM948 14h850v-16h-866v455h-598l-283 -453h-20l897 1432h841v-17h-821v-672h697v-16h-697v-713zM344 469h588v940z" />
    <glyph glyph-name="aeacute" unicode="&#x1fd;" horiz-adv-x="1914" 
d="M1141 1434l-203 -260h-20l202 260h21zM915 551v-33q0 -145 59 -265q57 -116 162 -183q104 -66 232 -66q148 0 260 91q113 92 152 243h16q-39 -161 -156 -255q-118 -95 -272 -95q-172 0 -296 109t-159 288q-8 -114 -71 -205q-63 -90 -167 -141q-103 -51 -229 -51
q-168 0 -261 78t-93 217q0 131 102 207q103 77 291 77h414v111q0 165 -98 257q-99 93 -275 93q-154 0 -250 -69t-120 -187h-17q22 123 125 198q101 74 262 74q186 0 288 -96q101 -95 101 -270v-25q37 179 156 285q118 106 285 106q196 0 321 -129t135 -358v-6h-897z
M1141 970q-97 -59 -155 -163q-57 -103 -68 -240h876q-15 219 -133 340t-305 121q-120 0 -215 -58zM899 551h-414q-180 0 -279 -73q-97 -72 -97 -195q0 -131 89 -205t248 -74q125 0 229 53q103 52 164 147q60 93 60 208v139z" />
    <glyph glyph-name="Scommaaccent" unicode="&#x218;" horiz-adv-x="1196" 
d="M129 403q10 -182 137 -289q128 -108 332 -108q218 0 343 98q126 99 126 269q0 118 -64 186q-65 70 -163 104q-97 34 -244 58q-153 28 -245 56q-89 27 -150 96q-62 70 -62 194q0 178 127 280q126 101 346 101q192 0 312 -98t143 -269l-16 -2q-22 163 -140 258t-299 95
q-209 0 -333 -97q-123 -96 -123 -268q0 -119 59 -184t145 -92q85 -27 236 -54q147 -24 252 -59q102 -35 169 -109q66 -73 66 -196q0 -176 -131 -280q-130 -103 -354 -103q-212 0 -342 111q-131 111 -143 302h16zM602 -113h17l-89 -282h-16z" />
    <glyph glyph-name="scommaaccent" unicode="&#x219;" horiz-adv-x="991" 
d="M113 287q8 -138 116 -210q109 -73 285 -73q153 0 260 70q105 69 105 186q0 85 -52 137t-129 76q-79 24 -200 45q-132 22 -205 42q-71 19 -125 70q-53 50 -53 144q0 122 104 196t273 74q162 0 267 -69q106 -70 124 -203h-17q-21 128 -120 192q-98 64 -254 64
q-162 0 -262 -71q-99 -71 -99 -183q0 -86 50 -134q51 -49 121 -67q59 -15 198 -38q121 -20 207 -47q84 -26 135 -80q53 -56 53 -148q0 -125 -109 -199q-107 -73 -272 -73q-187 0 -299 77t-119 222h17zM522 -113h17l-88 -282h-17z" />
    <glyph glyph-name="uni021A" unicode="&#x21a;" horiz-adv-x="1155" 
d="M41 1434h1073v-17h-528v-1417h-17v1417h-528v17zM569 -113h17l-88 -282h-17z" />
    <glyph glyph-name="uni021B" unicode="&#x21b;" horiz-adv-x="557" 
d="M205 1016h-207v16h207v287h16v-287h293v-16h-293v-815q0 -101 42 -143t143 -42h108v-16h-108q-107 0 -154 47t-47 154v815zM369 -113h16l-88 -282h-16z" />
    <glyph glyph-name="uni0237" unicode="&#x237;" horiz-adv-x="294" 
d="M-39 -393q100 0 142 42t42 142v1241h17v-1241q0 -106 -47 -153q-48 -48 -154 -48h-108v17h108z" />
    <glyph glyph-name="uni02BC" unicode="&#x2bc;" horiz-adv-x="587" 
d="M326 1434h16l-94 -293h-17z" />
    <glyph glyph-name="circumflex" unicode="&#x2c6;" horiz-adv-x="819" 
d="M410 1419l-250 -248h-23l262 263h21l262 -263h-23z" />
    <glyph glyph-name="caron" unicode="&#x2c7;" horiz-adv-x="819" 
d="M410 1186l249 248h23l-262 -263h-21l-262 263h23z" />
    <glyph glyph-name="breve" unicode="&#x2d8;" horiz-adv-x="819" 
d="M201 1434q0 -94 58 -153q59 -60 147 -60q92 0 152 60t60 153h17q0 -100 -65 -165t-164 -65q-96 0 -159 65t-63 165h17z" />
    <glyph glyph-name="dotaccent" unicode="&#x2d9;" horiz-adv-x="819" 
d="M392 1373q7 7 18 7q10 0 17 -7t7 -17q0 -11 -7 -18t-17 -7q-11 0 -18 7t-7 18q0 10 7 17z" />
    <glyph glyph-name="ring" unicode="&#x2da;" horiz-adv-x="819" 
d="M258 1517q62 62 152 62t152 -62q63 -63 63 -153q0 -89 -63 -152t-152 -63t-152 63t-63 152q0 90 63 153zM551 1505q-58 58 -141 58q-81 0 -141 -58q-58 -57 -58 -141q0 -82 58 -140q59 -59 141 -59q84 0 141 59q57 58 57 140q0 84 -57 141z" />
    <glyph glyph-name="ogonek" unicode="&#x2db;" horiz-adv-x="819" 
d="M216 -135q57 58 183 145l11 -10q-1 -1 -91 -66q-76 -55 -110 -104q-35 -50 -35 -98q0 -59 38 -92t105 -33h113v-17h-113q-74 0 -117 38q-42 38 -42 104q0 74 58 133z" />
    <glyph glyph-name="tilde" unicode="&#x2dc;" horiz-adv-x="819" 
d="M224 1351q-23 -33 -23 -83h-17v2q0 56 29 94q28 37 84 37q43 0 68 -17t51 -49q25 -30 48 -44q24 -15 58 -15q49 0 73 34q23 33 23 83h17v-2q0 -57 -29 -95q-27 -36 -84 -36q-44 0 -67 16q-27 19 -52 49t-48 44q-24 15 -58 15q-50 0 -73 -33z" />
    <glyph glyph-name="hungarumlaut" unicode="&#x2dd;" horiz-adv-x="833" 
d="M238 1174l202 260h21l-203 -260h-20zM539 1174l202 260h21l-203 -260h-20z" />
    <glyph glyph-name="gravecomb" unicode="&#x300;" horiz-adv-x="0" 
d="M-623 1434h21l203 -260h-21z" />
    <glyph glyph-name="acutecomb" unicode="&#x301;" horiz-adv-x="0" 
d="M-418 1174l203 260h20l-202 -260h-21z" />
    <glyph glyph-name="uni0302" unicode="&#x302;" horiz-adv-x="0" 
d="M-410 1419l-249 -248h-23l262 263h21l262 -263h-23z" />
    <glyph glyph-name="tildecomb" unicode="&#x303;" horiz-adv-x="0" 
d="M-595 1351q-23 -33 -23 -83h-17v2q0 56 29 94q28 37 84 37q42 0 67 -17q27 -19 52 -49t48 -44q24 -15 58 -15q49 0 73 34q23 33 23 83h17v-2q0 -57 -29 -95q-27 -36 -84 -36q-45 0 -68 16q-25 17 -51 49q-25 30 -48 44q-24 15 -58 15q-50 0 -73 -33z" />
    <glyph glyph-name="uni0304" unicode="&#x304;" horiz-adv-x="0" 
d="M-645 1335v17h471v-17h-471z" />
    <glyph glyph-name="uni0306" unicode="&#x306;" horiz-adv-x="0" 
d="M-618 1434q0 -94 58 -153q58 -60 146 -60q93 0 153 60t60 153h17q0 -100 -65 -165t-165 -65q-95 0 -158 65t-63 165h17z" />
    <glyph glyph-name="uni0307" unicode="&#x307;" horiz-adv-x="0" 
d="M-427 1373q7 7 17 7q11 0 18 -7t7 -17q0 -11 -7 -18t-18 -7q-10 0 -17 7t-7 18q0 10 7 17z" />
    <glyph glyph-name="uni0308" unicode="&#x308;" horiz-adv-x="0" 
d="M-579 1361q7 7 18 7q10 0 17 -7t7 -18q0 -10 -7 -17t-17 -7q-11 0 -18 7t-7 17q0 11 7 18zM-275 1361q7 7 17 7t17 -7q8 -8 8 -18q0 -9 -8 -17q-7 -7 -17 -7t-17 7q-8 8 -8 17q0 10 8 18z" />
    <glyph glyph-name="uni030A" unicode="&#x30a;" horiz-adv-x="0" 
d="M-562 1517q62 62 152 62t152 -62q63 -63 63 -153q0 -89 -63 -152t-152 -63t-152 63t-63 152q0 90 63 153zM-269 1505q-60 58 -141 58q-83 0 -141 -58q-57 -57 -57 -141q0 -82 57 -140q57 -59 141 -59q82 0 141 59q58 58 58 140q0 84 -58 141z" />
    <glyph glyph-name="uni030B" unicode="&#x30b;" horiz-adv-x="0" 
d="M-582 1174l203 260h21l-203 -260h-21zM-281 1174l203 260h21l-203 -260h-21z" />
    <glyph glyph-name="uni030C" unicode="&#x30c;" horiz-adv-x="0" 
d="M-410 1186l250 248h23l-262 -263h-21l-262 263h23z" />
    <glyph glyph-name="uni0312" unicode="&#x312;" horiz-adv-x="0" 
d="M-418 1151h-16l88 283h16z" />
    <glyph glyph-name="uni0326" unicode="&#x326;" horiz-adv-x="0" 
d="M-418 -113h17l-88 -282h-17z" />
    <glyph glyph-name="uni0327" unicode="&#x327;" horiz-adv-x="0" 
d="M-401 0l-25 -119h47q68 0 111 -40t43 -103q0 -66 -44 -107t-114 -41h-145v17h145q63 0 102 36t39 95q0 55 -39 91t-98 36h-70l31 135h17z" />
    <glyph glyph-name="uni0328" unicode="&#x328;" horiz-adv-x="0" 
d="M-603 -135q57 58 183 145l10 -10q-4 -3 -15.5 -11.5t-32 -23.5t-42.5 -31q-76 -55 -110 -104q-35 -50 -35 -98q0 -59 38 -92q37 -33 105 -33h113v-17h-113q-75 0 -118 38q-42 37 -42 104q0 72 59 133z" />
    <glyph glyph-name="pi" unicode="&#x3c0;" horiz-adv-x="1212" 
d="M1171 1032v-16h-208v-1016h-17v1016h-680v-1016h-16v1016h-209v16h1130z" />
    <glyph glyph-name="uni0E3F" unicode="&#xe3f;" horiz-adv-x="1239" 
d="M1008 627q98 -89 98 -244q0 -180 -123 -282q-122 -101 -362 -101h-56v-207h-16v207h-389v1434h389v202h16v-202h56q197 0 306 -95q107 -94 107 -260q0 -141 -81 -230q-82 -90 -234 -112q191 -21 289 -110zM176 1417v-674h373v674h-373zM565 1417v-674h56q185 0 292 90
q105 89 105 246q0 158 -104 248t-293 90h-56zM176 16h373v711h-373v-711zM971 114q119 98 119 269q0 166 -122 255t-347 89h-56v-711h56q231 0 350 98z" />
    <glyph glyph-name="Wgrave" unicode="&#x1e80;" horiz-adv-x="1949" 
d="M61 1434h19l450 -1407l435 1407h20l430 -1407l455 1407h18l-463 -1434h-20l-430 1407l-434 -1407h-21zM762 1835h20l203 -260h-20z" />
    <glyph glyph-name="wgrave" unicode="&#x1e81;" horiz-adv-x="1576" 
d="M31 1032h18l363 -1003l368 1003h19l344 -1003l385 1003h18l-395 -1032h-16l-347 1008l-368 -1008h-17zM575 1434h21l203 -260h-21z" />
    <glyph glyph-name="Wacute" unicode="&#x1e82;" horiz-adv-x="1949" 
d="M61 1434h19l450 -1407l435 1407h20l430 -1407l455 1407h18l-463 -1434h-20l-430 1407l-434 -1407h-21zM967 1575l202 260h21l-203 -260h-20z" />
    <glyph glyph-name="wacute" unicode="&#x1e83;" horiz-adv-x="1576" 
d="M31 1032h18l363 -1003l368 1003h19l344 -1003l385 1003h18l-395 -1032h-16l-347 1008l-368 -1008h-17zM780 1174l203 260h21l-203 -260h-21z" />
    <glyph glyph-name="Wdieresis" unicode="&#x1e84;" horiz-adv-x="1949" 
d="M61 1434h19l450 -1407l435 1407h20l430 -1407l455 1407h18l-463 -1434h-20l-430 1407l-434 -1407h-21zM806 1762q7 7 17 7q11 0 18 -7t7 -17q0 -11 -7 -18t-18 -7q-10 0 -17 7t-7 18q0 10 7 17zM1109 1762q7 7 17 7q11 0 18 -7t7 -17q0 -11 -7 -18t-18 -7q-10 0 -17 7
t-7 18q0 10 7 17z" />
    <glyph glyph-name="wdieresis" unicode="&#x1e85;" horiz-adv-x="1576" 
d="M31 1032h18l363 -1003l368 1003h19l344 -1003l385 1003h18l-395 -1032h-16l-347 1008l-368 -1008h-17zM620 1361q7 7 17 7t17 -7q8 -8 8 -18q0 -9 -8 -17q-7 -7 -17 -7t-17 7q-8 8 -8 17q0 10 8 18zM923 1361q7 7 17 7t17 -7q8 -8 8 -18q0 -9 -8 -17q-7 -7 -17 -7t-17 7
q-8 8 -8 17q0 10 8 18z" />
    <glyph glyph-name="Ygrave" unicode="&#x1ef2;" horiz-adv-x="1222" 
d="M41 1436h20l549 -891l551 891h21l-564 -910v-526h-16v526zM387 1835h21l202 -260h-20z" />
    <glyph glyph-name="ygrave" unicode="&#x1ef3;" horiz-adv-x="929" 
d="M49 1032l416 -1007l416 1007h18l-516 -1249q-35 -88 -60 -124q-26 -38 -61 -53q-37 -16 -98 -16h-103v17h103q61 0 94 15t54 50q24 39 55 117l88 213l-424 1030h18zM250 1434h20l203 -260h-20z" />
    <glyph glyph-name="endash" unicode="&#x2013;" horiz-adv-x="1179" 
d="M139 573v17h901v-17h-901z" />
    <glyph glyph-name="emdash" unicode="&#x2014;" horiz-adv-x="1875" 
d="M139 592h1598v-17h-1598v17z" />
    <glyph glyph-name="quoteleft" unicode="&#x2018;" horiz-adv-x="315" 
d="M130 1191q-24 35 -24 81q0 66 41 116t107 56v-14q-53 -5 -92 -50t-39 -108t41 -90q4 24 24 24q9 0 15 -6t6 -16q0 -27 -27 -27q-28 0 -52 34z" />
    <glyph glyph-name="quoteright" unicode="&#x2019;" horiz-adv-x="315" 
d="M185 1408q24 -34 24 -81q0 -66 -41 -116t-107 -56v14q54 5 93 50t39 108t-41 90q-2 -24 -25 -24q-8 0 -14 6q-7 7 -7 16q0 27 27 27q28 0 52 -34z" />
    <glyph glyph-name="quotesinglbase" unicode="&#x201a;" horiz-adv-x="315" 
d="M185 9q24 -35 24 -81q0 -65 -41 -115q-42 -51 -107 -57v15q55 5 93 49q39 45 39 108t-41 90q-2 -24 -25 -24q-8 0 -14 6q-7 7 -7 16q0 27 27 27q28 0 52 -34z" />
    <glyph glyph-name="quotedblleft" unicode="&#x201c;" horiz-adv-x="557" 
d="M130 1191q-24 35 -24 81q0 66 41 116t107 56v-14q-53 -5 -92 -50t-39 -108t41 -90q4 24 24 24q9 0 15 -6t6 -16q0 -27 -27 -27q-28 0 -52 34zM372 1191q-24 35 -24 81q0 66 41 116t107 56v-14q-54 -5 -93 -50q-38 -44 -38 -108q0 -63 41 -90q4 24 24 24q8 0 14 -6
q7 -7 7 -16q0 -27 -27 -27q-28 0 -52 34z" />
    <glyph glyph-name="quotedblright" unicode="&#x201d;" horiz-adv-x="557" 
d="M185 1408q24 -34 24 -81q0 -66 -41 -116t-107 -56v14q54 5 93 50t39 108t-41 90q-2 -24 -25 -24q-8 0 -14 6q-7 7 -7 16q0 27 27 27q28 0 52 -34zM427 1408q24 -34 24 -81q0 -66 -41 -116t-107 -56v14q53 5 92 50t39 108t-41 90q-1 -24 -24 -24q-9 0 -15 6t-6 16
q0 27 27 27q28 0 52 -34z" />
    <glyph glyph-name="quotedblbase" unicode="&#x201e;" horiz-adv-x="557" 
d="M185 9q24 -35 24 -81q0 -65 -41 -115q-42 -51 -107 -57v15q55 5 93 49q39 45 39 108t-41 90q-2 -24 -25 -24q-8 0 -14 6q-7 7 -7 16q0 27 27 27q28 0 52 -34zM427 9q24 -35 24 -81q0 -65 -41 -115q-42 -51 -107 -57v15q54 5 92 49q39 45 39 108t-41 90q-1 -24 -24 -24
q-9 0 -15 6t-6 16q0 27 27 27q28 0 52 -34z" />
    <glyph glyph-name="dagger" unicode="&#x2020;" horiz-adv-x="1052" 
d="M961 956v-16h-426v-940h-17v940h-426v16h426v478h17v-478h426z" />
    <glyph glyph-name="daggerdbl" unicode="&#x2021;" horiz-adv-x="1054" 
d="M961 1008h-426v-582h426v-16h-426v-410h-17v410h-426v16h426v582h-426v16h426v410h17v-410h426v-16z" />
    <glyph glyph-name="bullet" unicode="&#x2022;" horiz-adv-x="495" 
d="M195 750q20 20 53 20t53 -20q21 -21 21 -54q0 -32 -21 -53q-20 -20 -53 -20t-53 20q-21 21 -21 53q0 33 21 54z" />
    <glyph glyph-name="ellipsis" unicode="&#x2026;" horiz-adv-x="872" 
d="M140 36q7 7 18 7q10 0 17 -7t7 -18q0 -10 -7 -17t-17 -7q-11 0 -18 7t-7 17q0 11 7 18zM419 36q7 7 17 7q11 0 18 -7t7 -18q0 -10 -7 -17t-18 -7q-10 0 -17 7t-7 17q0 11 7 18zM697 36q7 7 18 7q10 0 17 -7t7 -18q0 -10 -7 -17t-17 -7q-11 0 -18 7t-7 17q0 11 7 18z" />
    <glyph glyph-name="perthousand" unicode="&#x2030;" horiz-adv-x="2523" 
d="M190 1277q44 78 118 122q75 45 165 45t165 -45q74 -44 118 -122q43 -76 43 -171t-43 -171q-44 -78 -118 -122q-75 -45 -165 -45t-165 45q-74 44 -118 122q-43 76 -43 171t43 171zM389 0l948 1434h19l-948 -1434h-19zM741 1270q-40 73 -111 115q-70 42 -157 42t-157 -42
q-71 -42 -111 -115q-41 -74 -41 -164t41 -164t111 -116q71 -42 157 -42q87 0 157 42t111 116t41 164t-41 164zM989 497q43 76 118 121q77 46 165 46t165 -46q73 -44 117 -121q43 -76 43 -171t-43 -171q-45 -79 -117 -122q-75 -45 -165 -45t-165 45q-74 44 -118 122
q-43 76 -43 171t43 171zM1767 497q43 76 118 121q77 46 165 46t165 -46q75 -45 118 -121t43 -171t-43 -171q-44 -78 -118 -122q-75 -45 -165 -45t-165 45q-74 44 -118 122q-43 76 -43 171t43 171zM1540 489q-40 73 -112 116q-70 42 -156 42t-157 -42q-70 -42 -111 -116
t-41 -163q0 -90 41 -164t111 -116q71 -42 157 -42t156 42q72 43 112 116q41 74 41 164q0 89 -41 163zM2318 489q-41 74 -111 116q-71 42 -157 42t-157 -42q-70 -42 -111 -116t-41 -163q0 -90 41 -164t111 -116q71 -42 157 -42t157 42q70 42 111 116t41 164q0 89 -41 163z
" />
    <glyph glyph-name="guilsinglleft" unicode="&#x2039;" horiz-adv-x="638" 
d="M496 1032l-340 -516l340 -516h-19l-344 516l344 516h19z" />
    <glyph glyph-name="guilsinglright" unicode="&#x203a;" horiz-adv-x="638" 
d="M143 1032h19l344 -516l-344 -516h-19l340 516z" />
    <glyph glyph-name="uni2042" unicode="&#x2042;" horiz-adv-x="1945" 
d="M1253 1313l-276 -113l190 -231l-12 -11l-192 236l-193 -236l-12 11l190 231l-276 113l6 14l276 -115v306h17v-306l276 115zM741 268l-276 -112l190 -232l-12 -10l-192 236l-193 -236l-12 10l190 232l-276 112l6 15l276 -115v305h17v-305l276 115zM1786 268l-277 -112
l191 -232l-12 -10l-193 236l-192 -236l-13 10l191 232l-277 112l6 15l277 -115v305h16v-305l277 115z" />
    <glyph glyph-name="fraction" unicode="&#x2044;" horiz-adv-x="356" 
d="M-287 0l910 1434h20l-909 -1434h-21z" />
    <glyph glyph-name="uni2051" unicode="&#x2051;" horiz-adv-x="901" 
d="M741 1313l-276 -113l190 -231l-12 -11l-192 236l-193 -236l-12 11l190 231l-276 113l6 14l276 -115v306h17v-306l276 115zM741 260l-276 -113l190 -231l-12 -10l-192 235l-193 -235l-12 10l190 231l-276 113l6 14l276 -114v305h17v-305l276 114z" />
    <glyph glyph-name="uni2070" unicode="&#x2070;" horiz-adv-x="679" 
d="M142 1543q75 110 198 110t198 -110q74 -108 74 -275q0 -168 -74 -276q-75 -109 -198 -109t-198 109q-74 108 -74 276q0 167 74 275zM525 1530q-70 106 -185 106t-185 -106q-71 -107 -71 -262t71 -262t185 -107t185 107t71 262t-71 262z" />
    <glyph glyph-name="uni2074" unicode="&#x2074;" horiz-adv-x="657" 
d="M459 1638h16v-516h135v-16h-135v-213h-16v213h-412v16zM459 1612l-391 -490h391v490z" />
    <glyph glyph-name="uni2075" unicode="&#x2075;" horiz-adv-x="632" 
d="M518 1622h-401l-21 -362q35 56 95 86t131 30q107 0 175 -68t68 -178q0 -112 -71 -180q-72 -69 -181 -69q-101 0 -168 55q-66 55 -77 145h16q10 -81 74 -133q63 -51 155 -51q101 0 168 66q68 66 68 167q0 103 -66 166q-67 64 -168 64q-75 0 -131 -34q-58 -35 -90 -95
l-14 2l22 405h416v-16z" />
    <glyph glyph-name="uni2076" unicode="&#x2076;" horiz-adv-x="653" 
d="M153 1544q76 109 201 109q85 0 150 -54q63 -52 78 -149h-17q-18 90 -75 138t-136 48q-122 0 -190 -104q-70 -107 -70 -279q0 -67 10 -141q-6 64 22 124q26 57 83 94q55 36 133 36q107 0 174 -67q66 -66 66 -175t-66 -175t-174 -66q-138 0 -201 100q-63 101 -63 270
q0 183 75 291zM504 1288q-62 62 -162 62q-102 0 -164 -62q-61 -61 -61 -162t62 -163q64 -64 163 -64q100 0 162 62q61 61 61 163q0 103 -61 164z" />
    <glyph glyph-name="uni2077" unicode="&#x2077;" horiz-adv-x="614" 
d="M57 1638h504v-14l-395 -733h-19l396 733l-486 -2v16z" />
    <glyph glyph-name="uni2078" unicode="&#x2078;" horiz-adv-x="638" 
d="M125 1219q56 54 149 65q-81 10 -133 61q-51 49 -51 123q0 80 65 133q64 52 164 52q101 0 165 -52q65 -53 65 -133q0 -74 -51 -123q-52 -51 -133 -61q93 -11 149 -65q57 -55 57 -136q0 -87 -70 -144q-69 -56 -182 -56q-112 0 -181 56q-70 57 -70 144q0 81 57 136z
M473 1589q-61 47 -154 47q-92 0 -153 -47q-60 -46 -60 -121q0 -78 60 -127q59 -49 153 -49q95 0 154 49t59 127q0 75 -59 121zM488 1222q-66 54 -169 54q-102 0 -168 -54q-67 -55 -67 -139q0 -79 67 -132q65 -52 168 -52q104 0 169 52q67 53 67 132q0 84 -67 139z" />
    <glyph glyph-name="uni2079" unicode="&#x2079;" horiz-adv-x="638" 
d="M499 991q-75 -108 -202 -108q-86 0 -150 53q-62 51 -77 149h16q18 -90 75 -138t136 -48q121 0 190 105q70 107 70 278q0 67 -10 141q6 -64 -22 -124q-26 -57 -83 -94q-56 -36 -133 -36q-107 0 -174 67q-65 65 -65 175t65 175q67 67 174 67q138 0 201 -101
q63 -100 63 -270q0 -184 -74 -291zM147 1247q61 -61 162 -61q103 0 164 61q62 62 62 162q0 101 -63 164t-163 63q-101 0 -162 -61t-61 -164t61 -164z" />
    <glyph glyph-name="uni2080" unicode="&#x2080;" horiz-adv-x="677" 
d="M140 443q75 110 198 110t198 -110q74 -108 74 -275q0 -168 -74 -276q-75 -109 -198 -109t-198 109q-74 108 -74 276q0 167 74 275zM523 430q-71 107 -185 107t-185 -107t-71 -262t71 -262t185 -107t185 107t71 262t-71 262z" />
    <glyph glyph-name="uni2081" unicode="&#x2081;" horiz-adv-x="309" 
d="M184 -205v561q-6 -14 -30 -14h-154v16h154q11 0 21 10q9 9 9 21v152h17v-746h-17z" />
    <glyph glyph-name="uni2082" unicode="&#x2082;" horiz-adv-x="620" 
d="M80 332q0 102 64 162q63 59 167 59q103 0 166 -57q64 -58 64 -148q0 -76 -40 -135q-41 -61 -118 -129l-299 -272h469v-17h-492v17l312 284q73 65 114 125q37 55 37 127q0 84 -59 136q-61 53 -154 53q-94 0 -155 -55q-60 -54 -60 -150v-17h-16v17z" />
    <glyph glyph-name="uni2083" unicode="&#x2083;" horiz-adv-x="636" 
d="M151 498q65 55 171 55q100 0 163 -54q64 -55 64 -139q0 -71 -49 -119q-51 -49 -133 -61q96 -15 148 -63q54 -49 54 -129q0 -91 -69 -148t-181 -57q-120 0 -188 58q-70 59 -70 161h17q0 -96 66 -149q68 -54 175 -54q101 0 168 53q66 53 66 136q0 84 -68 134t-176 50h-51
v16h51q96 0 161 48q62 46 62 124t-59 127q-61 50 -151 50q-100 0 -161 -52t-61 -137h-16q0 94 67 150z" />
    <glyph glyph-name="uni2084" unicode="&#x2084;" horiz-adv-x="657" 
d="M459 541h16v-516h135v-17h-135v-213h-16v213h-412v17zM459 514l-391 -489h391v489z" />
    <glyph glyph-name="uni2085" unicode="&#x2085;" horiz-adv-x="632" 
d="M518 524h-401l-21 -362q35 56 95 86q62 31 131 31q106 0 175 -69q68 -68 68 -177q0 -112 -71 -180q-73 -70 -181 -70q-101 0 -168 55q-66 55 -77 146h16q11 -83 74 -134t155 -51q101 0 168 66q68 66 68 168q0 103 -66 166t-168 63q-75 0 -131 -34q-58 -35 -90 -95l-14 2
l22 406h416v-17z" />
    <glyph glyph-name="uni2086" unicode="&#x2086;" horiz-adv-x="653" 
d="M153 444q76 109 201 109q86 0 150 -53q63 -52 78 -150h-17q-18 90 -75 138q-58 49 -136 49q-121 0 -190 -105q-70 -107 -70 -278q0 -68 10 -142q-6 64 22 124q26 57 83 94q55 36 133 36q108 0 174 -66t66 -175q0 -110 -66 -176t-174 -66q-138 0 -201 100t-63 271
q0 182 75 290zM504 188q-62 62 -162 62q-102 0 -164 -62q-61 -61 -61 -161q0 -102 62 -164q64 -64 163 -64q100 0 162 62q61 61 61 164q0 102 -61 163z" />
    <glyph glyph-name="uni2087" unicode="&#x2087;" horiz-adv-x="614" 
d="M57 543h504v-15l-395 -733h-19l396 733l-486 -2v17z" />
    <glyph glyph-name="uni2088" unicode="&#x2088;" horiz-adv-x="638" 
d="M125 119q56 54 149 65q-81 10 -133 61q-51 49 -51 124q0 79 65 132q64 52 164 52q101 0 165 -52q65 -53 65 -132q0 -75 -51 -124q-52 -51 -133 -61q93 -11 149 -65q57 -55 57 -135q0 -88 -70 -145q-69 -56 -182 -56q-112 0 -181 56q-70 57 -70 145q0 80 57 135zM473 489
q-62 48 -154 48q-91 0 -153 -48q-60 -47 -60 -120q0 -77 60 -127q59 -49 153 -49q95 0 154 49t59 127q0 74 -59 120zM488 122q-66 54 -169 54q-102 0 -168 -54q-67 -55 -67 -138q0 -79 67 -132t168 -53q102 0 169 53t67 132q0 83 -67 138z" />
    <glyph glyph-name="uni2089" unicode="&#x2089;" horiz-adv-x="638" 
d="M499 -109q-75 -108 -202 -108q-86 0 -150 53q-62 51 -77 150h16q18 -91 75 -139t136 -48q121 0 190 105q70 107 70 278q0 68 -10 142q6 -64 -22 -124q-27 -59 -83 -95q-54 -35 -133 -35q-108 0 -174 66q-65 65 -65 175t65 175q67 67 174 67q138 0 201 -100
q63 -101 63 -271q0 -184 -74 -291zM147 147q61 -61 162 -61q103 0 164 61q62 62 62 162q0 101 -63 164q-64 64 -163 64q-100 0 -162 -62q-61 -61 -61 -164t61 -164z" />
    <glyph glyph-name="franc" unicode="&#x20a3;" horiz-adv-x="1017" 
d="M977 1417h-780v-692h655v-16h-655v-359h370v-16h-370v-334h-17v334h-188v16h188v1084h797v-17z" />
    <glyph glyph-name="uni20A8" unicode="&#x20a8;" horiz-adv-x="1314" 
d="M1223 1434l-4 -17h-435q130 -35 203 -129q75 -96 76 -233h113l-5 -17h-108q-1 -163 -106 -264q-102 -99 -275 -110l367 -664h-21l-366 664h-502v16h487q182 0 289 97q110 99 111 261h-887v17h887q-4 165 -111 264q-105 98 -287 98h-489v17h1063z" />
    <glyph glyph-name="Euro" unicode="&#x20ac;" horiz-adv-x="1298" 
d="M51 541v16h144q-7 86 -7 158q0 62 5 119h-142v16h144q12 186 80 319q69 136 183 206q115 71 259 71q188 0 314 -108q127 -109 155 -275h-17q-27 163 -149 264q-124 103 -303 103q-140 0 -251 -70q-110 -69 -176 -200q-67 -133 -79 -310h494l-5 -16h-491q-4 -41 -4 -119
q0 -85 6 -158h436l-4 -16h-430q30 -252 167 -395q136 -142 341 -142q178 0 295 99q116 98 151 264h17q-38 -171 -158 -275t-305 -104q-211 0 -351 146t-173 407h-146z" />
    <glyph glyph-name="uni20BF" unicode="&#x20bf;" horiz-adv-x="1259" 
d="M373 1434v215h16v-215h236v215h16v-215q197 0 306 -95q108 -95 108 -260q0 -139 -77 -228q-78 -90 -220 -114q179 -23 273 -112q95 -90 95 -242q0 -181 -122 -282t-363 -101v-197h-16v197h-236v-197h-16v197h-213v1434h213zM176 743h465q186 0 293 90q104 88 104 246
t-103 248t-294 90h-465v-674zM176 16h465q231 0 350 98t119 269q0 166 -122 255t-347 89h-465v-711z" />
    <glyph glyph-name="trademark" unicode="&#x2122;" horiz-adv-x="1368" 
d="M57 1434h484v-17h-234v-534h-16v534h-234v17zM643 1434h23l276 -531l281 531h22v-551h-16v526l-281 -526h-14l-275 526v-526h-16v551z" />
    <glyph glyph-name="uni2126" unicode="&#x2126;" horiz-adv-x="1544" 
d="M954 150q233 123 337 273q104 151 104 370q0 182 -81 327q-81 146 -223 228t-319 82q-176 0 -318 -82q-143 -83 -224 -228q-80 -144 -80 -327q0 -221 103 -370q104 -150 337 -273v-150h-455v16h438v125q-229 117 -335 275q-105 156 -105 377q0 185 83 334q82 149 228 234
q145 85 328 85t328 -85q146 -85 228 -234q83 -149 83 -334q0 -222 -104 -377q-106 -157 -336 -275v-125h438v-16h-455v150z" />
    <glyph glyph-name="uni2153" unicode="&#x2153;" horiz-adv-x="1292" 
d="M184 690v561q-6 -14 -30 -14h-154v16h154q11 0 21 10q9 9 9 21v152h17v-746h-17zM23 0l909 1434h20l-909 -1434h-20zM816 702q67 56 171 56q100 0 164 -55q63 -54 63 -138q0 -72 -49 -120q-50 -48 -133 -60q97 -15 149 -63q54 -50 54 -129q0 -90 -70 -148
q-69 -57 -180 -57q-120 0 -188 58q-70 59 -70 161h16q0 -97 67 -150t175 -53q103 0 168 52q66 53 66 137t-68 134t-176 50h-51v16h51q97 0 161 47q62 46 62 125q0 78 -59 127t-152 49q-101 0 -161 -51t-60 -137h-16q0 93 66 149z" />
    <glyph glyph-name="uni2155" unicode="&#x2155;" horiz-adv-x="1241" 
d="M184 690v561q-6 -14 -30 -14h-154v16h154q11 0 21 10q9 9 9 21v152h17v-746h-17zM23 0l909 1434h20l-909 -1434h-20zM1137 729h-402l-20 -362q35 56 95 86t130 30q107 0 175 -68q69 -69 69 -177q0 -112 -72 -181t-180 -69q-101 0 -168 55q-68 56 -78 145h16
q10 -81 74 -133q63 -51 156 -51q100 0 168 66q67 66 67 168q0 103 -65 165q-67 64 -168 64q-75 0 -131 -34q-58 -35 -90 -95l-15 2l23 405h416v-16z" />
    <glyph glyph-name="uni2156" unicode="&#x2156;" horiz-adv-x="1552" 
d="M80 1225q0 101 64 161q65 60 167 60q103 0 166 -57q64 -58 64 -148q0 -76 -40 -135q-41 -61 -118 -129l-299 -272h469v-17h-492v17l312 284q73 65 114 125q37 55 37 127q0 84 -59 136q-61 53 -154 53q-94 0 -155 -55q-60 -54 -60 -150v-17h-16v17zM334 0l909 1434h21
l-910 -1434h-20zM1448 729h-401l-21 -362q35 56 95 86t130 30q107 0 175 -68q69 -69 69 -177q0 -112 -72 -181t-180 -69q-101 0 -168 55q-68 56 -78 145h17q10 -82 73 -133t156 -51q101 0 168 66q68 66 68 168t-66 165q-67 64 -168 64q-75 0 -131 -34q-58 -35 -90 -95l-14 2
l22 405h416v-16z" />
    <glyph glyph-name="uni2157" unicode="&#x2157;" horiz-adv-x="1568" 
d="M151 1395q65 55 171 55q100 0 163 -54q64 -55 64 -139q0 -71 -49 -119q-51 -49 -133 -61q96 -15 148 -63q54 -50 54 -129q0 -91 -69 -148t-181 -57q-120 0 -188 58q-70 59 -70 161h17q0 -97 66 -149q68 -54 175 -54q101 0 168 53q66 53 66 136q0 84 -68 134t-176 50h-51
v16h51q96 0 161 48q62 46 62 124t-59 127q-61 50 -151 50q-100 0 -161 -52t-61 -137h-16q0 94 67 150zM350 0l910 1434h20l-909 -1434h-21zM1464 729h-401l-21 -362q34 55 96 86q60 30 130 30q107 0 175 -68t68 -177q0 -113 -71 -181q-72 -69 -180 -69q-101 0 -168 55
q-68 56 -78 145h16q10 -81 74 -133q63 -51 156 -51q100 0 167 66q68 66 68 168q0 103 -65 165q-67 64 -168 64q-76 0 -132 -34q-58 -35 -90 -95l-14 2l23 405h415v-16z" />
    <glyph glyph-name="uni2158" unicode="&#x2158;" horiz-adv-x="1589" 
d="M459 1434h16v-516h135v-17h-135v-213h-16v213h-412v17zM459 1407l-391 -489h391v489zM371 0l909 1434h20l-909 -1434h-20zM1485 729h-402l-20 -362q35 56 95 86t130 30q107 0 175 -68q69 -69 69 -177q0 -112 -72 -181t-180 -69q-101 0 -168 55q-68 56 -78 145h17
q10 -82 73 -133t156 -51q100 0 168 66t68 168t-66 165q-67 64 -168 64q-75 0 -131 -34q-58 -35 -90 -95l-14 2l22 405h416v-16z" />
    <glyph glyph-name="uni2159" unicode="&#x2159;" horiz-adv-x="1218" 
d="M184 690v561q-6 -14 -30 -14h-154v16h154q11 0 21 10q9 9 9 21v152h17v-746h-17zM23 0l909 1434h20l-909 -1434h-20zM732 649q76 109 202 109q85 0 149 -53q63 -52 78 -150h-16q-18 90 -75 138t-136 48q-123 0 -191 -104q-69 -105 -69 -279q0 -67 10 -141q-6 64 22 124
q27 58 82 94q56 36 134 36q107 0 174 -67q65 -65 65 -175t-65 -175q-66 -66 -174 -66q-138 0 -201 100q-64 102 -64 270q0 183 75 291zM1083 393q-62 62 -161 62q-102 0 -164 -62t-62 -162t63 -163q64 -64 163 -64t161 62t62 163q0 102 -62 164z" />
    <glyph glyph-name="oneeighth" unicode="&#x215b;" horiz-adv-x="1245" 
d="M184 690v561q-6 -14 -30 -14h-154v16h154q11 0 21 10q9 9 9 21v152h17v-746h-17zM23 0l909 1434h20l-909 -1434h-20zM741 324q56 54 150 65q-81 10 -133 61q-51 50 -51 123q0 81 64 133t165 52t165 -52t64 -133q0 -73 -51 -123q-52 -51 -133 -61q93 -11 149 -65
q58 -56 58 -136q0 -87 -71 -144q-69 -56 -181 -56t-181 56q-71 57 -71 144q0 80 57 136zM1090 694q-61 47 -154 47t-154 -47q-59 -46 -59 -121q0 -78 59 -127t154 -49t154 49t59 127q0 75 -59 121zM1105 327q-66 54 -169 54t-169 -54q-67 -55 -67 -139q0 -79 67 -132
q65 -52 169 -52t169 52q66 52 66 132q0 85 -66 139z" />
    <glyph glyph-name="threeeighths" unicode="&#x215c;" horiz-adv-x="1572" 
d="M151 1395q65 55 171 55q100 0 163 -54q64 -55 64 -139q0 -71 -49 -119q-51 -49 -133 -61q96 -15 148 -63q54 -50 54 -129q0 -91 -69 -148t-181 -57q-120 0 -188 58q-70 59 -70 161h17q0 -97 66 -149q68 -54 175 -54q101 0 168 53q66 53 66 136q0 84 -68 134t-176 50h-51
v16h51q96 0 161 48q62 46 62 124t-59 127q-61 50 -151 50q-100 0 -161 -52t-61 -137h-16q0 94 67 150zM350 0l910 1434h20l-909 -1434h-21zM1069 324q56 54 150 65q-82 10 -134 61q-51 50 -51 123q0 80 65 133q64 52 165 52q100 0 164 -52q65 -53 65 -133q0 -73 -51 -123
q-52 -51 -133 -61q93 -11 149 -65q58 -56 58 -136q0 -87 -71 -144q-69 -56 -181 -56q-113 0 -182 56q-70 57 -70 144q0 80 57 136zM1417 694q-61 47 -153 47q-93 0 -154 -47q-59 -46 -59 -121q0 -78 59 -127t154 -49q94 0 153 49q60 50 60 127q0 75 -60 121zM1433 327
q-66 54 -169 54t-169 -54q-67 -55 -67 -139q0 -79 67 -132q65 -52 169 -52t169 52q66 52 66 132q0 85 -66 139z" />
    <glyph glyph-name="fiveeighths" unicode="&#x215d;" horiz-adv-x="1568" 
d="M518 1417h-401l-21 -362q35 56 95 86t131 30q107 0 175 -68t68 -177q0 -113 -71 -181q-72 -69 -181 -69q-101 0 -168 55q-66 55 -77 146h16q11 -83 74 -134t155 -51q101 0 168 66q68 66 68 168q0 103 -66 166t-168 63q-75 0 -131 -34q-58 -35 -90 -95l-14 2l22 406h416
v-17zM346 0l909 1434h21l-909 -1434h-21zM1065 324q56 54 149 65q-81 10 -133 61q-51 50 -51 123q0 80 65 133q64 52 165 52q100 0 164 -52q65 -53 65 -133q0 -73 -51 -123q-52 -51 -133 -61q93 -11 149 -65q57 -56 57 -136q0 -87 -70 -144q-69 -56 -181 -56q-113 0 -182 56
q-70 57 -70 144q0 80 57 136zM1413 694q-61 47 -153 47q-93 0 -154 -47q-59 -46 -59 -121q0 -78 59 -127t154 -49q94 0 153 49q60 50 60 127q0 75 -60 121zM1428 327q-66 54 -168 54q-103 0 -169 -54q-67 -55 -67 -139q0 -79 67 -132q65 -52 169 -52q103 0 168 52
q67 53 67 132q0 84 -67 139z" />
    <glyph glyph-name="seveneighths" unicode="&#x215e;" horiz-adv-x="1550" 
d="M57 1434h504v-15l-395 -733h-19l396 733l-486 -2v17zM328 0l909 1434h20l-909 -1434h-20zM1047 324q56 54 149 65q-81 10 -133 61q-51 50 -51 123q0 81 64 133t165 52t165 -52t64 -133q0 -73 -51 -123q-52 -51 -133 -61q94 -11 150 -65q57 -56 57 -136q0 -87 -71 -144
q-69 -56 -181 -56t-181 56q-71 57 -71 144q0 80 58 136zM1395 694q-61 47 -154 47t-154 -47q-59 -46 -59 -121q0 -78 59 -127t154 -49t154 49t59 127q0 75 -59 121zM1410 327q-66 54 -169 54t-169 -54t-66 -139q0 -80 66 -132q65 -52 169 -52t169 52q67 53 67 132
q0 84 -67 139z" />
    <glyph glyph-name="arrowleft" unicode="&#x2190;" horiz-adv-x="1101" 
d="M31 551l499 502l13 -13l-480 -481h906v-16h-906l482 -486l-13 -12z" />
    <glyph glyph-name="arrowup" unicode="&#x2191;" horiz-adv-x="1273" 
d="M1141 543l-13 -13l-485 482v-1012h-16v1012l-482 -480l-12 13l502 499z" />
    <glyph glyph-name="arrowright" unicode="&#x2192;" horiz-adv-x="1101" 
d="M1071 553l-502 -506l-12 12l481 486h-905v16h905l-479 481l12 13z" />
    <glyph glyph-name="arrowdown" unicode="&#x2193;" horiz-adv-x="1273" 
d="M1141 489l-506 -501l-502 499l12 13l482 -480v1012h16v-1012l485 482z" />
    <glyph glyph-name="arrowboth" unicode="&#x2194;" horiz-adv-x="1726" 
d="M1094 1053l499 -502l-501 -506l-13 12l482 486h-1395l481 -486l-12 -12l-502 506l500 502l12 -13l-479 -481h1395l-480 481z" />
    <glyph glyph-name="arrowupdn" unicode="&#x2195;" horiz-adv-x="1273" 
d="M133 948l502 500l506 -502l-13 -12l-485 481v-1395l485 482l13 -13l-506 -501l-502 499l12 13l482 -480v1395l-482 -479z" />
    <glyph glyph-name="uni2196" unicode="&#x2196;" horiz-adv-x="976" 
d="M133 1032h711v-16h-682l643 -643l-12 -11l-643 642v-685h-17v713z" />
    <glyph glyph-name="uni2197" unicode="&#x2197;" horiz-adv-x="976" 
d="M844 1032v-713h-17v685l-643 -642l-12 11l643 643h-682v16h711z" />
    <glyph glyph-name="uni2198" unicode="&#x2198;" horiz-adv-x="976" 
d="M133 14l684 -2l-645 645l12 11l643 -643v686h17v-713h-711v16z" />
    <glyph glyph-name="uni2199" unicode="&#x2199;" horiz-adv-x="976" 
d="M150 713v-686l643 643l12 -11l-645 -645l684 2v-16h-711v713h17z" />
    <glyph glyph-name="partialdiff" unicode="&#x2202;" horiz-adv-x="1169" 
d="M163 724q59 108 167 172q105 62 243 62q156 0 276 -77q121 -78 171 -213q-28 182 -117 347q-89 166 -253 279q-167 115 -402 136v16q280 -27 459 -173q181 -148 260 -350q80 -205 80 -413q0 -156 -59 -276q-58 -118 -166 -182q-107 -64 -249 -64q-138 0 -243 62
q-108 64 -167 173q-61 113 -61 252q0 138 61 249zM814 67q103 63 160 177q56 112 56 266q0 134 -63 232t-168 149t-226 51q-132 0 -234 -59q-104 -60 -162 -166t-58 -242t58 -243t162 -167q105 -61 234 -61q137 0 241 63z" />
    <glyph glyph-name="emptyset" unicode="&#x2205;" horiz-adv-x="1245" 
d="M1085 946q48 -108 48 -225q0 -144 -68 -266t-185 -192q-118 -70 -257 -70q-109 0 -202 40q-97 42 -165 117l-127 -141l-10 10l127 141q-66 75 -99 165q-34 92 -34 196q0 145 67 266q68 121 186 192q118 70 257 70q183 0 319 -114l119 131l10 -11l-117 -131
q85 -75 131 -178zM163 534q36 -92 95 -161l674 749q-134 111 -309 111q-135 0 -249 -69t-179 -186q-66 -118 -66 -257q0 -100 34 -187zM871 278q115 70 180 186q65 117 65 257q0 118 -46 219q-48 105 -128 172l-674 -750q67 -71 159 -112q93 -41 196 -41q134 0 248 69z" />
    <glyph glyph-name="uni2206" unicode="&#x2206;" horiz-adv-x="1320" 
d="M51 0v16l598 1418h21l600 -1418v-16h-1219zM70 16h1179l-590 1397z" />
    <glyph glyph-name="product" unicode="&#x220f;" horiz-adv-x="1398" 
d="M1337 1434v-17h-194v-1634h-17v1634h-854v-1634h-16v1634h-195v17h1276z" />
    <glyph glyph-name="summation" unicode="&#x2211;" horiz-adv-x="1234" 
d="M94 -201l629 822l-584 796v17h998v-17h-977l579 -788v-15l-624 -815h1038v-16h-1059v16z" />
    <glyph glyph-name="minus" unicode="&#x2212;" 
d="M160 584v16h776v-16h-776z" />
    <glyph glyph-name="radical" unicode="&#x221a;" horiz-adv-x="1077" 
d="M205 858l-168 -74l-6 15l182 82l338 -858l418 1411h16l-424 -1434h-18z" />
    <glyph glyph-name="infinity" unicode="&#x221e;" horiz-adv-x="1525" 
d="M944 304q-79 66 -180 239q-102 -174 -181 -239q-81 -66 -188 -66q-131 0 -212 87t-81 234q0 148 81 235t212 87q106 0 187 -67q79 -66 180 -239q102 174 181 239q82 67 187 67q131 0 212 -87t81 -235q0 -147 -81 -234t-212 -87q-106 0 -186 66zM519 281q56 28 110 92
q58 69 125 184q-101 174 -180 242q-75 65 -179 65q-123 0 -199 -82q-77 -83 -77 -223t77 -223q76 -82 199 -82q70 0 124 27zM950 319q77 -65 180 -65q124 0 200 82q77 83 77 223t-77 223q-76 82 -200 82q-103 0 -180 -64q-76 -63 -178 -239q102 -177 178 -242z" />
    <glyph glyph-name="integral" unicode="&#x222b;" horiz-adv-x="745" 
d="M180 -201q101 0 143 42t42 143v1249q0 106 47 153q48 48 153 48h109v-17h-109q-100 0 -142 -42t-42 -142v-1249q0 -107 -47 -154t-154 -47h-108v16h108z" />
    <glyph glyph-name="approxequal" unicode="&#x2248;" 
d="M180 268q0 89 54 146t139 57q56 0 93 -22q36 -22 87 -68q44 -43 83 -66q37 -22 89 -22q77 0 127 53q49 52 49 133h17q0 -86 -54 -145q-53 -58 -139 -58q-56 0 -96 23q-39 22 -86 68q-41 40 -83 65q-38 23 -91 23q-75 0 -124 -54q-48 -53 -48 -133h-17zM180 678
q0 88 54 145q55 58 139 58q55 0 93 -23q39 -23 87 -67q44 -43 83 -66q38 -23 89 -23q76 0 127 54q49 52 49 133h17q0 -87 -54 -146q-52 -57 -139 -57q-56 0 -96 23q-42 24 -86 67t-83 66q-37 22 -91 22q-76 0 -124 -53t-48 -133h-17z" />
    <glyph glyph-name="notequal" unicode="&#x2260;" 
d="M915 754h-292l-138 -394h430v-16h-436l-78 -227h-18l78 227h-281v16h287l137 394h-424v16h428l80 229h19l-80 -229h288v-16z" />
    <glyph glyph-name="lessequal" unicode="&#x2264;" 
d="M180 633v20l735 365v-19l-716 -356l716 -354v-19zM180 0v16h735v-16h-735z" />
    <glyph glyph-name="greaterequal" unicode="&#x2265;" 
d="M915 653v-20l-735 -363v19l717 354l-717 356v19zM180 0v16h735v-16h-735z" />
    <glyph glyph-name="dotmath" unicode="&#x22c5;" horiz-adv-x="315" 
d="M140 605q7 7 18 7q10 0 17 -7t7 -17q0 -11 -7 -18t-17 -7q-11 0 -18 7t-7 18q0 10 7 17z" />
    <glyph glyph-name="filledbox" unicode="&#x25a0;" horiz-adv-x="1761" 
d="M160 1434h1442v-1434h-1442v1434z" />
    <glyph glyph-name="uni25A1" unicode="&#x25a1;" horiz-adv-x="1753" 
d="M160 1434h1433v-1434h-1433v1434zM176 1417v-1401h1401v1401h-1401z" />
    <glyph glyph-name="uni25AF" unicode="&#x25af;" horiz-adv-x="1193" 
d="M160 1434h874v-1434h-874v1434zM176 1417v-1401h842v1401h-842z" />
    <glyph glyph-name="triagup" unicode="&#x25b2;" horiz-adv-x="1826" 
d="M915 1458l838 -1458h-1679z" />
    <glyph glyph-name="uni25B3" unicode="&#x25b3;" horiz-adv-x="1826" 
d="M915 1458l838 -1458h-1679zM915 1423l-813 -1407h1622z" />
    <glyph glyph-name="uni25B6" unicode="&#x25b6;" horiz-adv-x="1097" 
d="M133 1036l914 -524l-914 -524v1048z" />
    <glyph glyph-name="uni25B7" unicode="&#x25b7;" horiz-adv-x="1097" 
d="M133 1040l914 -524l-914 -524v1048zM150 20l864 496l-864 496v-992z" />
    <glyph glyph-name="uni25C0" unicode="&#x25c0;" horiz-adv-x="1097" 
d="M965 1036v-1048l-914 524z" />
    <glyph glyph-name="uni25C1" unicode="&#x25c1;" horiz-adv-x="1097" 
d="M965 1040v-1048l-914 524zM948 20v992l-864 -496z" />
    <glyph glyph-name="lozenge" unicode="&#x25ca;" horiz-adv-x="1132" 
d="M575 1434l424 -717l-424 -719h-18l-424 719l424 717h18zM567 14l414 703l-414 700l-415 -700z" />
    <glyph glyph-name="circle" unicode="&#x25cb;" horiz-adv-x="1689" 
d="M1212 1349q168 -97 267 -266q98 -166 98 -366q0 -201 -98 -367q-99 -167 -267 -265q-167 -97 -368 -97q-202 0 -369 97q-168 97 -265 265q-97 167 -97 367q0 199 97 366q98 169 265 266t369 97q201 0 368 -97zM483 1334q-164 -95 -259 -259t-95 -358q0 -195 95 -359
t259 -259t361 -95q195 0 361 95q165 94 260 259q96 166 96 359q0 192 -96 358q-95 165 -260 259q-168 96 -361 96q-195 0 -361 -96z" />
    <glyph glyph-name="uni25CF" unicode="&#x25cf;" horiz-adv-x="1683" 
d="M470 1351q-167 -95 -262 -262t-95 -372t95 -372t262 -262t372 -95q204 0 371 95q169 96 263 262q95 167 95 372t-95 372q-94 166 -263 262q-167 95 -371 95q-205 0 -372 -95z" />
    <glyph glyph-name="uni25FD" unicode="&#x25fd;" horiz-adv-x="1298" 
d="M133 1032h1032v-1032h-1032v1032zM150 1016v-1000h999v1000h-999z" />
    <glyph glyph-name="uni25FE" unicode="&#x25fe;" horiz-adv-x="1298" 
d="M133 1032h1032v-1032h-1032v1032z" />
    <glyph glyph-name="uni262E" unicode="&#x262e;" horiz-adv-x="1683" 
d="M208 1089q95 167 262 262t372 95q204 0 371 -95q169 -96 263 -262q95 -167 95 -372t-95 -372q-94 -166 -263 -262q-167 -95 -371 -95q-205 0 -372 95t-262 262t-95 372t95 372zM834 1430q-197 -1 -360 -96q-162 -94 -253 -255q-92 -163 -92 -362q0 -151 53 -283
q52 -129 152 -229l500 518v707zM850 723l500 -518q98 99 151 229q53 132 53 283q0 199 -92 362q-91 161 -253 255q-163 95 -359 96v-707zM346 195q95 -91 219 -140t269 -51v696zM850 4q143 1 268 51q124 49 219 140l-487 505v-696z" />
    <glyph glyph-name="uni26AA" unicode="&#x26aa;" horiz-adv-x="1261" 
d="M895 972q119 -69 192 -192q72 -122 72 -264t-72 -264q-73 -123 -192 -192q-121 -70 -264 -70t-264 70t-193 192t-72 264t72 264t193 192t264 70t264 -70zM374 957q-119 -69 -187 -185q-68 -115 -68 -256t68 -256q68 -116 187 -185q118 -69 257 -69t257 69q117 68 186 185
t69 256t-69 256t-186 185q-119 69 -257 69q-139 0 -257 -69z" />
    <glyph glyph-name="uni26AB" unicode="&#x26ab;" horiz-adv-x="1261" 
d="M895 972q119 -69 192 -192q72 -122 72 -264t-72 -264q-73 -123 -192 -192q-121 -70 -264 -70t-264 70t-193 192t-72 264t72 264t193 192t264 70t264 -70z" />
    <glyph glyph-name="uni2713" unicode="&#x2713;" horiz-adv-x="2275" 
d="M74 715l16 16l696 -698l1399 1401l17 -17l-1416 -1417z" />
    <glyph glyph-name="uni2715" unicode="&#x2715;" horiz-adv-x="1634" 
d="M119 1434l698 -699l699 699l16 -17l-698 -698l698 -701l-16 -16l-699 698l-698 -698l-17 16l699 701l-699 698z" />
    <glyph glyph-name="uni2780" unicode="&#x2780;" horiz-adv-x="1689" 
d="M1212 1349q168 -97 267 -266q98 -166 98 -366q0 -201 -98 -367q-99 -167 -267 -265q-167 -97 -368 -97q-202 0 -369 97q-168 97 -265 265q-97 167 -97 367q0 199 97 366q98 169 265 266t369 97q201 0 368 -97zM483 1334q-164 -95 -259 -259t-95 -358q0 -195 95 -359
t259 -259t361 -95q195 0 361 95q165 94 260 259q96 166 96 359q0 192 -96 358q-95 165 -260 259q-168 96 -361 96q-195 0 -361 -96zM848 344v561q-6 -14 -31 -14h-153v16h153q13 0 22 9t9 22v152h16v-746h-16z" />
    <glyph glyph-name="uni2781" unicode="&#x2781;" horiz-adv-x="1689" 
d="M1212 1349q168 -97 267 -266q98 -166 98 -366q0 -201 -98 -367q-99 -167 -267 -265q-167 -97 -368 -97q-202 0 -369 97q-168 97 -265 265q-97 167 -97 367q0 199 97 366q98 169 265 266t369 97q201 0 368 -97zM483 1334q-164 -95 -259 -259t-95 -358q0 -195 95 -359
t259 -259t361 -95q195 0 361 95q165 94 260 259q96 166 96 359q0 192 -96 358q-95 165 -260 259q-168 96 -361 96q-195 0 -361 -96zM606 881q0 101 65 161t167 60t166 -58q63 -57 63 -147q0 -76 -40 -135q-41 -61 -118 -129l-299 -273h469v-16h-491v16l311 285
q76 67 115 125q37 55 37 127q0 83 -60 136q-59 52 -153 52q-96 0 -156 -54q-59 -53 -59 -150v-17h-17v17z" />
    <glyph glyph-name="uni2782" unicode="&#x2782;" horiz-adv-x="1689" 
d="M1212 1349q168 -97 267 -266q98 -166 98 -366q0 -201 -98 -367q-99 -167 -267 -265q-167 -97 -368 -97q-202 0 -369 97q-168 97 -265 265q-97 167 -97 367q0 199 97 366q98 169 265 266t369 97q201 0 368 -97zM483 1334q-164 -95 -259 -259t-95 -358q0 -195 95 -359
t259 -259t361 -95q195 0 361 95q165 94 260 259q96 166 96 359q0 192 -96 358q-95 165 -260 259q-168 96 -361 96q-195 0 -361 -96zM679 1047q65 55 171 55q101 0 164 -54t63 -139q0 -71 -49 -119q-51 -49 -133 -61q96 -15 148 -63q55 -50 55 -129q0 -90 -70 -148
q-69 -57 -180 -57q-121 0 -189 58q-69 58 -69 161h16q0 -97 67 -150t175 -53q103 0 168 52t65 137t-67 134q-68 50 -176 50h-52v16h52q96 0 160 47q63 46 63 125q0 77 -60 127q-59 49 -151 49q-101 0 -161 -51t-60 -137h-17q0 94 67 150z" />
    <glyph glyph-name="uni2783" unicode="&#x2783;" horiz-adv-x="1689" 
d="M1212 1349q168 -97 267 -266q98 -166 98 -366q0 -201 -98 -367q-99 -167 -267 -265q-167 -97 -368 -97q-202 0 -369 97q-168 97 -265 265q-97 167 -97 367q0 199 97 366q98 169 265 266t369 97q201 0 368 -97zM483 1334q-164 -95 -259 -259t-95 -358q0 -195 95 -359
t259 -259t361 -95q195 0 361 95q165 94 260 259q96 166 96 359q0 192 -96 358q-95 165 -260 259q-168 96 -361 96q-195 0 -361 -96zM934 1090h16v-517h135v-16h-135v-213h-16v213h-412v16zM934 1063l-391 -490h391v490z" />
    <glyph glyph-name="uni2784" unicode="&#x2784;" horiz-adv-x="1689" 
d="M1212 1349q168 -97 267 -266q98 -166 98 -366q0 -201 -98 -367q-99 -167 -267 -265q-167 -97 -368 -97q-202 0 -369 97q-168 97 -265 265q-97 167 -97 367q0 199 97 366q98 169 265 266t369 97q201 0 368 -97zM483 1334q-164 -95 -259 -259t-95 -358q0 -195 95 -359
t259 -259t361 -95q195 0 361 95q165 94 260 259q96 166 96 359q0 192 -96 358q-95 165 -260 259q-168 96 -361 96q-195 0 -361 -96zM1061 1073h-402l-20 -362q35 56 95 86t130 30q107 0 175 -68q69 -69 69 -177q0 -112 -72 -181t-180 -69q-101 0 -168 55q-68 56 -78 145h17
q10 -82 73 -133t156 -51q100 0 168 66t68 168q0 103 -66 166t-168 63q-75 0 -131 -34q-58 -35 -90 -95l-14 2l22 406h416v-17z" />
    <glyph glyph-name="uni2785" unicode="&#x2785;" horiz-adv-x="1689" 
d="M1212 1349q168 -97 267 -266q98 -166 98 -366q0 -201 -98 -367q-99 -167 -267 -265q-167 -97 -368 -97q-202 0 -369 97q-168 97 -265 265q-97 167 -97 367q0 199 97 366q98 169 265 266t369 97q201 0 368 -97zM483 1334q-164 -95 -259 -259t-95 -358q0 -195 95 -359
t259 -259t361 -95q195 0 361 95q165 94 260 259q96 166 96 359q0 192 -96 358q-95 165 -260 259q-168 96 -361 96q-195 0 -361 -96zM654 993q76 109 202 109q86 0 150 -53q62 -51 77 -150h-16q-18 90 -75 138t-136 48q-122 0 -190 -104q-70 -107 -70 -279q0 -67 10 -141
q-6 64 22 124q26 57 83 94q55 36 133 36q108 0 174 -66q65 -65 65 -176q0 -110 -65 -175q-66 -66 -174 -66q-138 0 -201 100t-63 270q0 184 74 291zM1006 737q-62 62 -162 62q-102 0 -164 -62t-62 -162t63 -163q64 -64 163 -64q100 0 162 62q61 61 61 163q0 103 -61 164z
" />
    <glyph glyph-name="uni2786" unicode="&#x2786;" horiz-adv-x="1689" 
d="M1212 1349q168 -97 267 -266q98 -166 98 -366q0 -201 -98 -367q-99 -167 -267 -265q-167 -97 -368 -97q-202 0 -369 97q-168 97 -265 265q-97 167 -97 367q0 199 97 366q98 169 265 266t369 97q201 0 368 -97zM483 1334q-164 -95 -259 -259t-95 -358q0 -195 95 -359
t259 -259t361 -95q195 0 361 95q165 94 260 259q96 166 96 359q0 192 -96 358q-95 165 -260 259q-168 96 -361 96q-195 0 -361 -96zM606 1092h504v-15l-395 -733h-19l396 733l-486 -2v17z" />
    <glyph glyph-name="uni2787" unicode="&#x2787;" horiz-adv-x="1689" 
d="M1212 1349q168 -97 267 -266q98 -166 98 -366q0 -201 -98 -367q-99 -167 -267 -265q-167 -97 -368 -97q-202 0 -369 97q-168 97 -265 265q-97 167 -97 367q0 199 97 366q98 169 265 266t369 97q201 0 368 -97zM483 1334q-164 -95 -259 -259t-95 -358q0 -195 95 -359
t259 -259t361 -95q195 0 361 95q165 94 260 259q96 166 96 359q0 192 -96 358q-95 165 -260 259q-168 96 -361 96q-195 0 -361 -96zM651 668q56 54 150 65q-81 10 -133 61q-52 50 -52 124q0 79 65 132q64 52 165 52t165 -52t64 -132q0 -74 -51 -124q-52 -51 -133 -61
q93 -11 149 -65q58 -56 58 -136q0 -87 -71 -144q-69 -56 -181 -56t-181 56q-71 57 -71 144q0 80 57 136zM999 1038q-61 47 -153 47q-93 0 -154 -47q-59 -46 -59 -120q0 -78 59 -127q61 -50 154 -50q92 0 153 50q60 49 60 127q0 74 -60 120zM1015 671q-66 54 -169 54
t-169 -54q-67 -55 -67 -139q0 -79 67 -132q65 -52 169 -52t169 52q66 52 66 132q0 85 -66 139z" />
    <glyph glyph-name="uni2788" unicode="&#x2788;" horiz-adv-x="1689" 
d="M1212 1349q168 -97 267 -266q98 -166 98 -366q0 -201 -98 -367q-99 -167 -267 -265q-167 -97 -368 -97q-202 0 -369 97q-168 97 -265 265q-97 167 -97 367q0 199 97 366q98 169 265 266t369 97q201 0 368 -97zM483 1334q-164 -95 -259 -259t-95 -358q0 -195 95 -359
t259 -259t361 -95q195 0 361 95q165 94 260 259q96 166 96 359q0 192 -96 358q-95 165 -260 259q-168 96 -361 96q-195 0 -361 -96zM1023 440q-75 -108 -202 -108q-85 0 -149 53q-63 52 -78 150h16q18 -91 75 -139t136 -48q122 0 191 105t69 278q0 67 -10 141
q6 -65 -21 -123q-27 -59 -83 -95t-133 -36q-108 0 -175 67q-65 65 -65 175t65 175q67 67 175 67q137 0 200 -101q64 -102 64 -270q0 -183 -75 -291zM672 696q61 -61 162 -61q102 0 163 61q62 62 62 162q0 101 -63 164t-162 63q-101 0 -162 -61q-62 -62 -62 -164t62 -164z
" />
    <glyph glyph-name="uni278A" unicode="&#x278a;" horiz-adv-x="1683" 
d="M470 1349q-166 -94 -262 -263q-95 -167 -95 -371q0 -205 95 -372t262 -262t372 -95q204 0 371 95q169 96 263 262q95 167 95 372q0 204 -95 371q-95 168 -263 263q-167 95 -371 95q-205 0 -372 -95zM844 342v561q-6 -14 -31 -14h-154v16h154q13 0 22 9t9 22v151h16v-745
h-16z" />
    <glyph glyph-name="uni278B" unicode="&#x278b;" horiz-adv-x="1683" 
d="M470 1351q-167 -95 -262 -262t-95 -372t95 -372t262 -262t372 -95q204 0 371 95q169 96 263 262q95 167 95 372t-95 372q-94 166 -263 262q-167 95 -371 95q-205 0 -372 -95zM602 881q0 101 65 161t167 60q101 0 165 -58t64 -147q0 -76 -40 -135q-41 -61 -118 -129
l-299 -273h469v-16h-491v16l311 285q76 67 115 125q37 55 37 127q0 83 -60 136q-59 52 -153 52q-96 0 -156 -54t-60 -150v-17h-16v17z" />
    <glyph glyph-name="uni278C" unicode="&#x278c;" horiz-adv-x="1683" 
d="M470 1351q-167 -95 -262 -262t-95 -372t95 -372t262 -262t372 -95q204 0 371 95q169 96 263 262q95 167 95 372t-95 372q-94 166 -263 262q-167 95 -371 95q-205 0 -372 -95zM675 1047q65 55 171 55q101 0 164 -54t63 -139q0 -71 -49 -119q-51 -49 -133 -61
q96 -15 148 -63q55 -50 55 -129q0 -90 -70 -148q-69 -57 -180 -57q-121 0 -189 58q-69 58 -69 161h16q0 -97 67 -150t175 -53q103 0 168 52t65 137t-67 134q-68 50 -176 50h-52v16h52q96 0 160 47q63 46 63 125q0 77 -60 127q-59 49 -151 49q-101 0 -161 -51t-60 -137h-17
q0 94 67 150z" />
    <glyph glyph-name="uni278D" unicode="&#x278d;" horiz-adv-x="1683" 
d="M470 1351q-167 -95 -262 -262t-95 -372t95 -372t262 -262t372 -95q204 0 371 95q169 96 263 262q95 167 95 372t-95 372q-94 166 -263 262q-167 95 -371 95q-205 0 -372 -95zM930 1090h16v-517h135v-16h-135v-213h-16v213h-412v16zM930 1063l-391 -490h391v490z" />
    <glyph glyph-name="uni278E" unicode="&#x278e;" horiz-adv-x="1683" 
d="M470 1351q-167 -95 -262 -262t-95 -372t95 -372t262 -262t372 -95q204 0 371 95q169 96 263 262q95 167 95 372t-95 372q-94 166 -263 262q-167 95 -371 95q-205 0 -372 -95zM1057 1073h-402l-20 -362q35 56 95 86t130 30q107 0 175 -68q69 -69 69 -177q0 -112 -72 -181
t-180 -69q-101 0 -168 55q-68 56 -78 145h17q10 -82 73 -133t156 -51q100 0 168 66q67 66 67 168q0 104 -65 166q-66 63 -168 63q-75 0 -131 -34q-58 -35 -90 -95l-15 2l23 406h416v-17z" />
    <glyph glyph-name="uni278F" unicode="&#x278f;" horiz-adv-x="1683" 
d="M470 1351q-167 -95 -262 -262t-95 -372t95 -372t262 -262t372 -95q204 0 371 95q169 96 263 262q95 167 95 372t-95 372q-94 166 -263 262q-167 95 -371 95q-205 0 -372 -95zM650 993q76 109 202 109q85 0 149 -53q63 -52 78 -150h-16q-18 90 -75 138t-136 48
q-122 0 -190 -104q-70 -107 -70 -279q0 -67 10 -141q-6 64 22 124q26 57 83 94q55 36 133 36q108 0 174 -66q65 -65 65 -176q0 -110 -65 -175q-66 -66 -174 -66q-138 0 -201 100q-64 102 -64 270q0 183 75 291zM1001 737q-62 62 -161 62q-102 0 -164 -62t-62 -162t63 -163
q64 -64 163 -64t161 62t62 163q0 102 -62 164z" />
    <glyph glyph-name="uni2790" unicode="&#x2790;" horiz-adv-x="1683" 
d="M470 1351q-167 -95 -262 -262t-95 -372t95 -372t262 -262t372 -95q204 0 371 95q169 96 263 262q95 167 95 372t-95 372q-94 166 -263 262q-167 95 -371 95q-205 0 -372 -95zM602 1092h504v-15l-395 -733h-19l395 733l-485 -2v17z" />
    <glyph glyph-name="uni2791" unicode="&#x2791;" horiz-adv-x="1683" 
d="M470 1351q-167 -95 -262 -262t-95 -372t95 -372t262 -262t372 -95q204 0 371 95q169 96 263 262q95 167 95 372t-95 372q-94 166 -263 262q-167 95 -371 95q-205 0 -372 -95zM647 668q56 54 150 65q-81 10 -133 61q-52 50 -52 124q0 79 65 132q64 52 165 52t165 -52
t64 -132q0 -74 -51 -124q-52 -51 -133 -61q93 -11 149 -65q58 -56 58 -136q0 -87 -71 -144q-69 -56 -181 -56q-113 0 -182 56q-70 57 -70 144q0 80 57 136zM995 1038q-61 47 -153 47q-93 0 -154 -47q-59 -46 -59 -120q0 -78 59 -127q61 -50 154 -50q92 0 153 50
q60 49 60 127q0 74 -60 120zM1011 671q-66 54 -169 54t-169 -54q-67 -55 -67 -139q0 -79 67 -132q65 -52 169 -52t169 52q66 52 66 132q0 85 -66 139z" />
    <glyph glyph-name="uni2792" unicode="&#x2792;" horiz-adv-x="1683" 
d="M470 1351q-167 -95 -262 -262t-95 -372t95 -372t262 -262t372 -95q204 0 371 95q169 96 263 262q95 167 95 372t-95 372q-94 166 -263 262q-167 95 -371 95q-205 0 -372 -95zM1019 440q-75 -108 -202 -108q-85 0 -149 53q-63 52 -78 150h16q18 -91 75 -139t136 -48
q122 0 191 105t69 278q0 67 -10 141q6 -65 -21 -123q-27 -59 -83 -95q-55 -36 -134 -36q-107 0 -174 67q-65 65 -65 175t65 175q67 67 174 67q138 0 201 -101q64 -102 64 -270q0 -183 -75 -291zM668 696q61 -61 161 -61q103 0 164 61q62 62 62 162q0 101 -63 164t-163 63
t-161 -61q-62 -62 -62 -164t62 -164z" />
    <glyph glyph-name="fl" unicode="&#xfb02;" horiz-adv-x="825" 
d="M205 1032v201q0 106 47 153q48 48 154 48h151v-17h-151q-101 0 -143 -42t-42 -142v-201h334v-16h-334v-1016h-16v1016h-207v16h207zM676 1434h16v-1434h-16v1434z" />
    <glyph glyph-name="u1F10B" unicode="&#x1f10b;" horiz-adv-x="1689" 
d="M1212 1349q168 -97 267 -266q98 -166 98 -366q0 -201 -98 -367q-99 -167 -267 -265q-167 -97 -368 -97q-202 0 -369 97q-168 97 -265 265q-97 167 -97 367q0 199 97 366q98 169 265 266t369 97q201 0 368 -97zM483 1334q-164 -95 -259 -259t-95 -358q0 -195 95 -359
t259 -259t361 -95q195 0 361 95q165 94 260 259q96 166 96 359q0 192 -96 358q-95 165 -260 259q-168 96 -361 96q-195 0 -361 -96zM648 992q75 110 198 110q122 0 197 -110q75 -109 75 -275q0 -167 -75 -276t-197 -109q-123 0 -198 109t-75 276q0 166 75 275zM1031 979
q-70 106 -185 106q-116 0 -186 -106t-70 -262t70 -262q71 -107 186 -107q114 0 185 107t71 262t-71 262z" />
    <glyph glyph-name="u1F10C" unicode="&#x1f10c;" horiz-adv-x="1683" 
d="M470 1351q-167 -95 -262 -262t-95 -372t95 -372t262 -262t372 -95q204 0 371 95q169 96 263 262q95 167 95 372t-95 372q-94 166 -263 262q-167 95 -371 95q-205 0 -372 -95zM644 992q75 110 198 110q122 0 197 -110q75 -109 75 -275q0 -167 -75 -276t-197 -109
q-123 0 -198 109t-75 276q0 166 75 275zM1027 979q-70 106 -185 106q-116 0 -186 -106t-70 -262t70 -262q71 -107 186 -107q114 0 185 107t71 262t-71 262z" />
    <glyph glyph-name="J.ss06" 
d="M102 479q0 -224 109 -350q108 -125 301 -125q204 0 309 113t105 383v934h16v-934q0 -280 -109 -396t-321 -116q-201 0 -313 130q-113 131 -113 361h16z" />
    <glyph glyph-name="Jcircumflex.ss06" 
d="M102 479q0 -224 109 -350q108 -125 301 -125q204 0 309 113t105 383v934h16v-934q0 -280 -109 -396t-321 -116q-201 0 -313 130q-113 131 -113 361h16zM934 1821l-250 -248h-22l262 262h20l262 -262h-22z" />
    <glyph glyph-name="Q.ss07" horiz-adv-x="1523" 
d="M1313 309q-99 -175 -269 -258l130 -211h-19l-125 203q-129 -55 -268 -55q-189 0 -336 93q-148 94 -230 259q-83 168 -83 377t83 377q82 165 230 259q147 93 336 93t336 -93q148 -94 230 -259q83 -168 83 -377q0 -234 -98 -408zM1298 317q97 174 97 400q0 206 -81 369
q-81 164 -224 253q-146 91 -328 91t-328 -91q-143 -89 -224 -253q-81 -163 -81 -369q0 -207 81 -370q81 -164 224 -253q144 -90 328 -90q138 0 258 53l-213 346h18l209 -337q169 80 264 251z" />
    <glyph glyph-name="a.ss01" horiz-adv-x="1177" 
d="M1044 1032v-1032h-16v373q-39 -175 -162 -280t-293 -105q-137 0 -243 67q-107 68 -167 188q-61 122 -61 273q0 148 61 272q60 121 167 189q106 67 243 67q170 0 293 -105t162 -277v370h16zM808 70q104 66 162 182t58 266q0 148 -58 263q-59 116 -162 182q-102 65 -235 65
q-132 0 -234 -65q-103 -66 -162 -183q-58 -116 -58 -264q0 -150 58 -265t162 -181q103 -66 234 -66t235 66z" />
    <glyph glyph-name="a.ss02" horiz-adv-x="1032" 
d="M805 950q104 -94 104 -252v-698h-16v276q-39 -134 -153 -211q-115 -77 -294 -77q-167 0 -260 74q-94 75 -94 204q0 136 103 215q102 78 280 78h416v139q0 152 -99 241q-100 89 -278 89q-146 0 -240 -69t-118 -187h-17q23 123 123 198q99 74 252 74q187 0 291 -94z
M891 543h-416q-168 0 -268 -74q-98 -73 -98 -203q0 -120 90 -191q91 -71 247 -71q206 0 320 102t125 273v164z" />
    <glyph glyph-name="aacute.ss01" horiz-adv-x="1177" 
d="M1044 1032v-1032h-16v373q-39 -175 -162 -280t-293 -105q-137 0 -243 67q-107 68 -167 188q-61 122 -61 273q0 148 61 272q60 121 167 189q106 67 243 67q170 0 293 -105t162 -277v370h16zM808 70q104 66 162 182t58 266q0 148 -58 263q-59 116 -162 182q-102 65 -235 65
q-132 0 -234 -65q-103 -66 -162 -183q-58 -116 -58 -264q0 -150 58 -265t162 -181q103 -66 234 -66t235 66zM567 1174l203 260h21l-203 -260h-21z" />
    <glyph glyph-name="aacute.ss02" horiz-adv-x="1032" 
d="M805 950q104 -94 104 -252v-698h-16v276q-39 -134 -153 -211q-115 -77 -294 -77q-167 0 -260 74q-94 75 -94 204q0 136 103 215q102 78 280 78h416v139q0 152 -99 241q-100 89 -278 89q-146 0 -240 -69t-118 -187h-17q23 123 123 198q99 74 252 74q187 0 291 -94z
M891 543h-416q-168 0 -268 -74q-98 -73 -98 -203q0 -120 90 -191q91 -71 247 -71q206 0 320 102t125 273v164zM506 1174l203 260h20l-203 -260h-20z" />
    <glyph glyph-name="abreve.ss01" horiz-adv-x="1177" 
d="M1044 1032v-1032h-16v373q-39 -175 -162 -280t-293 -105q-137 0 -243 67q-107 68 -167 188q-61 122 -61 273q0 148 61 272q60 121 167 189q106 67 243 67q170 0 293 -105t162 -277v370h16zM808 70q104 66 162 182t58 266q0 148 -58 263q-59 116 -162 182q-102 65 -235 65
q-132 0 -234 -65q-103 -66 -162 -183q-58 -116 -58 -264q0 -150 58 -265t162 -181q103 -66 234 -66t235 66zM367 1434q0 -94 58 -153q58 -60 146 -60q93 0 153 60t60 153h17q0 -100 -65 -165t-165 -65q-95 0 -158 65t-63 165h17z" />
    <glyph glyph-name="abreve.ss02" horiz-adv-x="1032" 
d="M805 950q104 -94 104 -252v-698h-16v276q-39 -134 -153 -211q-115 -77 -294 -77q-167 0 -260 74q-94 75 -94 204q0 136 103 215q102 78 280 78h416v139q0 152 -99 241q-100 89 -278 89q-146 0 -240 -69t-118 -187h-17q23 123 123 198q99 74 252 74q187 0 291 -94z
M891 543h-416q-168 0 -268 -74q-98 -73 -98 -203q0 -120 90 -191q91 -71 247 -71q206 0 320 102t125 273v164zM305 1434q0 -92 59 -153q58 -60 146 -60q93 0 153 60t60 153h16q0 -101 -64 -165q-65 -65 -165 -65q-96 0 -159 65q-62 63 -62 165h16z" />
    <glyph glyph-name="acircumflex.ss01" horiz-adv-x="1177" 
d="M1044 1032v-1032h-16v373q-39 -175 -162 -280t-293 -105q-137 0 -243 67q-107 68 -167 188q-61 122 -61 273q0 148 61 272q60 121 167 189q106 67 243 67q170 0 293 -105t162 -277v370h16zM808 70q104 66 162 182t58 266q0 148 -58 263q-59 116 -162 182q-102 65 -235 65
q-132 0 -234 -65q-103 -66 -162 -183q-58 -116 -58 -264q0 -150 58 -265t162 -181q103 -66 234 -66t235 66zM575 1419l-249 -248h-23l262 263h21l262 -263h-23z" />
    <glyph glyph-name="acircumflex.ss02" horiz-adv-x="1032" 
d="M805 950q104 -94 104 -252v-698h-16v276q-39 -134 -153 -211q-115 -77 -294 -77q-167 0 -260 74q-94 75 -94 204q0 136 103 215q102 78 280 78h416v139q0 152 -99 241q-100 89 -278 89q-146 0 -240 -69t-118 -187h-17q23 123 123 198q99 74 252 74q187 0 291 -94z
M891 543h-416q-168 0 -268 -74q-98 -73 -98 -203q0 -120 90 -191q91 -71 247 -71q206 0 320 102t125 273v164zM514 1419l-250 -248h-22l262 263h20l262 -263h-22z" />
    <glyph glyph-name="adieresis.ss01" horiz-adv-x="1177" 
d="M1044 1032v-1032h-16v373q-39 -175 -162 -280t-293 -105q-137 0 -243 67q-107 68 -167 188q-61 122 -61 273q0 148 61 272q60 121 167 189q106 67 243 67q170 0 293 -105t162 -277v370h16zM808 70q104 66 162 182t58 266q0 148 -58 263q-59 116 -162 182q-102 65 -235 65
q-132 0 -234 -65q-103 -66 -162 -183q-58 -116 -58 -264q0 -150 58 -265t162 -181q103 -66 234 -66t235 66zM407 1361q7 7 17 7t17 -7q8 -8 8 -18q0 -9 -8 -17q-7 -7 -17 -7t-17 7q-8 8 -8 17q0 10 8 18zM710 1361q7 7 17 7t17 -7q8 -8 8 -18q0 -9 -8 -17q-7 -7 -17 -7
t-17 7q-8 8 -8 17q0 10 8 18z" />
    <glyph glyph-name="adieresis.ss02" horiz-adv-x="1032" 
d="M805 950q104 -94 104 -252v-698h-16v276q-39 -134 -153 -211q-115 -77 -294 -77q-167 0 -260 74q-94 75 -94 204q0 136 103 215q102 78 280 78h416v139q0 152 -99 241q-100 89 -278 89q-146 0 -240 -69t-118 -187h-17q23 123 123 198q99 74 252 74q187 0 291 -94z
M891 543h-416q-168 0 -268 -74q-98 -73 -98 -203q0 -120 90 -191q91 -71 247 -71q206 0 320 102t125 273v164zM345 1361q7 7 17 7q11 0 18 -7t7 -18q0 -10 -7 -17t-18 -7q-10 0 -17 7t-7 17q0 11 7 18zM648 1361q7 7 18 7q10 0 17 -7t7 -18q0 -10 -7 -17t-17 -7q-11 0 -18 7
t-7 17q0 11 7 18z" />
    <glyph glyph-name="agrave.ss01" horiz-adv-x="1177" 
d="M1044 1032v-1032h-16v373q-39 -175 -162 -280t-293 -105q-137 0 -243 67q-107 68 -167 188q-61 122 -61 273q0 148 61 272q60 121 167 189q106 67 243 67q170 0 293 -105t162 -277v370h16zM808 70q104 66 162 182t58 266q0 148 -58 263q-59 116 -162 182q-102 65 -235 65
q-132 0 -234 -65q-103 -66 -162 -183q-58 -116 -58 -264q0 -150 58 -265t162 -181q103 -66 234 -66t235 66zM362 1434h21l203 -260h-21z" />
    <glyph glyph-name="agrave.ss02" horiz-adv-x="1032" 
d="M805 950q104 -94 104 -252v-698h-16v276q-39 -134 -153 -211q-115 -77 -294 -77q-167 0 -260 74q-94 75 -94 204q0 136 103 215q102 78 280 78h416v139q0 152 -99 241q-100 89 -278 89q-146 0 -240 -69t-118 -187h-17q23 123 123 198q99 74 252 74q187 0 291 -94z
M891 543h-416q-168 0 -268 -74q-98 -73 -98 -203q0 -120 90 -191q91 -71 247 -71q206 0 320 102t125 273v164zM301 1434h21l202 -260h-20z" />
    <glyph glyph-name="amacron.ss01" horiz-adv-x="1177" 
d="M1044 1032v-1032h-16v373q-39 -175 -162 -280t-293 -105q-137 0 -243 67q-107 68 -167 188q-61 122 -61 273q0 148 61 272q60 121 167 189q106 67 243 67q170 0 293 -105t162 -277v370h16zM808 70q104 66 162 182t58 266q0 148 -58 263q-59 116 -162 182q-102 65 -235 65
q-132 0 -234 -65q-103 -66 -162 -183q-58 -116 -58 -264q0 -150 58 -265t162 -181q103 -66 234 -66t235 66zM340 1335v17h471v-17h-471z" />
    <glyph glyph-name="amacron.ss02" horiz-adv-x="1032" 
d="M805 950q104 -94 104 -252v-698h-16v276q-39 -134 -153 -211q-115 -77 -294 -77q-167 0 -260 74q-94 75 -94 204q0 136 103 215q102 78 280 78h416v139q0 152 -99 241q-100 89 -278 89q-146 0 -240 -69t-118 -187h-17q23 123 123 198q99 74 252 74q187 0 291 -94z
M891 543h-416q-168 0 -268 -74q-98 -73 -98 -203q0 -120 90 -191q91 -71 247 -71q206 0 320 102t125 273v164zM279 1335v17h471v-17h-471z" />
    <glyph glyph-name="aogonek.ss01" horiz-adv-x="1177" 
d="M1065 -393v-17h-113q-74 0 -117 38q-42 38 -42 104q0 73 58 132q57 58 177 142v367q-39 -175 -162 -280t-293 -105q-137 0 -243 67q-107 68 -167 188q-61 122 -61 273q0 148 61 272q60 121 167 189q106 67 243 67q170 0 293 -105t162 -277v370h16v-1032
q-4 -3 -15.5 -11.5t-32 -23.5t-42.5 -31q-76 -55 -110 -104q-35 -50 -35 -98q0 -59 38 -92q37 -33 105 -33h113zM808 70q104 66 162 182t58 266q0 148 -58 263q-59 116 -162 182q-102 65 -235 65q-132 0 -234 -65q-103 -66 -162 -183q-58 -116 -58 -264q0 -150 58 -265
t162 -181q103 -66 234 -66t235 66z" />
    <glyph glyph-name="aogonek.ss02" horiz-adv-x="1032" 
d="M932 -393v-17h-113q-75 0 -118 38q-42 38 -42 104q0 70 58 130q54 56 176 142v272q-39 -134 -153 -211q-115 -77 -294 -77q-167 0 -260 74q-94 75 -94 204q0 136 103 215q102 78 280 78h416v139q0 152 -99 241q-100 89 -278 89q-146 0 -240 -69t-118 -187h-17
q23 123 123 198q99 74 252 74q187 0 291 -94t104 -252v-696l2 -2q-4 -3 -15.5 -11.5t-32 -23.5t-42.5 -31q-76 -55 -110 -104q-35 -50 -35 -98q0 -59 38 -92t105 -33h113zM891 543h-416q-168 0 -268 -74q-98 -73 -98 -203q0 -120 90 -191q91 -71 247 -71q206 0 320 102
t125 273v164z" />
    <glyph glyph-name="aring.ss01" horiz-adv-x="1177" 
d="M1044 1032v-1032h-16v373q-39 -175 -162 -280t-293 -105q-137 0 -243 67q-107 68 -167 188q-61 122 -61 273q0 148 61 272q60 121 167 189q106 67 243 67q170 0 293 -105t162 -277v370h16zM808 70q104 66 162 182t58 266q0 148 -58 263q-59 116 -162 182q-102 65 -235 65
q-132 0 -234 -65q-103 -66 -162 -183q-58 -116 -58 -264q0 -150 58 -265t162 -181q103 -66 234 -66t235 66zM423 1517q62 62 152 62t152 -62q64 -64 64 -153q0 -88 -64 -152q-63 -63 -152 -63t-152 63t-63 152q0 90 63 153zM716 1505q-60 58 -141 58q-83 0 -141 -58
q-57 -57 -57 -141q0 -82 57 -140q57 -59 141 -59q82 0 141 59q58 58 58 140q0 84 -58 141z" />
    <glyph glyph-name="aring.ss02" horiz-adv-x="1032" 
d="M805 950q104 -94 104 -252v-698h-16v276q-39 -134 -153 -211q-115 -77 -294 -77q-167 0 -260 74q-94 75 -94 204q0 136 103 215q102 78 280 78h416v139q0 152 -99 241q-100 89 -278 89q-146 0 -240 -69t-118 -187h-17q23 123 123 198q99 74 252 74q187 0 291 -94z
M891 543h-416q-168 0 -268 -74q-98 -73 -98 -203q0 -120 90 -191q91 -71 247 -71q206 0 320 102t125 273v164zM361 1517q62 62 153 62q90 0 152 -62q63 -63 63 -153q0 -89 -63 -152t-152 -63q-90 0 -153 63q-62 62 -62 152q0 91 62 153zM654 1505q-60 58 -140 58
q-83 0 -141 -58t-58 -141q0 -80 58 -140q57 -59 141 -59q81 0 140 59t59 140q0 84 -59 141z" />
    <glyph glyph-name="atilde.ss01" horiz-adv-x="1177" 
d="M1044 1032v-1032h-16v373q-39 -175 -162 -280t-293 -105q-137 0 -243 67q-107 68 -167 188q-61 122 -61 273q0 148 61 272q60 121 167 189q106 67 243 67q170 0 293 -105t162 -277v370h16zM808 70q104 66 162 182t58 266q0 148 -58 263q-59 116 -162 182q-102 65 -235 65
q-132 0 -234 -65q-103 -66 -162 -183q-58 -116 -58 -264q0 -150 58 -265t162 -181q103 -66 234 -66t235 66zM390 1351q-23 -33 -23 -83h-17v2q0 56 29 94q28 37 84 37q42 0 67 -17q27 -19 52 -49t48 -44q24 -15 58 -15q49 0 73 34q23 33 23 83h17v-2q0 -57 -29 -95
q-27 -36 -84 -36q-44 0 -67 16q-27 19 -52 49t-48 44q-24 15 -58 15q-50 0 -73 -33z" />
    <glyph glyph-name="atilde.ss02" horiz-adv-x="1032" 
d="M805 950q104 -94 104 -252v-698h-16v276q-39 -134 -153 -211q-115 -77 -294 -77q-167 0 -260 74q-94 75 -94 204q0 136 103 215q102 78 280 78h416v139q0 152 -99 241q-100 89 -278 89q-146 0 -240 -69t-118 -187h-17q23 123 123 198q99 74 252 74q187 0 291 -94z
M891 543h-416q-168 0 -268 -74q-98 -73 -98 -203q0 -120 90 -191q91 -71 247 -71q206 0 320 102t125 273v164zM329 1351q-24 -35 -24 -83h-16v2q0 57 28 94t84 37q43 0 68 -17t51 -49q25 -30 48 -44q24 -15 59 -15q48 0 72 34t24 83h16v-2q0 -58 -28 -95q-27 -36 -84 -36
q-45 0 -68 16q-25 17 -51 49q-25 30 -48 44q-24 15 -59 15q-49 0 -72 -33z" />
    <glyph glyph-name="f.calt" horiz-adv-x="471" 
d="M180 1386q48 48 154 48h151v-17h-151q-101 0 -143 -42q-41 -41 -41 -142v-201h333v-16h-333v-1016h-17v1233q0 106 47 153z" />
    <glyph glyph-name="i.ss03" horiz-adv-x="313" 
d="M189 1373q8 -8 8 -17q0 -10 -8 -18q-7 -7 -17 -7t-17 7q-8 8 -8 18q0 9 8 17q7 7 17 7t17 -7zM164 1016h-160v16h176v-1032h-16v1016z" />
    <glyph glyph-name="dotlessi.ss03" horiz-adv-x="313" 
d="M4 1032h176v-1032h-16v1016h-160v16z" />
    <glyph glyph-name="iacute.ss03" horiz-adv-x="313" 
d="M4 1032h176v-1032h-16v1016h-160v16zM164 1174l203 260h20l-203 -260h-20z" />
    <glyph glyph-name="ibreve.ss03" horiz-adv-x="313" 
d="M4 1032h176v-1032h-16v1016h-160v16zM-37 1434q0 -92 59 -153q58 -60 146 -60q93 0 153 60t60 153h16q0 -101 -64 -165q-65 -65 -165 -65q-96 0 -159 65q-62 63 -62 165h16z" />
    <glyph glyph-name="icircumflex.ss03" horiz-adv-x="313" 
d="M4 1032h176v-1032h-16v1016h-160v16zM172 1419l-250 -248h-22l262 263h20l262 -263h-22z" />
    <glyph glyph-name="idieresis.ss03" horiz-adv-x="313" 
d="M4 1032h176v-1032h-16v1016h-160v16zM3 1361q7 7 17 7q11 0 18 -7t7 -18q0 -10 -7 -17t-18 -7q-10 0 -17 7t-7 17q0 11 7 18zM306 1361q7 7 18 7q10 0 17 -7t7 -18q0 -10 -7 -17t-17 -7q-11 0 -18 7t-7 17q0 11 7 18z" />
    <glyph glyph-name="i.loclTRK" horiz-adv-x="282" 
d="M133 1032h17v-1032h-17v1032zM124 1373q7 7 17 7q11 0 18 -7t7 -17q0 -11 -7 -18t-18 -7q-10 0 -17 7t-7 18q0 10 7 17z" />
    <glyph glyph-name="i.loclTRK.ss03" horiz-adv-x="313" 
d="M4 1032h176v-1032h-16v1016h-160v16zM155 1373q7 7 17 7t17 -7q8 -8 8 -17q0 -10 -8 -18q-7 -7 -17 -7t-17 7q-8 8 -8 18q0 9 8 17z" />
    <glyph glyph-name="igrave.ss03" horiz-adv-x="313" 
d="M4 1032h176v-1032h-16v1016h-160v16zM-41 1434h21l202 -260h-20z" />
    <glyph glyph-name="ij.ss03" horiz-adv-x="595" 
d="M159 1373q7 -7 7 -17q0 -11 -7 -18t-18 -7q-10 0 -17 7t-7 18q0 10 7 17t17 7q11 0 18 -7zM133 1032h17v-1032h-17v1032zM437 1373q7 7 18 7q10 0 17 -7t7 -17q0 -11 -7 -18t-17 -7q-11 0 -18 7t-7 18q0 10 7 17zM262 -393q100 0 142 42t42 142v1225h-159v16h176v-1241
q0 -106 -47 -153q-48 -48 -154 -48h-108v17h108z" />
    <glyph glyph-name="ij.ss04" horiz-adv-x="565" 
d="M159 1373q7 -7 7 -17q0 -11 -7 -18t-18 -7q-10 0 -17 7t-7 18q0 10 7 17t17 7q11 0 18 -7zM133 1032h17v-1032h-17v1032zM407 1373q7 7 17 7t17 -7q8 -8 8 -17q0 -10 -8 -18q-7 -7 -17 -7t-17 7q-8 8 -8 18q0 9 8 17zM416 1032h16v-1442h-16v1442z" />
    <glyph glyph-name="imacron.ss01" horiz-adv-x="313" 
d="M4 1032h176v-1032h-16v1016h-160v16zM-63 1335v17h471v-17h-471z" />
    <glyph glyph-name="iogonek.ss03" horiz-adv-x="313" 
d="M155 1338q-8 8 -8 18q0 9 8 17q7 7 17 7t17 -7q8 -8 8 -17q0 -10 -8 -18q-7 -7 -17 -7t-17 7zM201 -393v-17h-113q-75 0 -118 38q-42 38 -42 104q0 71 59 132q57 58 177 142v1010h-160v16h176v-1032q-4 -3 -15.5 -11.5t-32 -23.5t-42.5 -31q-76 -55 -110 -104
q-35 -50 -35 -98q0 -59 38 -92q37 -33 105 -33h113z" />
    <glyph glyph-name="itilde.ss03" horiz-adv-x="313" 
d="M4 1032h176v-1032h-16v1016h-160v16zM-13 1351q-24 -35 -24 -83h-16v2q0 57 28 94t84 37q43 0 68 -17t51 -49q25 -30 48 -44q24 -15 59 -15q48 0 72 34t24 83h16v-2q0 -58 -28 -95q-27 -36 -84 -36q-45 0 -68 16q-25 17 -51 49q-25 30 -48 44q-24 15 -59 15
q-49 0 -72 -33z" />
    <glyph glyph-name="j.short" horiz-adv-x="294" 
d="M136 1373q7 7 18 7q10 0 17 -7t7 -17q0 -11 -7 -18t-17 -7q-11 0 -18 7t-7 18q0 10 7 17zM-39 -393q100 0 142 42t42 142v1241h17v-1241q0 -106 -47 -153q-48 -48 -154 -48h-47v17h47z" />
    <glyph glyph-name="j.ss03" horiz-adv-x="313" 
d="M155 1373q7 7 17 7t17 -7q8 -8 8 -17q0 -10 -8 -18q-7 -7 -17 -7t-17 7q-8 8 -8 18q0 9 8 17zM-20 -393q100 0 142 42t42 142v1225h-160v16h176v-1241q0 -106 -47 -153q-48 -48 -153 -48h-109v17h109z" />
    <glyph glyph-name="j.ss04" horiz-adv-x="282" 
d="M124 1373q7 7 17 7q11 0 18 -7t7 -17q0 -11 -7 -18t-18 -7q-10 0 -17 7t-7 18q0 10 7 17zM133 1032h17v-1442h-17v1442z" />
    <glyph glyph-name="uni0237.short" horiz-adv-x="294" 
d="M-39 -393q100 0 142 42t42 142v1241h17v-1241q0 -106 -47 -153q-48 -48 -154 -48h-47v17h47z" />
    <glyph glyph-name="uni0237.ss03" horiz-adv-x="313" 
d="M-20 -393q100 0 142 42t42 142v1225h-160v16h176v-1241q0 -106 -47 -153q-48 -48 -153 -48h-109v17h109z" />
    <glyph glyph-name="uni0237.ss04" horiz-adv-x="282" 
d="M133 1032h17v-1442h-17v1442z" />
    <glyph glyph-name="jcircumflex.short" horiz-adv-x="294" 
d="M-39 -393q100 0 142 42t42 142v1241h17v-1241q0 -106 -47 -153q-48 -48 -154 -48h-47v17h47zM154 1419l-250 -248h-23l262 263h21l262 -263h-23z" />
    <glyph glyph-name="jcircumflex.ss03" horiz-adv-x="313" 
d="M-20 -393q100 0 142 42t42 142v1225h-160v16h176v-1241q0 -106 -47 -153q-48 -48 -153 -48h-109v17h109zM172 1419l-250 -248h-22l262 263h20l262 -263h-22z" />
    <glyph glyph-name="jcircumflex.ss04" horiz-adv-x="282" 
d="M133 1032h17v-1442h-17v1442zM141 1419l-250 -248h-22l262 263h21l262 -263h-23z" />
    <glyph glyph-name="t.calt" horiz-adv-x="485" 
d="M133 1319h17v-287h292v-16h-292v-815q0 -102 41 -143q42 -42 143 -42h108v-16h-108q-107 0 -154 47t-47 154v1118z" />
    <glyph glyph-name="t.ss05" horiz-adv-x="532" 
d="M-2 1032h207v287h16v-287h291v-16h-291v-1016h-16v1016h-207v16z" />
    <glyph glyph-name="tbar.calt" horiz-adv-x="485" 
d="M150 1016v-404h292v-16h-292v-395q0 -102 41 -143q42 -42 143 -42h108v-16h-108q-107 0 -154 47t-47 154v1118h17v-287h292v-16h-292z" />
    <glyph glyph-name="tbar.ss05" horiz-adv-x="544" 
d="M518 1016h-291v-404h291v-16h-291v-596h-16v596h-207v16h207v404h-207v16h207v287h16v-287h291v-16z" />
    <glyph glyph-name="tcaron.calt" horiz-adv-x="485" 
d="M133 1319h17v-287h292v-16h-292v-815q0 -102 41 -143q42 -42 143 -42h108v-16h-108q-107 0 -154 47t-47 154v1118zM373 1454h16l-94 -293h-16z" />
    <glyph glyph-name="tcaron.ss05" horiz-adv-x="532" 
d="M-2 1032h207v287h16v-287h291v-16h-291v-1016h-16v1016h-207v16zM451 1434h16l-94 -293h-17z" />
    <glyph glyph-name="uni0163.calt" horiz-adv-x="485" 
d="M133 1319h17v-287h292v-16h-292v-815q0 -102 41 -143q42 -42 143 -42h108v-16h-108q-107 0 -154 47t-47 154v1118zM256 -113h16l-88 -282h-16z" />
    <glyph glyph-name="uni0163.ss05" horiz-adv-x="532" 
d="M-2 1032h207v287h16v-287h291v-16h-291v-1016h-16v1016h-207v16zM203 -113h16l-88 -282h-16z" />
    <glyph glyph-name="uni021B.calt" horiz-adv-x="485" 
d="M133 1319h17v-287h292v-16h-292v-815q0 -102 41 -143q42 -42 143 -42h108v-16h-108q-107 0 -154 47t-47 154v1118zM256 -113h16l-88 -282h-16z" />
    <glyph glyph-name="uni021B.ss05" horiz-adv-x="532" 
d="M-2 1032h207v287h16v-287h291v-16h-291v-1016h-16v1016h-207v16zM203 -113h16l-88 -282h-16z" />
    <glyph glyph-name="y.ss01" horiz-adv-x="1069" 
d="M936 1032v-1014q0 -211 -107 -326q-107 -114 -307 -114q-164 0 -267 80q-102 79 -130 229h18q28 -142 125 -218q96 -75 254 -75q193 0 295 110q103 111 103 314v357q-35 -180 -145 -283q-109 -102 -269 -102q-174 0 -279 120q-104 119 -104 339v583h16v-583
q0 -210 100 -327q99 -116 267 -116q122 0 217 66q94 66 145 185q52 122 52 280v495h16z" />
    <glyph glyph-name="yacute.ss01" horiz-adv-x="1069" 
d="M936 1032v-1014q0 -211 -107 -326q-107 -114 -307 -114q-164 0 -267 80q-102 79 -130 229h18q28 -142 125 -218q96 -75 254 -75q193 0 295 110q103 111 103 314v357q-35 -180 -145 -283q-109 -102 -269 -102q-174 0 -279 120q-104 119 -104 339v583h16v-583
q0 -210 100 -327q99 -116 267 -116q122 0 217 66q94 66 145 185q52 122 52 280v495h16zM522 1174l203 260h20l-202 -260h-21z" />
    <glyph glyph-name="ycircumflex.ss01" horiz-adv-x="1069" 
d="M936 1032v-1014q0 -211 -107 -326q-107 -114 -307 -114q-164 0 -267 80q-102 79 -130 229h18q28 -142 125 -218q96 -75 254 -75q193 0 295 110q103 111 103 314v357q-35 -180 -145 -283q-109 -102 -269 -102q-174 0 -279 120q-104 119 -104 339v583h16v-583
q0 -210 100 -327q99 -116 267 -116q122 0 217 66q94 66 145 185q52 122 52 280v495h16zM530 1419l-249 -248h-23l262 263h21l262 -263h-23z" />
    <glyph glyph-name="ydieresis.ss01" horiz-adv-x="1069" 
d="M936 1032v-1014q0 -211 -107 -326q-107 -114 -307 -114q-164 0 -267 80q-102 79 -130 229h18q28 -142 125 -218q96 -75 254 -75q193 0 295 110q103 111 103 314v357q-35 -180 -145 -283q-109 -102 -269 -102q-174 0 -279 120q-104 119 -104 339v583h16v-583
q0 -210 100 -327q99 -116 267 -116q122 0 217 66q94 66 145 185q52 122 52 280v495h16zM361 1361q7 7 18 7q10 0 17 -7t7 -18q0 -10 -7 -17t-17 -7q-11 0 -18 7t-7 17q0 11 7 18zM665 1361q7 7 17 7t17 -7q8 -8 8 -18q0 -9 -8 -17q-7 -7 -17 -7t-17 7q-8 8 -8 17q0 10 8 18z
" />
    <glyph glyph-name="ygrave.ss01" horiz-adv-x="1069" 
d="M936 1032v-1014q0 -211 -107 -326q-107 -114 -307 -114q-164 0 -267 80q-102 79 -130 229h18q28 -142 125 -218q96 -75 254 -75q193 0 295 110q103 111 103 314v357q-35 -180 -145 -283q-109 -102 -269 -102q-174 0 -279 120q-104 119 -104 339v583h16v-583
q0 -210 100 -327q99 -116 267 -116q122 0 217 66q94 66 145 185q52 122 52 280v495h16zM317 1434h21l203 -260h-21z" />
    <glyph glyph-name="w_w_w" horiz-adv-x="4571" 
d="M4522 1032h18l-395 -1032h-16l-346 1008l-369 -1008h-16l-365 1008l-385 -1008h-16l-346 1008l-369 -1008h-16l-365 1008l-385 -1008h-16l-347 1008l-368 -1008h-17l-372 1032h18l363 -1003l368 1003h19l344 -1003l385 1003h18l363 -1003l368 1003h19l344 -1003l385 1003
h18l363 -1003l368 1003h19l344 -1003z" />
    <glyph glyph-name="zero.osf" horiz-adv-x="1249" 
d="M182 782q68 122 186 192t257 70t257 -70q117 -70 185 -192t68 -266t-68 -266t-185 -192q-118 -70 -257 -70t-257 70t-186 192q-67 121 -67 266t67 266zM1053 773q-65 116 -180 186q-114 69 -248 69q-135 0 -249 -69t-179 -186q-66 -119 -66 -257t66 -257
q65 -117 179 -186t249 -69q134 0 248 69q115 70 180 186q65 117 65 257t-65 257z" />
    <glyph glyph-name="one.osf" horiz-adv-x="475" 
d="M209 729q86 0 86 90v213h16v-1032h-16v756q-24 -43 -86 -43h-209v16h209z" />
    <glyph glyph-name="two.osf" horiz-adv-x="1013" 
d="M909 16v-16h-829v16l487 332q94 64 157 119q57 49 91 115q33 63 33 145q0 133 -99 217t-257 84q-106 0 -192 -44q-85 -43 -133 -123q-48 -79 -48 -179v-35h-17v35q0 102 51 187q49 83 138 129q88 46 201 46q164 0 268 -88t104 -229q0 -121 -66 -203q-63 -78 -218 -186
l-474 -322h803z" />
    <glyph glyph-name="three.osf" horiz-adv-x="1130" 
d="M102 23q0 -183 122 -285q123 -103 327 -103q126 0 226 47q99 47 156 130q56 83 56 190q0 154 -122 246t-322 92h-96v16h96q124 0 216 43q95 44 143 119q50 77 50 168q0 98 -50 175t-141 120q-90 43 -206 43q-189 0 -301 -90q-113 -90 -113 -248h-16q0 166 118 260t312 94
q121 0 215 -45t147 -126q52 -80 52 -183q0 -135 -95 -228q-94 -93 -258 -108q181 -17 284 -109q104 -93 104 -239q0 -110 -59 -198q-58 -86 -162 -136q-102 -49 -234 -49q-215 0 -340 108t-125 296h16z" />
    <glyph glyph-name="four.osf" horiz-adv-x="1140" 
d="M840 1032h16v-1016h244v-16h-244v-369h-16v369h-779v16zM840 1008l-758 -992h758v992z" />
    <glyph glyph-name="five.osf" horiz-adv-x="1169" 
d="M840 489q102 -60 158 -165q57 -106 57 -240q0 -147 -63 -252t-166 -159t-226 -54q-134 0 -236 57q-99 55 -158 153q-57 95 -65 210h17q11 -111 64 -201q54 -91 152 -147t226 -56q116 0 217 53q102 54 161 153q60 102 60 243q0 127 -54 229t-154 161q-98 58 -230 58
q-146 0 -255 -70q-110 -71 -161 -200l-16 6l57 762h740v-16h-723l-54 -703q56 111 166 175q108 63 246 63t240 -60z" />
    <glyph glyph-name="six.osf" horiz-adv-x="1187" 
d="M909 1320q105 -102 133 -263h-16q-30 156 -129 252t-266 96q-246 0 -369 -191t-123 -497q0 -194 45 -344q-6 41 -6 80q0 137 56 240q58 106 160 164q103 58 237 58q133 0 231 -58t151 -164q52 -104 52 -240q0 -137 -55 -241q-56 -105 -156 -165q-99 -59 -233 -59
q-144 0 -246 66q-103 67 -160 188q-45 97 -68 220q-24 126 -24 255q0 315 127 509q128 195 381 195q174 0 278 -101zM402 843q-99 -57 -154 -158t-55 -232t53 -234q52 -102 150 -159q96 -56 225 -56q131 0 225 56q97 58 149 158q54 105 54 235q0 199 -113 323
q-112 123 -305 123q-132 0 -229 -56z" />
    <glyph glyph-name="seven.osf" horiz-adv-x="983" 
d="M33 1032h887v-16l-725 -1385h-19l725 1385h-868v16z" />
    <glyph glyph-name="eight.osf" horiz-adv-x="1183" 
d="M221 601q107 100 281 122q-154 22 -250 115q-94 91 -94 229q0 102 54 183q54 80 154 126q99 45 226 45t226 -45q100 -46 154 -126q54 -81 54 -183q0 -138 -94 -229q-96 -93 -250 -115q174 -22 281 -122q106 -99 106 -245q0 -106 -60 -190t-169 -131t-248 -47t-248 47
t-169 131t-60 190q0 146 106 245zM956 1242q-52 76 -148 120q-93 43 -216 43t-216 -43q-97 -45 -149 -120q-53 -77 -53 -175q0 -97 53 -174q51 -74 149 -119q93 -43 216 -43t216 43q97 45 148 119q54 79 54 174q0 96 -54 175zM993 541q-59 82 -164 128q-104 46 -237 46
q-136 0 -240 -46q-105 -47 -163 -128q-58 -82 -58 -185t58 -182q59 -80 164 -125t239 -45q132 0 237 45q103 44 164 125q60 79 60 182q0 102 -60 185z" />
    <glyph glyph-name="nine.osf" horiz-adv-x="1187" 
d="M1040 573q25 -130 25 -254q0 -311 -127 -505q-128 -195 -381 -195q-174 0 -278 101q-105 102 -134 266h17q30 -158 129 -254q100 -97 266 -97q245 0 369 190q123 189 123 494q0 195 -45 345q6 -39 6 -80q0 -134 -57 -237q-58 -105 -159 -162q-103 -58 -237 -58
q-132 0 -231 57q-98 57 -151 162q-52 104 -52 238q0 133 55 237t156 163q100 58 233 58q144 0 246 -66q103 -67 160 -185q42 -88 67 -218zM252 265q113 -122 305 -122q128 0 228 56q101 56 155 155q55 100 55 230q0 127 -53 230q-52 101 -150 157q-97 55 -225 55
q-130 0 -225 -55q-97 -56 -149 -156q-54 -103 -54 -231q0 -197 113 -319z" />
    <glyph glyph-name="one.osf.ss08" horiz-adv-x="1228" 
d="M1077 16v-16h-913v16h436v740q-24 -43 -86 -43h-291v16h291q86 0 86 90v213h16v-1016h461z" />
    <glyph glyph-name="seven.osf.ss08" horiz-adv-x="1062" 
d="M92 1032h907v-16l-725 -1385h-18l725 1385h-872v-320h-17v336z" />
    <glyph glyph-name="four.osf.ss09" horiz-adv-x="1030" 
d="M840 1032h16v-1401h-16v369h-779v16zM840 1008l-758 -992h758v992z" />
    <glyph glyph-name="zero.osf.zero" horiz-adv-x="1249" 
d="M882 974q117 -70 185 -192t68 -266t-68 -266t-185 -192q-118 -70 -257 -70t-257 70t-186 192q-67 121 -67 266t67 266q68 122 186 192t257 70t257 -70zM376 959q-114 -69 -179 -186q-66 -119 -66 -257q0 -99 35 -190q34 -89 98 -162l711 715q-66 70 -158 110
q-90 39 -192 39q-135 0 -249 -69zM873 73q115 70 180 186q65 117 65 257q0 100 -35 191q-33 87 -98 161l-711 -714q67 -72 158 -111q90 -39 193 -39q134 0 248 69z" />
    <glyph glyph-name="one.ss08" horiz-adv-x="1044" 
d="M938 16v-16h-885v16h447v1133q-24 -43 -86 -43h-262v16h262q86 0 86 90v222h16v-1418h422z" />
    <glyph glyph-name="seven.ss08" horiz-adv-x="1132" 
d="M1071 1434v-17l-801 -1417h-18l801 1417h-934v-319h-17v336h969z" />
    <glyph glyph-name="four.ss09" horiz-adv-x="1071" 
d="M850 1432h16v-1434h-16v412h-799v16zM850 1407l-778 -981h778v981z" />
    <glyph glyph-name="zero.tf" horiz-adv-x="1228" 
d="M135 752q0 202 60 360q61 160 167 247q109 89 252 89t252 -89q107 -88 168 -247q60 -158 60 -360v-66q0 -202 -60 -360q-61 -159 -168 -247q-109 -89 -252 -89t-252 89q-106 87 -167 247q-60 158 -60 360v66zM1077 752q0 196 -57 351q-57 154 -163 242q-105 87 -243 87
q-137 0 -242 -87q-106 -88 -163 -242q-57 -155 -57 -351v-66q0 -196 57 -351q57 -154 163 -242q105 -87 242 -87q138 0 243 87q106 88 163 242q57 155 57 351v66z" />
    <glyph glyph-name="one.tf" horiz-adv-x="1228" 
d="M1085 16v-16h-884v16h446v1133q-24 -43 -86 -43h-262v16h262q86 0 86 90v222h17v-1418h421z" />
    <glyph glyph-name="two.tf" horiz-adv-x="1228" 
d="M692 553q14 15 112 106q95 89 149 193q53 101 53 199q0 174 -113 276q-114 103 -305 103q-190 0 -302 -112t-112 -304v-33h-16v33q0 201 115 316q116 116 315 116t317 -107q117 -107 117 -288q0 -93 -38 -175q-39 -83 -94 -146q-57 -64 -153 -159l-35 -32l-542 -523h889
v-16h-912v16z" />
    <glyph glyph-name="three.tf" horiz-adv-x="1228" 
d="M152 389q0 -181 126 -283t332 -102q131 0 236 48q104 48 164 133q59 84 59 192q0 170 -128 260q-127 90 -343 90h-96v16h96q123 0 223 47t153 125q54 79 54 179q0 96 -53 173q-51 74 -149 119q-96 44 -216 44q-188 0 -303 -97q-114 -96 -114 -260h-17q0 175 119 274
t315 99q128 0 227 -45t153 -125t54 -182q0 -144 -101 -242t-271 -115q194 -15 303 -105q110 -91 110 -255q0 -111 -60 -200q-61 -89 -169 -139q-109 -50 -246 -50q-216 0 -345 107q-130 108 -130 294h17z" />
    <glyph glyph-name="four.tf" horiz-adv-x="1228" 
d="M86 428l784 1006h17v-1006h264v-16h-264v-412h-17v412h-784v16zM106 428h764v981z" />
    <glyph glyph-name="five.tf" horiz-adv-x="1228" 
d="M870 873q103 -61 158 -166q55 -106 55 -242q0 -151 -64 -258q-65 -109 -171 -164t-232 -55q-136 0 -235 56q-101 57 -156 151q-56 95 -63 206h16q10 -106 64 -198q53 -91 149 -145t225 -54q120 0 223 54t166 159q62 103 62 248q0 128 -53 232q-52 103 -152 162t-229 59
q-146 0 -261 -74q-114 -73 -159 -197l-16 4l57 783h739v-17h-725l-53 -725q52 109 167 176q114 66 251 66q133 0 237 -61z" />
    <glyph glyph-name="six.tf" horiz-adv-x="1228" 
d="M160 464q-25 133 -25 259q0 324 124 523q125 200 372 200q178 0 284 -100q108 -102 136 -263h-17q-30 157 -132 251q-104 96 -271 96q-240 0 -360 -195q-119 -193 -119 -512q0 -194 45 -344q-7 47 -7 80q0 136 59 243q59 108 163 167q107 61 239 61q135 0 236 -60
t153 -167q54 -111 54 -244q0 -137 -57 -244q-58 -108 -158 -167q-102 -60 -238 -60q-145 0 -250 66t-162 188q-45 94 -69 222zM1026 695q-52 105 -148 161q-97 57 -227 57t-232 -57q-100 -56 -158 -161q-56 -102 -56 -236q0 -133 54 -237q54 -103 154 -161q99 -57 228 -57
q130 0 229 57t153 161t54 237t-51 236z" />
    <glyph glyph-name="seven.tf" horiz-adv-x="1228" 
d="M133 1434h965v-17l-801 -1417h-18l800 1417h-946v17z" />
    <glyph glyph-name="eight.tf" horiz-adv-x="1228" 
d="M241 611q108 102 285 124q-158 23 -254 117q-96 95 -96 233q0 105 54 187q53 80 154 128q98 46 226 46q129 0 227 -46q100 -47 153 -128q54 -82 54 -187q0 -139 -96 -233t-254 -117q179 -23 286 -124t107 -249q0 -108 -60 -193q-59 -84 -169 -133q-108 -48 -248 -48
t-248 48q-109 48 -168 133q-61 87 -61 193q0 147 108 249zM975 1264q-51 76 -149 121t-216 45t-216 -45q-96 -44 -148 -121q-53 -79 -53 -179q0 -97 53 -176q53 -78 148 -122q96 -44 216 -44t216 44q97 45 149 122q53 79 53 176q0 100 -53 179zM1012 550q-62 85 -164 130
q-106 47 -238 47q-135 0 -239 -46q-105 -46 -163 -130q-58 -83 -58 -189q0 -104 58 -186q58 -81 164 -127q105 -45 238 -45q134 0 238 46t164 127q59 80 59 185q0 107 -59 188z" />
    <glyph glyph-name="nine.tf" horiz-adv-x="1228" 
d="M1068 972q24 -125 24 -251q0 -355 -128 -545q-127 -188 -368 -188q-176 0 -296 96t-150 276h16q30 -172 145 -264t285 -92q234 0 356 185q123 186 123 538q0 171 -41 326q0 -3 1.5 -15l2.5 -20q2 -28 2 -49q-2 -136 -60 -241q-59 -106 -163 -164t-237 -58q-137 0 -236 59
q-102 61 -154 166q-53 108 -53 244q0 139 57 246q57 106 159 165q103 60 241 60q143 0 251 -69t159 -187q40 -93 64 -218zM205 739q51 -102 148 -159q99 -58 227 -58t232 58q101 57 158 161q56 103 56 240q0 131 -54 233q-54 101 -154 159q-99 57 -228 57q-131 0 -230 -57
q-98 -56 -152 -160q-54 -103 -54 -238q0 -134 51 -236z" />
    <glyph glyph-name="seven.tf.ss08" horiz-adv-x="1228" 
d="M1090 1434v-17l-801 -1417h-19l801 1417h-934v-319h-16v336h969z" />
    <glyph glyph-name="four.tf.ss09" horiz-adv-x="1228" 
d="M922 1432h16v-1434h-16v412h-799v16zM922 1407l-779 -981h779v981z" />
    <glyph glyph-name="zero.tf.zero" horiz-adv-x="1228" 
d="M866 1359q107 -88 168 -247q60 -158 60 -360v-66q0 -202 -60 -360q-61 -159 -168 -247q-109 -89 -252 -89t-252 89q-106 87 -167 247q-60 158 -60 360v66q0 202 60 360q61 160 167 247q109 89 252 89t252 -89zM152 686q0 -207 63 -369l784 834q-61 135 -158 207
q-100 74 -227 74q-137 0 -242 -87q-106 -88 -163 -242q-57 -155 -57 -351v-66zM1077 752q0 217 -69 385l-787 -836q60 -140 161 -217q102 -78 232 -78q138 0 243 87q106 88 163 242q57 155 57 351v66z" />
    <glyph glyph-name="zero.tosf" horiz-adv-x="1228" 
d="M181 781q66 122 181 193q113 70 252 70t252 -70q116 -72 182 -193t66 -267q0 -144 -66 -266q-65 -120 -182 -191q-114 -69 -252 -69t-252 69q-115 70 -181 191q-66 122 -66 266q0 146 66 267zM1033 773q-64 117 -175 186t-244 69t-244 -69q-113 -70 -176 -186
q-65 -119 -65 -259q0 -138 65 -257q63 -117 176 -185q112 -68 244 -68t244 68q111 68 175 185q65 119 65 257q0 140 -65 259z" />
    <glyph glyph-name="one.tosf" horiz-adv-x="1228" 
d="M1077 16v-16h-913v16h436v740q-24 -43 -86 -43h-291v16h291q86 0 86 90v213h16v-1016h461z" />
    <glyph glyph-name="two.tosf" horiz-adv-x="1228" 
d="M1034 16v-16h-829v16l487 332q94 64 157 119q57 49 91 115q33 63 33 145q0 132 -100 217q-99 84 -257 84q-105 0 -191 -44q-85 -43 -133 -123q-48 -79 -48 -179v-35h-17v35q0 102 51 187q50 83 138 129t200 46q165 0 269 -88t104 -229q0 -121 -66 -203q-63 -78 -218 -186
l-474 -322h803z" />
    <glyph glyph-name="three.tosf" horiz-adv-x="1228" 
d="M143 -12q0 -181 126 -283t333 -102q131 0 236 48q103 47 163 133t60 191q0 171 -128 261q-127 90 -343 90h-96v16h96q125 0 223 46q99 46 153 126q54 79 54 178q0 96 -53 173q-52 75 -149 120q-93 43 -216 43q-189 0 -303 -96q-115 -97 -115 -260h-16q0 174 119 273
t315 99q127 0 226 -45q100 -45 154 -125q54 -79 54 -182q0 -143 -101 -241t-271 -115q193 -15 303 -106t110 -255q0 -111 -60 -199q-62 -91 -169 -140q-109 -50 -246 -50q-214 0 -345 108q-130 108 -130 294h16z" />
    <glyph glyph-name="four.tosf" horiz-adv-x="1228" 
d="M840 1032h16v-1016h244v-16h-244v-369h-16v369h-779v16zM840 1008l-758 -992h758v992z" />
    <glyph glyph-name="five.tosf" horiz-adv-x="1228" 
d="M858 492q102 -60 159 -166q56 -105 56 -240q0 -149 -62 -252q-63 -105 -166 -159q-104 -54 -227 -54q-134 0 -236 57q-99 55 -158 153q-56 93 -64 210h16q11 -109 65 -201t151 -147t226 -55q118 0 218 52q101 53 160 153q61 104 61 243q0 125 -55 229q-54 103 -153 161
q-100 59 -231 59q-144 0 -254 -71t-161 -200l-17 6l58 762h739v-16h-723l-53 -703q56 111 166 175q108 63 245 63q140 0 240 -59z" />
    <glyph glyph-name="six.tosf" horiz-adv-x="1228" 
d="M930 1320q105 -102 133 -263h-16q-30 156 -129 252t-267 96q-245 0 -368 -191t-123 -497q0 -194 45 -344q-6 40 -6 80q0 137 56 240q58 106 160 164q103 58 236 58q134 0 232 -58q97 -57 150 -164q52 -104 52 -240q0 -137 -55 -241q-56 -105 -156 -165q-99 -59 -233 -59
q-144 0 -246 66t-159 188q-45 97 -68 220q-25 131 -25 255q0 315 127 509q128 195 381 195q175 0 279 -101zM423 843q-101 -58 -155 -158q-55 -101 -55 -232t53 -234q52 -101 151 -159q96 -56 224 -56q131 0 225 56q99 59 150 158q53 103 53 235q0 199 -113 323
q-112 123 -305 123q-131 0 -228 -56z" />
    <glyph glyph-name="seven.tosf" horiz-adv-x="1228" 
d="M131 1032h887v-16l-725 -1385h-19l725 1385h-868v16z" />
    <glyph glyph-name="eight.tosf" horiz-adv-x="1228" 
d="M244 601q107 100 280 122q-154 22 -250 115q-94 91 -94 229q0 102 54 183q54 80 154 126q99 45 226 45q128 0 227 -45t153 -126q55 -82 55 -183q0 -137 -95 -229q-96 -93 -249 -115q173 -22 280 -122q107 -99 107 -245q0 -105 -61 -190q-60 -84 -169 -131t-248 -47
q-138 0 -247 47t-169 131q-61 85 -61 190q0 146 107 245zM979 1242q-52 75 -149 120q-93 43 -216 43t-216 -43q-96 -44 -148 -120q-53 -77 -53 -175q0 -97 53 -174q51 -74 148 -119q93 -43 216 -43t216 43q98 45 149 119q53 77 53 174q0 98 -53 175zM1016 541
q-59 82 -164 128q-104 46 -238 46q-135 0 -239 -46q-105 -47 -163 -128q-58 -82 -58 -185t58 -182q59 -80 164 -125t238 -45t238 45q103 44 164 125q59 78 59 182t-59 185z" />
    <glyph glyph-name="nine.tosf" horiz-adv-x="1228" 
d="M1061 573q24 -125 24 -254q0 -311 -127 -505q-128 -195 -380 -195q-175 0 -279 101t-133 266h16q30 -158 129 -254q100 -97 267 -97q244 0 368 190q123 189 123 494q0 195 -45 345q6 -39 6 -80q0 -135 -56 -237q-57 -104 -160 -162t-236 -58t-232 57q-97 56 -150 162
t-53 238q0 131 56 237q56 105 155 163q100 58 234 58q144 0 246 -66t159 -185q44 -92 68 -218zM272 265q113 -122 306 -122q128 0 228 56q101 56 155 155q55 100 55 230q0 127 -53 230q-52 100 -151 157q-97 55 -224 55q-131 0 -226 -55q-97 -56 -149 -156
q-53 -101 -53 -231q0 -198 112 -319z" />
    <glyph glyph-name="seven.tosf.ss08" horiz-adv-x="1228" 
d="M141 1032h908v-16l-725 -1385h-19l725 1385h-872v-320h-17v336z" />
    <glyph glyph-name="four.tosf.ss09" horiz-adv-x="1228" 
d="M922 1032h16v-1433h-16v411h-799v17zM922 1008l-779 -981h779v981z" />
    <glyph glyph-name="zero.tosf.zero" horiz-adv-x="1228" 
d="M866 974q116 -72 182 -193t66 -267q0 -144 -66 -266q-65 -120 -182 -191q-114 -69 -252 -69t-252 69q-115 70 -181 191q-66 122 -66 266q0 146 66 267q66 122 181 193q113 70 252 70t252 -70zM370 959q-113 -70 -176 -186q-65 -119 -65 -259q0 -100 34 -187
q36 -93 93 -161l705 706q-68 75 -156 115q-91 41 -191 41q-133 0 -244 -69zM858 72q111 68 175 185q65 119 65 257q0 101 -33 191t-94 157l-705 -706q66 -71 158 -112q89 -40 190 -40q132 0 244 68z" />
    <glyph glyph-name="zero.zero" horiz-adv-x="1224" 
d="M1032 1112q-61 159 -168 247q-109 89 -252 89t-252 -89q-106 -87 -167 -247q-60 -158 -60 -360v-66q0 -202 60 -360q61 -160 167 -247q109 -89 252 -89t252 89q107 88 168 247q60 158 60 360v66q0 202 -60 360zM150 752q0 196 57 351q57 154 163 242q105 87 242 87
q138 0 243 -87q106 -88 163 -242q57 -155 57 -351v-66q0 -196 -57 -351q-57 -154 -163 -242q-105 -87 -243 -87q-137 0 -242 87q-106 88 -163 242q-57 155 -57 351v66zM999 1153l11 -12l-791 -840l-10 12z" />
    <glyph glyph-name="u1F10C.zero" horiz-adv-x="1683" 
d="M470 1357q-167 -95 -262 -262t-95 -372t95 -372t262 -262t372 -95q204 0 371 95q169 96 263 262q95 167 95 372t-95 372q-94 166 -263 262q-167 95 -371 95q-205 0 -372 -95zM1039 998q75 -109 75 -275q0 -167 -75 -276t-197 -109q-123 0 -198 109t-75 276q0 166 75 275
q75 110 198 110q122 0 197 -110zM656 985q-70 -106 -70 -262q0 -121 45 -217l411 455q-72 131 -200 131q-115 0 -186 -107zM1027 461q71 107 71 262q0 125 -47 221l-412 -455q33 -64 85 -99q52 -36 118 -36q114 0 185 107z" />
    <glyph glyph-name="u1F10B.zero" horiz-adv-x="1689" 
d="M1212 1349q168 -97 267 -266q98 -166 98 -366q0 -201 -98 -367q-99 -167 -267 -265q-167 -97 -368 -97q-202 0 -369 97q-168 97 -265 265q-97 167 -97 367q0 199 97 366q98 169 265 266t369 97q201 0 368 -97zM483 1334q-164 -95 -259 -259t-95 -358q0 -195 95 -359
t259 -259t361 -95q195 0 361 95q165 94 260 259q96 166 96 359q0 192 -96 358q-95 165 -260 259q-168 96 -361 96q-195 0 -361 -96zM1043 992q75 -109 75 -275q0 -167 -75 -276t-197 -109q-123 0 -198 109t-75 276q0 166 75 275q75 110 198 110q122 0 197 -110zM660 979
q-70 -106 -70 -262q0 -121 45 -217l412 454q-72 131 -201 131q-116 0 -186 -106zM1031 455q71 107 71 262q0 125 -47 221l-412 -455q33 -64 85 -99q53 -36 118 -36q114 0 185 107z" />
    <glyph glyph-name="zero.dnom" horiz-adv-x="679" 
d="M142 648q75 110 198 110t198 -110q74 -108 74 -275q0 -168 -74 -276q-75 -109 -198 -109t-198 109q-74 108 -74 276q0 167 74 275zM525 635q-70 106 -185 106t-185 -106q-71 -107 -71 -262t71 -262t185 -107t185 107t71 262t-71 262z" />
    <glyph glyph-name="one.dnom" horiz-adv-x="309" 
d="M184 0v561q-6 -14 -30 -14h-154v16h154q12 0 21 9t9 22v151h17v-745h-17z" />
    <glyph glyph-name="two.dnom" horiz-adv-x="620" 
d="M80 537q0 101 64 161q65 60 167 60t166 -58t64 -147q0 -76 -40 -135q-41 -61 -118 -129l-299 -273h469v-16h-492v16l312 285q73 65 114 125q37 55 37 127q0 84 -59 136t-154 52t-155 -54t-60 -150v-17h-16v17z" />
    <glyph glyph-name="three.dnom" horiz-adv-x="636" 
d="M151 702q67 56 171 56q99 0 163 -55t64 -138q0 -72 -49 -120q-50 -48 -133 -60q96 -15 148 -63q54 -50 54 -129q0 -91 -69 -148t-181 -57q-120 0 -188 58q-70 59 -70 161h17q0 -98 66 -150q67 -53 175 -53q103 0 168 52q66 52 66 137q0 84 -68 134t-176 50h-51v16h51
q97 0 161 47q62 46 62 125q0 78 -59 127t-151 49q-101 0 -161 -51q-61 -52 -61 -137h-16q0 93 67 149z" />
    <glyph glyph-name="four.dnom" horiz-adv-x="657" 
d="M459 745h16v-516h135v-16h-135v-213h-16v213h-412v16zM459 719l-391 -490h391v490z" />
    <glyph glyph-name="five.dnom" horiz-adv-x="632" 
d="M518 729h-401l-21 -362q35 56 95 86t131 30q107 0 175 -68t68 -177q0 -113 -71 -181q-72 -69 -181 -69q-101 0 -168 55q-66 55 -77 145h16q10 -81 74 -133q63 -51 155 -51q101 0 168 66q68 66 68 168t-66 165q-67 64 -168 64q-75 0 -131 -34q-58 -35 -90 -95l-14 2
l22 405h416v-16z" />
    <glyph glyph-name="six.dnom" horiz-adv-x="653" 
d="M153 649q76 109 201 109q86 0 150 -53q63 -52 78 -150h-17q-18 90 -75 138t-136 48q-122 0 -190 -104q-70 -107 -70 -279q0 -67 10 -141q-6 64 22 124q26 57 83 94q56 36 133 36q107 0 174 -67q66 -66 66 -175t-66 -175t-174 -66q-138 0 -201 100t-63 270q0 183 75 291z
M504 393q-62 62 -162 62q-102 0 -164 -62q-61 -61 -61 -162t62 -163q64 -64 163 -64q100 0 162 62q61 61 61 163q0 103 -61 164z" />
    <glyph glyph-name="seven.dnom" horiz-adv-x="614" 
d="M57 748h504v-15l-395 -733h-19l396 733l-486 -2v17z" />
    <glyph glyph-name="eight.dnom" horiz-adv-x="638" 
d="M125 324q56 54 149 65q-81 10 -133 61q-51 50 -51 123q0 80 65 133q64 52 164 52q101 0 165 -52q65 -53 65 -133q0 -73 -51 -123q-52 -51 -133 -61q93 -11 149 -65q57 -56 57 -136q0 -87 -70 -144q-69 -56 -182 -56q-112 0 -181 56q-70 57 -70 144q0 80 57 136zM473 694
q-61 47 -154 47q-92 0 -153 -47q-60 -46 -60 -121q0 -77 60 -127q59 -49 153 -49q95 0 154 49t59 127q0 75 -59 121zM488 327q-66 54 -169 54q-102 0 -168 -54q-67 -55 -67 -139q0 -79 67 -132q65 -52 168 -52q104 0 169 52q67 53 67 132q0 84 -67 139z" />
    <glyph glyph-name="nine.dnom" horiz-adv-x="638" 
d="M499 96q-75 -108 -202 -108q-86 0 -150 53q-62 51 -77 149h16q18 -90 75 -138t136 -48q121 0 190 105q70 107 70 278q0 67 -10 141q6 -64 -22 -124q-26 -57 -83 -94q-56 -36 -133 -36q-107 0 -174 67q-65 65 -65 175t65 175q67 67 174 67q138 0 201 -101t63 -270
q0 -184 -74 -291zM147 352q61 -61 162 -61q103 0 164 61q62 62 62 162q0 101 -63 164t-163 63q-101 0 -162 -61t-61 -164t61 -164z" />
    <glyph glyph-name="zero.numr" horiz-adv-x="679" 
d="M142 1338q75 110 198 110t198 -110q74 -108 74 -275q0 -168 -74 -276q-75 -109 -198 -109t-198 109q-74 108 -74 276q0 167 74 275zM525 1325q-71 107 -185 107t-185 -107t-71 -262t71 -262t185 -107t185 107t71 262t-71 262z" />
    <glyph glyph-name="one.numr" horiz-adv-x="309" 
d="M184 690v561q-6 -14 -30 -14h-154v16h154q11 0 21 10q9 9 9 21v152h17v-746h-17z" />
    <glyph glyph-name="two.numr" horiz-adv-x="620" 
d="M80 1225q0 101 64 161q65 60 167 60q103 0 166 -57q64 -58 64 -148q0 -76 -40 -135q-41 -61 -118 -129l-299 -272h469v-17h-492v17l312 284q73 65 114 125q37 55 37 127q0 84 -59 136q-61 53 -154 53q-94 0 -155 -55q-60 -54 -60 -150v-17h-16v17z" />
    <glyph glyph-name="three.numr" horiz-adv-x="636" 
d="M151 1395q65 55 171 55q100 0 163 -54q64 -55 64 -139q0 -71 -49 -119q-51 -49 -133 -61q96 -15 148 -63q54 -50 54 -129q0 -91 -69 -148t-181 -57q-120 0 -188 58q-70 59 -70 161h17q0 -97 66 -149q68 -54 175 -54q101 0 168 53q66 53 66 136q0 84 -68 134t-176 50h-51
v16h51q96 0 161 48q62 46 62 124t-59 127q-61 50 -151 50q-100 0 -161 -52t-61 -137h-16q0 94 67 150z" />
    <glyph glyph-name="four.numr" horiz-adv-x="657" 
d="M459 1434h16v-516h135v-17h-135v-213h-16v213h-412v17zM459 1407l-391 -489h391v489z" />
    <glyph glyph-name="five.numr" horiz-adv-x="632" 
d="M518 1417h-401l-21 -362q35 56 95 86t131 30q107 0 175 -68t68 -177q0 -113 -71 -181q-72 -69 -181 -69q-101 0 -168 55q-66 55 -77 146h16q11 -83 74 -134t155 -51q101 0 168 66q68 66 68 168q0 103 -66 166t-168 63q-75 0 -131 -34q-58 -35 -90 -95l-14 2l22 406h416
v-17z" />
    <glyph glyph-name="six.numr" horiz-adv-x="653" 
d="M153 1339q76 109 201 109q86 0 150 -53q63 -52 78 -150h-17q-18 90 -75 138q-58 49 -136 49q-121 0 -190 -105q-70 -107 -70 -278q0 -68 10 -142q-6 64 22 124q26 57 83 94q56 36 133 36q108 0 174 -66t66 -175q0 -110 -66 -176t-174 -66q-138 0 -201 100t-63 271
q0 182 75 290zM504 1083q-62 62 -162 62q-102 0 -164 -62q-61 -61 -61 -161q0 -102 62 -164q64 -64 163 -64q100 0 162 62q61 61 61 164q0 102 -61 163z" />
    <glyph glyph-name="seven.numr" horiz-adv-x="614" 
d="M57 1434h504v-15l-395 -733h-19l396 733l-486 -2v17z" />
    <glyph glyph-name="eight.numr" horiz-adv-x="638" 
d="M125 1014q56 54 149 65q-81 10 -133 61q-51 50 -51 124q0 79 65 132q64 52 164 52q101 0 165 -52q65 -53 65 -132q0 -74 -51 -124q-52 -51 -133 -61q93 -11 149 -65q57 -56 57 -135q0 -88 -70 -145q-69 -56 -182 -56q-112 0 -181 56q-70 57 -70 145q0 79 57 135z
M473 1384q-62 48 -154 48q-91 0 -153 -48q-60 -46 -60 -120q0 -78 60 -127q61 -50 153 -50q93 0 154 50q59 49 59 127q0 74 -59 120zM488 1017q-66 54 -169 54q-102 0 -168 -54q-67 -55 -67 -138q0 -80 67 -133q65 -52 168 -52q104 0 169 52q67 53 67 133q0 83 -67 138z" />
    <glyph glyph-name="nine.numr" horiz-adv-x="638" 
d="M499 786q-75 -108 -202 -108q-86 0 -150 53q-62 51 -77 150h16q18 -91 75 -139t136 -48q121 0 190 105q70 107 70 278q0 68 -10 142q6 -64 -22 -124q-27 -59 -83 -95q-54 -35 -133 -35q-108 0 -174 66q-65 65 -65 175t65 175q67 67 174 67q138 0 201 -100
q63 -101 63 -271q0 -184 -74 -291zM147 1042q61 -61 162 -61q103 0 164 61q62 62 62 162q0 101 -63 164q-64 64 -163 64q-100 0 -162 -62q-61 -61 -61 -164t61 -164z" />
    <glyph glyph-name="uni2080.zero" horiz-adv-x="679" 
d="M538 443q74 -108 74 -275q0 -168 -74 -276q-75 -109 -198 -109t-198 109q-74 108 -74 276q0 167 74 275q75 110 198 110t198 -110zM155 430q-71 -107 -71 -262q0 -121 45 -217l412 455q-72 131 -201 131q-114 0 -185 -107zM525 -94q71 107 71 262q0 125 -47 221
l-412 -455q33 -64 85 -99q52 -36 118 -36q114 0 185 107z" />
    <glyph glyph-name="zero.dnom.zero" horiz-adv-x="679" 
d="M538 648q74 -108 74 -275q0 -168 -74 -276q-75 -109 -198 -109t-198 109q-74 108 -74 276q0 167 74 275q75 110 198 110t198 -110zM155 635q-71 -107 -71 -262q0 -121 45 -217l412 454q-72 131 -201 131q-115 0 -185 -106zM525 111q71 107 71 262q0 125 -47 221
l-412 -455q33 -64 85 -99q52 -36 118 -36q114 0 185 107z" />
    <glyph glyph-name="zero.numr.zero" horiz-adv-x="679" 
d="M538 1338q74 -108 74 -275q0 -168 -74 -276q-75 -109 -198 -109t-198 109q-74 108 -74 276q0 167 74 275q75 110 198 110t198 -110zM155 1325q-71 -107 -71 -262q0 -121 45 -217l412 454q-73 132 -201 132q-114 0 -185 -107zM525 801q71 107 71 262q0 125 -47 221
l-412 -455q33 -64 85 -99q52 -36 118 -36q114 0 185 107z" />
    </font>
</defs>
</svg>
